<?xml version="1.0" standalone="no"?>
<!DOCTYPE svg PUBLIC "-//W3C//DTD SVG 1.1//EN" "http://www.w3.org/Graphics/SVG/1.1/DTD/svg11.dtd" >
<svg xmlns="http://www.w3.org/2000/svg" xmlns:xlink="http://www.w3.org/1999/xlink" version="1.1">
<metadata>
Created by FontForge 20170731 at Sun Jan 22 10:59:06 2006
 By Aleksey,,,
HTF Didot   1992 The Hoefler Type Foundry, Inc. This typeface and the digital software that describes it are the exclusive property of HTF. HTF Didot is a trademark of The Hoefler Type Foundry, Inc.
</metadata>
<defs>
<font id="Didot-HTF-B16-Bold-Ital" horiz-adv-x="718" >
  <font-face 
    font-family="Didot"
    font-weight="700"
    font-style="italic"
    font-stretch="normal"
    units-per-em="1000"
    panose-1="2 0 8 3 9 0 0 2 0 4"
    ascent="800"
    descent="-200"
    x-height="434"
    cap-height="709"
    bbox="-245 -353 1103 975"
    underline-thickness="20"
    underline-position="-163"
    unicode-range="U+0020-FB02"
  />
<missing-glyph horiz-adv-x="500" 
 />
    <glyph glyph-name=".notdef" horiz-adv-x="500" 
 />
    <glyph glyph-name=".null" horiz-adv-x="0" 
 />
    <glyph glyph-name="nonmarkingreturn" horiz-adv-x="200" 
 />
    <glyph glyph-name="space" unicode=" " horiz-adv-x="200" 
 />
    <glyph glyph-name="space" unicode="&#xa0;" horiz-adv-x="200" 
 />
    <glyph glyph-name="exclam" unicode="!" horiz-adv-x="292" 
d="M340 674q0 21 -12.5 36t-36.5 15q-27 0 -53.5 -18.5t-43.5 -70.5q-11 -36 -18.5 -89.5t-16 -116.5t-20.5 -131.5t-32 -134.5q-2 -3 6 -3t10 3q13 44 34.5 94t45.5 100.5t48.5 99.5t44 91t32 74.5t12.5 50.5zM132 64q0 20 -12.5 33t-29.5 13q-14 0 -27 -6.5t-23 -17
t-15.5 -24.5t-5.5 -29q0 -20 12 -33t32 -13q13 0 25.5 6.5t22.5 17t15.5 24.5t5.5 29z" />
    <glyph glyph-name="quotedbl" unicode="&#x22;" horiz-adv-x="340" 
d="M401 676q0 50 -45 50q-17 0 -29 -14.5t-17 -31.5q-12 -37 -12.5 -85t-7.5 -99l-1.5 -4t-0.5 -5q-1 -5 5.5 -4.5t8.5 2.5q-1 0 1.5 5l2.5 5q11 22 27 45.5t31 47t26 45.5t11 43zM242 676q0 50 -45 50q-17 0 -29 -14.5t-17 -31.5q-12 -37 -12.5 -85t-7.5 -99l-1.5 -4
t-0.5 -5q-1 -5 5.5 -4.5t8.5 2.5q-1 0 1.5 5l2.5 5q11 22 27 45.5t31 47t26 45.5t11 43z" />
    <glyph glyph-name="numbersign" unicode="#" horiz-adv-x="464" 
d="M449 297q2 0 2 8t-2 8h-111l42 154q1 2 -6 3t-8 -1l-44 -156h-121l42 154q1 2 -6 3t-8 -1l-44 -156h-106q-2 0 -2 -8t2 -8h102l-41 -155h-109q-2 0 -2 -8t2 -8h104l-47 -167q0 -2 7.5 -3t8.5 1l46 169h122l-46 -167q-1 -2 6.5 -3t7.5 1l48 169h115q2 0 2 8t-2 8h-111
l42 155h115zM319 297l-42 -155h-122l42 155h122z" />
    <glyph glyph-name="dollar" unicode="$" horiz-adv-x="528" 
d="M559 597q0 43 -26 75.5t-71 45.5l5 13.5t10 30t9.5 30.5l4.5 14q0 2 -8.5 4t-8.5 0l-28 -89q-16 4 -37 4h-12t-11 -1l26 82q1 2 -7.5 4t-9.5 0l-4 -14t-9.5 -30.5l-10 -30l-4.5 -13.5q-44 -7 -81.5 -27.5t-65 -50.5t-43 -67.5t-15.5 -78.5q0 -28 6.5 -52.5t17.5 -46.5
t25 -42t29 -39l-98 -312q-44 12 -72 40t-28 65q0 40 28 40q10 0 17 -2.5t12 -5t11 -5t15 -2.5q16 0 26.5 11t10.5 34q0 20 -15 33.5t-35 13.5q-40 0 -66 -28.5t-26 -82.5q0 -45 33 -78t84 -47l-29 -91q-1 -3 7.5 -5t9.5 1l29 91q12 -3 24 -4t25 -1h10l-26 -82q-1 -3 7.5 -5
t9.5 1l4 13.5t9.5 30t9.5 30.5l4 14q54 4 94.5 24t68.5 51.5t42 71.5t14 84q0 31 -7 58t-19 51t-27 45.5t-31 41.5l92 291q38 -11 60.5 -36.5t22.5 -57.5q0 -21 -5 -33.5t-20 -12.5q-10 0 -16 2t-10.5 5t-9.5 5t-13 2q-14 0 -24 -10.5t-10 -31.5q0 -18 12.5 -29t30.5 -11
q34 0 58.5 25.5t24.5 76.5zM441 706l-88 -278q-11 14 -22 28.5t-21 28.5l7.5 23.5t17.5 55.5t21 66t17.5 55t7.5 23q7 1 14 1h15q16 0 31 -3zM361 704l-6 -20.5t-15 -49t-18.5 -58.5t-15.5 -49t-6 -21q-14 23 -22 46.5t-8 51.5q0 38 23 64.5t68 35.5zM337 130
q0 -53 -22.5 -86.5t-78.5 -41.5q3 9 12.5 38t20.5 64.5t21.5 69t16.5 50.5q13 -22 21.5 -45t8.5 -49zM296 245q-4 -11 -10.5 -33t-15 -48.5t-17.5 -54.5t-16.5 -51.5t-12.5 -39.5t-6 -19q-5 -1 -10 -1h-9q-20 0 -40 5l7 22t17 55t22.5 72t22.5 72.5t17 55.5l7 22
q11 -14 22.5 -28.5t21.5 -28.5z" />
    <glyph glyph-name="percent" unicode="%" horiz-adv-x="707" 
d="M390 587q0 60 -32.5 93t-82.5 33q-48 0 -89 -21.5t-71 -54.5t-47 -73.5t-17 -79.5q0 -60 33 -93t83 -33q48 0 89 21.5t70.5 54.5t46.5 73.5t17 79.5zM596 726q1 1 -6.5 5.5t-8.5 2.5l-434 -749q-1 -2 5.5 -6.5t7.5 -2.5zM689 220q0 60 -32.5 93t-82.5 33
q-48 0 -88.5 -21.5t-70.5 -54.5t-47 -73.5t-17 -79.5q0 -60 32.5 -93t82.5 -33q48 0 89 21.5t70.5 54.5t46.5 73.5t17 79.5zM319 629q0 -23 -7.5 -56.5t-20.5 -68t-30.5 -65.5t-36.5 -47q-14 -11 -26.5 -14.5t-26.5 -3.5q-25 0 -34.5 16t-9.5 52q0 22 7.5 56t20.5 68.5
t30 65t37 47.5q13 11 26.5 14.5t27.5 3.5q25 0 34 -16t9 -52zM619 262q0 -23 -7.5 -56.5t-20.5 -68t-30.5 -65.5t-37.5 -47q-12 -11 -25.5 -14.5t-27.5 -3.5q-25 0 -34.5 16t-9.5 52q0 22 7.5 56t20.5 68.5t30 65t37 47.5q14 11 26.5 14.5t27.5 3.5q24 0 34 -16t10 -52z" />
    <glyph glyph-name="ampersand" unicode="&#x26;" horiz-adv-x="764" 
d="M749 314q0 32 -21.5 54t-59.5 22t-61 -23t-40 -57.5t-32 -74t-36 -72.5q-32 67 -52.5 149.5t-20.5 177.5q77 38 120.5 81t43.5 89q0 31 -18.5 48t-55.5 17q-45 0 -86.5 -21.5t-73 -59t-50.5 -88t-19 -109.5q-124 -46 -187.5 -121.5t-63.5 -165.5q0 -41 13.5 -73.5
t37.5 -55.5t56.5 -35.5t71.5 -12.5q62 0 108.5 22.5t75.5 50.5q15 -17 30.5 -30.5t33.5 -23t40 -14.5t51 -5q32 0 60.5 9t52 25t40 37.5t23.5 46.5q1 2 -6.5 4.5t-8.5 0.5q-10 -29 -30 -43t-47 -14q-39 0 -72.5 23t-59.5 77q20 29 34 61t25.5 59t23 45t26.5 18
q19 0 25 -11.5t11 -25t13.5 -24.5t31.5 -11q29 0 41 16t12 38zM574 664q0 -47 -38.5 -85t-109.5 -73q1 36 8 72t20.5 64t33 45.5t45.5 17.5q41 0 41 -41zM390 67q-14 -15 -34 -23t-43 -8q-39 0 -67 13t-45.5 37t-25.5 57.5t-8 74.5q0 73 30 130t90 83q0 -62 8 -114.5
t21.5 -97t32.5 -82t41 -70.5z" />
    <glyph glyph-name="quotesingle" unicode="'" horiz-adv-x="181" 
d="M242 676q0 50 -45 50q-17 0 -29 -14.5t-17 -31.5q-12 -37 -12.5 -85t-7.5 -99l-1.5 -4t-0.5 -5q-1 -5 5.5 -4.5t8.5 2.5q-1 0 1.5 5l2.5 5q11 22 27 45.5t31 47t26 45.5t11 43z" />
    <glyph glyph-name="parenleft" unicode="(" horiz-adv-x="319" 
d="M477 725q2 0 -1 6.5t-4 5.5q-85 -48 -163.5 -119.5t-139 -160t-97 -190.5t-36.5 -211q0 -56 10 -101t27 -81.5t40 -65t50 -51.5q2 -1 6 3.5t2 5.5q-25 19 -37 50.5t-12 92.5q0 24 7.5 70.5t21 105.5t31.5 126.5t39 132.5t43.5 123.5t45.5 100.5q26 45 66 84t101 73z" />
    <glyph glyph-name="parenright" unicode=")" horiz-adv-x="319" 
d="M275 439q0 56 -10 101t-27 81.5t-40 65t-50 51.5q-2 1 -6.5 -3.5t-2.5 -5.5q13 -10 22.5 -22t15.5 -29t9 -39.5t3 -52.5q0 -24 -7.5 -70.5t-21 -105.5t-31.5 -126.5t-39 -132.5t-43.5 -123.5t-45.5 -100.5q-26 -45 -66 -84t-102 -73q-2 0 1.5 -6.5t4.5 -5.5
q85 48 163.5 119.5t139 160t97 190.5t36.5 211z" />
    <glyph glyph-name="asterisk" unicode="*" horiz-adv-x="290" 
d="M346 629q2 11 -4.5 22t-17.5 13q-6 2 -11 0q-7 -2 -13 -7t-13.5 -12.5t-18.5 -16t-27 -15.5l-6 -3l1 7q3 20 8.5 30.5t11.5 17.5t10.5 13t6.5 17q2 10 -4.5 19t-18.5 11t-20.5 -4.5t-10.5 -16.5t0.5 -17t5 -15.5t4 -21t-1.5 -32.5l-1 -6l-5 4q-14 12 -21.5 23t-12 21
t-8 17.5t-9.5 12.5q-4 2 -10 4q-11 2 -21 -6.5t-12 -19.5q-1 -11 6 -20q7 -8 14 -10t16.5 -4t22 -7t29.5 -18l2 -1.5t3 -2.5q-1 0 -3.5 -1l-2.5 -1q-20 -7 -34 -7q-13 0 -23 1t-17.5 1.5t-16.5 -4.5q-4 -2 -7.5 -6.5t-4.5 -9.5q-2 -11 4.5 -22t18.5 -13q6 -1 10 0
q7 1 13 6.5t14 13t18.5 15.5t27.5 16l5 3l-1 -7q-3 -20 -8.5 -30.5t-11 -17.5t-10 -13.5t-6.5 -16.5t4 -19t18 -11q13 -2 21.5 4.5t10.5 16.5t-0.5 17t-5.5 15.5t-4.5 21t2.5 32.5l1 6l5 -4q14 -12 21.5 -23t12 -21t8 -18t9.5 -12q2 -2 4.5 -2.5t4.5 -1.5q11 -2 21 6.5
t12 19.5q1 6 -1 11t-4 9q-7 8 -14.5 10t-17 3.5t-21.5 6.5t-29 19q-1 0 -2.5 1.5l-2.5 2.5q1 0 3 1t3 1q20 7 33 7t23 -1t18 -1.5t17 4.5q4 2 7 6.5t4 9.5z" />
    <glyph glyph-name="plus" unicode="+" horiz-adv-x="405" 
d="M354 202q2 0 2 10q0 11 -2 11h-141v152q0 2 -11 2q-10 0 -10 -2v-152h-145q-2 0 -2 -11q0 -10 2 -10h145v-147q0 -2 10 -2q11 0 11 2v147h141z" />
    <glyph glyph-name="comma" unicode="," horiz-adv-x="206" 
d="M132 46q0 22 -12 40.5t-38 18.5q-30 0 -45.5 -18.5t-15.5 -47.5q0 -13 3.5 -22.5t8 -18t8 -17.5t3.5 -21q0 -26 -18 -43t-40 -28q-11 -6 -25.5 -10.5t-28.5 -8.5q-1 0 -1.5 -3t-0.5 -6v-5t1 -1q40 8 76.5 28.5t64.5 47.5t44 57t16 58z" />
    <glyph glyph-name="hyphen" unicode="-" horiz-adv-x="322" 
d="M295 267q4 4 0 4h-250q-2 -17 -6 -33.5t-12 -27.5q-2 -4 0 -4h250q2 17 6 33.5t12 27.5z" />
    <glyph glyph-name="period" unicode="." horiz-adv-x="206" 
d="M133 58q0 20 -12.5 33.5t-30.5 13.5q-14 0 -27 -6.5t-22.5 -17.5t-15.5 -25t-6 -29q0 -20 13 -32.5t31 -12.5q13 0 26 6t22.5 16.5t15.5 24.5t6 29z" />
    <glyph glyph-name="slash" unicode="/" horiz-adv-x="328" 
d="M384 754q1 2 -6.5 5t-8.5 1l-318 -777q-1 -2 6.5 -5t7.5 -1z" />
    <glyph glyph-name="zero" unicode="0" horiz-adv-x="534" 
d="M477 266q0 37 -14 68t-37 53t-53.5 34.5t-64.5 12.5q-50 0 -99 -23t-87.5 -61.5t-62 -88t-23.5 -103.5q0 -37 13.5 -67.5t37 -52.5t54 -34.5t64.5 -12.5q49 0 97.5 23t87.5 61t63 88t24 103zM393 353q0 -13 -5.5 -37t-14.5 -53.5t-20 -61t-22 -59t-21 -49.5t-16 -31
q-11 -16 -20 -26.5t-19.5 -17t-23.5 -9t-32 -2.5q-38 0 -58 18t-20 48q0 13 5.5 37t14.5 53t20 60.5t21.5 59t20.5 49t16 31.5q10 16 19 26.5t19.5 17t23.5 9t31 2.5q39 0 60 -17.5t21 -47.5z" />
    <glyph glyph-name="one" unicode="1" horiz-adv-x="379" 
d="M371 425h-251q-2 0 -4 -8t0 -8h64q6 0 5 -4l-121 -385q-1 -4 -8 -4h-64q-2 0 -5 -8t-1 -8h251q2 0 4.5 8t0.5 8h-64q-6 0 -5 4l122 385q0 4 7 4h65q2 0 4 8t0 8z" />
    <glyph glyph-name="two" unicode="2" horiz-adv-x="431" 
d="M381 138q1 2 -7 2t-10 -2q-11 -37 -32 -50.5t-66 -13.5h-154q-10 0 -3 4q132 66 197 123.5t65 117.5q0 57 -39 86t-105 29q-37 0 -65.5 -11.5t-48.5 -29t-30.5 -39t-10.5 -41.5q0 -41 20.5 -60.5t54.5 -19.5q19 0 32 13t13 30q0 37 -34 37q-8 0 -12 -2l-8 -4t-9 -4
t-15 -2q-12 0 -16 6t-4 20q0 11 7.5 25.5t20.5 27.5t31.5 22t40.5 9q38 0 53 -16.5t15 -54.5q0 -41 -17 -85t-55 -87.5t-98 -83t-147 -70.5q-5 -2 -4 -8t3 -6h391q2 0 4 3z" />
    <glyph glyph-name="three" unicode="3" horiz-adv-x="404" 
d="M362 317q0 21 -7 42t-24 37.5t-46 27t-72 10.5q-35 0 -62 -11t-46 -28t-29 -37.5t-10 -39.5q0 -38 19 -60.5t54 -22.5q17 0 29.5 11t12.5 29q0 40 -31 40q-8 0 -12.5 -2t-8 -4t-8.5 -4t-14 -2q-12 0 -16 7t-4 22q0 9 6.5 23t19 26.5t31.5 21.5t44 9q39 0 54 -19t15 -60
q0 -36 -9 -70t-31.5 -65.5t-59.5 -60t-92 -53.5q-2 -1 2.5 -7t6.5 -4q26 14 43.5 21.5t30.5 7.5q25 0 38.5 -18.5t13.5 -69.5q0 -58 -11 -109.5t-35 -90.5t-61.5 -61.5t-89.5 -22.5q-31 0 -52 6.5t-33.5 16.5t-17.5 22.5t-5 24.5q0 20 11 29.5t24 9.5q11 0 18 -2.5t13 -5
l12 -5t15 -2.5q16 0 26.5 11.5t10.5 34.5t-15 37t-36 14q-48 0 -76 -31t-28 -76t31.5 -72.5t101.5 -27.5q46 0 100 21t101 59t78.5 90.5t31.5 115.5q0 61 -35 92.5t-90 31.5q-8 0 -16 -1t-19 -3q33 11 69.5 32t67 48t51 57.5t20.5 59.5z" />
    <glyph glyph-name="four" unicode="4" horiz-adv-x="461" 
d="M538 534q1 1 -5 5.5t-5 4.5q-14 -14 -39 -27t-52 -22t-51.5 -12.5t-37.5 2.5l-289 -357q-26 -33 -53 -64.5t-49 -51.5q-2 -2 0 -7t4 -5h228l-88 -278h110l87 278h103q2 0 5 8t1 8h-105l68 211q0 1 -8 2t-9 -2q-6 -12 -20 -29.5t-32 -33.5t-37.5 -28t-35.5 -13l-36 -107
h-212z" />
    <glyph glyph-name="five" unicode="5" horiz-adv-x="421" 
d="M402 413q0 16 -7.5 26t-28.5 10q-11 0 -23.5 -8.5t-29 -18.5t-39.5 -18.5t-54 -8.5q-59 0 -81 31q-1 1 -6.5 -1.5t-5.5 -4.5q-1 -2 -0.5 -3t-1.5 -6l-75 -334q-2 -5 -6.5 -14.5t-6.5 -14.5q-2 -7 2 -9.5t7 -2.5q2 0 7.5 1.5t7.5 4.5q2 8 1.5 15.5t6.5 20.5q20 34 46 48.5
t55 14.5q27 0 38.5 -17t11.5 -55q0 -74 -12.5 -136.5t-39.5 -107.5t-68 -70.5t-98 -25.5q-31 0 -51.5 6.5t-33 16.5t-18 22.5t-5.5 24.5q0 21 11.5 30.5t24.5 9.5q11 0 17.5 -2.5t12 -5.5t12 -5.5t16.5 -2.5q14 0 25.5 12t11.5 35q0 22 -15.5 36t-37.5 14q-47 0 -75 -30.5
t-28 -75.5t31.5 -73t102.5 -28q33 0 70.5 11.5t74 32t70.5 49.5t59.5 63t41 73t15.5 80q0 63 -40 100.5t-107 37.5q-38 0 -65 -13t-49 -40l66 287q5 -14 17.5 -26.5t30 -23t39 -16.5t45.5 -6q27 0 51 7t41.5 19t28 28.5t10.5 36.5z" />
    <glyph glyph-name="six" unicode="6" horiz-adv-x="494" 
d="M549 606q0 47 -26.5 76.5t-85.5 29.5q-42 0 -87.5 -25t-89.5 -67t-83 -97.5t-68.5 -117t-47 -125t-17.5 -121.5q0 -45 12.5 -76.5t33.5 -51.5t48 -29.5t56 -9.5q46 0 90 21t79 56.5t56.5 81t21.5 94.5q0 34 -11 62.5t-30.5 49t-46 32t-57.5 11.5q-32 0 -59 -17t-47 -47
q8 28 22 65.5t33 77.5t41.5 79t47.5 69.5t51.5 49.5t52.5 19q44 0 66.5 -20.5t22.5 -48.5q0 -19 -10.5 -28.5t-22.5 -9.5q-11 0 -17.5 2.5t-12.5 5l-12 5t-16 2.5q-15 0 -25.5 -11t-10.5 -36q0 -22 15 -35t37 -13q19 0 37 8t31 21.5t21 31t8 36.5zM359 321q0 -12 -4.5 -33
t-12 -46t-16.5 -52.5t-18 -51.5t-17.5 -43.5t-14.5 -28.5q-20 -31 -38 -44.5t-49 -13.5q-40 0 -57 16t-17 48q0 16 8.5 49.5t19.5 70t23 69t20 46.5t19 27.5t24 24.5t28 18t32 7q70 0 70 -63z" />
    <glyph glyph-name="seven" unicode="7" horiz-adv-x="436" 
d="M454 427h-9h-333q-2 0 -2.5 -1.5t-1.5 -2.5l-51 -162q-1 -2 7 -2q9 0 10 2q7 22 14.5 37t19 23.5t27 12t39.5 3.5h200l-482 -614h128l325 544q23 38 52 78t56 70q2 2 2 7t-1 5z" />
    <glyph glyph-name="eight" unicode="8" horiz-adv-x="499" 
d="M532 578q0 23 -8.5 47t-26.5 43.5t-45.5 31.5t-65.5 12q-47 0 -85 -16t-65 -44t-41.5 -64.5t-14.5 -77.5q0 -47 16 -82.5t40 -67.5q-95 -39 -151.5 -94.5t-56.5 -129.5q0 -33 13 -60t35.5 -46t52 -29t63.5 -10q45 0 87.5 14.5t75.5 42t53 66t20 86.5q0 30 -6 55t-16 47
t-23.5 42.5t-29.5 40.5q90 39 134.5 86t44.5 107zM456 608q0 -14 -1 -41.5t-11.5 -59t-34 -62t-67.5 -49.5q-16 21 -30 41t-24.5 41.5t-17 44.5t-6.5 50q0 63 29 93t87 30q42 0 59 -24t17 -64zM332 165q0 -84 -34.5 -121t-96.5 -37q-44 0 -67 25t-23 79t8.5 92t25 66
t41.5 46.5t59 33.5q16 -20 31.5 -41t28 -43.5t20 -47.5t7.5 -52z" />
    <glyph glyph-name="nine" unicode="9" horiz-adv-x="499" 
d="M441 267q0 75 -40.5 121t-110.5 46q-46 0 -91 -23.5t-81 -62t-58.5 -87t-22.5 -97.5q0 -74 41 -113.5t102 -39.5q35 0 62 16.5t46 45.5q-24 -77 -52.5 -140t-59 -108t-64 -69.5t-67.5 -24.5q-42 0 -67 19t-25 43q0 21 10 30t23 9q11 0 17.5 -3t11.5 -6l10 -6t14 -3
q17 0 28.5 12t11.5 36q0 21 -16 35t-37 14q-22 0 -40 -8.5t-30.5 -22t-19 -32t-6.5 -37.5q0 -47 31.5 -71.5t85.5 -24.5q42 0 88 24.5t89.5 66.5t83 97.5t69 117t47 125t17.5 121.5zM368 354q0 -16 -8.5 -51t-20.5 -73.5t-24.5 -72.5t-19.5 -48q-18 -35 -45 -59t-61 -24
q-70 0 -70 63q0 12 5 34.5t13 49.5t17.5 56.5t19.5 55.5t18.5 46.5t14.5 29.5q10 15 19 26t19 18t21.5 10.5t27.5 3.5q40 0 57 -16.5t17 -48.5z" />
    <glyph glyph-name="colon" unicode=":" horiz-adv-x="271" 
d="M220 345q0 20 -12 33.5t-30 13.5q-14 0 -27 -6.5t-23 -17.5t-15.5 -24.5t-5.5 -28.5q0 -21 12.5 -33.5t31.5 -12.5q13 0 25.5 6.5t22.5 17t15.5 24t5.5 28.5zM133 58q0 20 -12.5 33.5t-30.5 13.5q-14 0 -27 -6.5t-22.5 -17.5t-15.5 -25t-6 -29q0 -20 13 -32.5t31 -12.5
q13 0 26 6t22.5 16.5t15.5 24.5t6 29z" />
    <glyph glyph-name="semicolon" unicode=";" horiz-adv-x="271" 
d="M220 345q0 20 -12 33.5t-30 13.5q-14 0 -27 -6.5t-23 -17.5t-15.5 -24.5t-5.5 -28.5q0 -21 12.5 -33.5t31.5 -12.5q13 0 25.5 6.5t22.5 17t15.5 24t5.5 28.5zM132 46q0 22 -12 40.5t-38 18.5q-30 0 -45.5 -18.5t-15.5 -47.5q0 -13 3.5 -22.5t8 -18t8 -17.5t3.5 -21
q0 -26 -18 -43t-40 -28q-11 -6 -25.5 -10.5t-28.5 -8.5q-1 0 -1.5 -3t-0.5 -6v-5t1 -1q40 8 76.5 28.5t64.5 47.5t44 57t16 58z" />
    <glyph glyph-name="less" unicode="&#x3c;" horiz-adv-x="327" 
d="M283 88l-205 125l205 126q2 1 -2 8.5t-6 6.5l-224 -135v-11l224 -135q1 -1 2.5 1t3 5t2.5 6t0 3z" />
    <glyph glyph-name="equal" unicode="=" horiz-adv-x="368" 
d="M315 264q1 0 1 8t-1 8h-260q-1 0 -1 -8t1 -8h260zM315 145q1 0 1 8t-1 8h-260q-1 0 -1 -8t1 -8h260z" />
    <glyph glyph-name="greater" unicode="&#x3e;" horiz-adv-x="335" 
d="M286 207v11l-225 135q-2 1 -5.5 -6.5t-1.5 -8.5l205 -125l-205 -126q-2 -1 1.5 -8.5t5.5 -6.5z" />
    <glyph glyph-name="question" unicode="?" horiz-adv-x="478" 
d="M490 555q0 34 -12 65t-33 54.5t-50 37t-63 13.5q-38 0 -72.5 -13.5t-61 -35.5t-42.5 -48.5t-16 -51.5q0 -23 15 -42.5t41 -19.5q27 0 41 14t14 34q0 10 -2.5 17t-6 13.5t-6 14.5t-2.5 20q0 41 25 61t68 20q19 0 30.5 -5t17.5 -13t8 -19t2 -24q0 -18 -8 -56t-18.5 -79.5
t-21.5 -77t-18 -48.5q-17 -32 -32 -45.5t-44 -13.5q-20 0 -36.5 9t-20.5 26q-1 3 -8 1.5t-7 -4.5q0 -1 -2 -7.5t-2 -8.5l-57 -179q-1 -2 1.5 -2.5t5.5 -0.5q4 0 7 0.5t3 2.5l55 174q6 -12 25 -19t39 -7q48 0 92.5 18.5t78 51.5t53.5 77.5t20 95.5zM135 64q0 20 -12.5 33
t-29.5 13q-14 0 -27 -6.5t-23 -17t-15.5 -24.5t-5.5 -29q0 -20 12 -33t32 -13q13 0 25.5 6.5t22.5 17t15.5 24.5t5.5 29z" />
    <glyph glyph-name="at" unicode="@" horiz-adv-x="793" 
d="M760 403q0 77 -26 137t-70.5 101.5t-104 63t-125.5 21.5q-74 0 -139 -29t-114 -79.5t-77 -118.5t-28 -145t28 -144.5t77 -118t114 -79.5t139 -29q64 0 121 22t104 61q2 2 -3 8t-7 5q-45 -38 -99 -58.5t-116 -20.5q-71 0 -133 27.5t-108 75.5t-73 112.5t-27 138.5
q0 75 27 140t73 112.5t108 75t133 27.5q63 0 119 -20.5t98 -59.5t67 -95.5t25 -129.5q0 -47 -16 -85t-42 -65t-60 -42t-71 -15q-21 0 -30.5 8.5t-10 28t7.5 51.5t22 80l49 159h-83l-12 -36q-1 23 -13 33.5t-33 10.5q-44 0 -83.5 -21t-69 -54.5t-46.5 -74t-17 -79.5
q0 -24 5.5 -46.5t17.5 -40.5t31.5 -29t47.5 -11t55.5 21.5t46.5 80.5q-5 -19 -1.5 -37.5t16 -32.5t33.5 -23t50 -9q35 0 74 13.5t72 41t55 70.5t22 102zM491 466l-43 -141q-4 -12 -12.5 -34t-21.5 -43.5t-30 -37t-37 -15.5q-19 0 -26.5 13.5t-7.5 46.5q0 25 6.5 61t18.5 72
t29 67t39 48q11 10 20 12t19 2q47 0 46 -51z" />
    <glyph glyph-name="A" unicode="A" horiz-adv-x="655" 
d="M605 0q2 0 4 8t0 8h-94q-7 0 -7 3v704q0 2 -9.5 2.5t-11.5 -2.5l-508 -666q-19 -25 -29 -33t-21 -8h-71q-2 0 -4.5 -8t-0.5 -8h202q2 0 4.5 8t0.5 8h-77q-8 0 -5.5 7t22.5 35l140 181h233v-220q0 -3 -6 -3h-76q-2 0 -4 -8t0 -8h318zM373 256h-221l221 290v-290z" />
    <glyph glyph-name="B" unicode="B" horiz-adv-x="651" 
d="M634 555q0 72 -52 113t-152 41h-263q-2 0 -4.5 -8t-0.5 -8h90q7 0 5 -4l-210 -669q-1 -4 -8 -4h-90q-2 0 -4.5 -8t-0.5 -8h332q67 0 124 18t98.5 48.5t65 70t23.5 82.5q0 75 -49 114t-133 46q50 3 92 17t72.5 37t47.5 54t17 68zM523 640q0 -21 -6 -50.5t-15 -59t-19 -55
t-19 -38.5q-10 -15 -18 -24.5t-17 -15t-20.5 -8t-29.5 -2.5h-76l95 302q2 4 7 4h31q46 0 66.5 -9t20.5 -44zM460 304q0 -27 -6.5 -60t-16 -66t-21.5 -61.5t-24 -46.5q-11 -17 -23 -27.5t-25.5 -16.5t-29.5 -8t-36 -2h-86q-6 0 -5 4l111 350h79q48 0 65.5 -17t17.5 -49z" />
    <glyph glyph-name="C" unicode="C" horiz-adv-x="620" 
d="M677 723q1 2 -7 2t-9 -2q-7 -12 -19.5 -22t-39.5 -10q-15 0 -30.5 5.5t-32.5 12t-36.5 12t-42.5 5.5q-53 0 -104.5 -18.5t-97 -51.5t-84 -78.5t-66.5 -98.5t-43.5 -111.5t-15.5 -118.5q0 -62 17 -111.5t48 -84t75 -52.5t98 -18q81 0 152.5 44.5t129.5 127.5q1 1 -5 7
t-7 4q-115 -167 -270 -167q-37 0 -61 9.5t-38.5 25.5t-20 38t-5.5 47q0 29 8 72.5t20.5 93t29 100.5t32.5 96.5t30.5 81t24.5 52.5q28 49 61 71.5t92 22.5q40 0 69.5 -20.5t46 -52t20 -70.5t-8.5 -76q-1 -2 7 -2q9 0 10 2z" />
    <glyph glyph-name="D" unicode="D" horiz-adv-x="741" 
d="M722 436q0 59 -20.5 109t-56 86t-82.5 56.5t-101 20.5h-294q-2 0 -5 -8t-1 -8h90q6 0 5 -3l-210 -670q-2 -3 -8 -3h-90q-2 0 -4 -8t0 -8h320q53 0 108 16.5t105.5 46t95 70t77.5 89t52 103t19 111.5zM610 567q0 -28 -6.5 -67t-17 -82t-23.5 -87.5t-27.5 -84t-28 -70.5
t-24.5 -48q-38 -59 -89.5 -85.5t-127.5 -26.5h-73q-6 0 -6 3l211 670q1 3 8 3h49q44 0 74 -9.5t48 -26t25.5 -39.5t7.5 -50z" />
    <glyph glyph-name="E" unicode="E" horiz-adv-x="648" 
d="M680 706q3 3 -2 3h-510q-2 0 -4.5 -8t-0.5 -8h89q6 0 6 -4l-211 -669q-1 -4 -8 -4h-89q-2 0 -5 -8t-1 -8h565q3 0 3 3l72 225q0 2 -8 2t-9 -2q-12 -38 -37.5 -76t-65 -68t-93 -49t-120.5 -19h-58q-6 0 -6 4l110 346h20q31 0 51 -12.5t30 -32t10.5 -45t-7.5 -50.5
q-1 -2 7 -2q9 0 10 2l86 274q1 2 -8 2q-8 0 -9 -2q-16 -52 -59.5 -85t-105.5 -33h-20l96 307q2 4 8 4h70q48 0 78.5 -17t45.5 -44.5t16 -62t-10 -69.5q-1 -2 7 -2q9 0 10 2z" />
    <glyph glyph-name="F" unicode="F" horiz-adv-x="597" 
d="M684 708q0 2 -2 2h-513q-2 0 -5 -8t-1 -8h90q7 0 5 -4l-211 -669q0 -4 -7 -4h-90q-2 0 -4.5 -8t-0.5 -8h333q2 0 4.5 8t0.5 8h-89q-6 0 -6 4l110 346h28q31 0 51 -12t30 -32t10.5 -45t-7.5 -51q-1 -2 7 -2q9 0 10 2l86 274q1 2 -8 2q-8 0 -9 -2q-16 -52 -59.5 -85
t-105.5 -33h-28l96 307q2 4 8 4h73q48 0 78 -17t45.5 -44.5t16.5 -62t-10 -69.5q-1 -2 7 -2t9 2z" />
    <glyph glyph-name="G" unicode="G" horiz-adv-x="659" 
d="M690 279h-333q-2 0 -4.5 -8t-0.5 -8h90q6 0 5 -4l-59 -185q-10 -34 -33 -54.5t-74 -20.5q-37 0 -60 9.5t-36 25.5t-18 38t-5 47q0 30 8 73.5t21 92.5t29 100.5t32.5 96.5t31 80.5t24.5 52.5q14 25 28.5 43t32.5 29.5t40 17t52 5.5q40 0 69 -20.5t45.5 -52.5t20 -71
t-8.5 -76q0 -2 8 -2q9 0 9 2l74 234q0 1 -8 1.5t-9 -1.5q-6 -12 -18.5 -22.5t-40.5 -10.5q-15 0 -30.5 5.5t-32.5 12.5t-36 12.5t-42 5.5q-54 0 -105 -18.5t-97 -51.5t-84.5 -78.5t-66.5 -98.5t-43.5 -111.5t-15.5 -118.5q0 -62 16 -111.5t46 -84t73 -53t97 -18.5
q30 0 53.5 8t43 17.5t37 17.5t34.5 8q22 0 31.5 -11t5.5 -26q0 -1 2.5 -1.5t5.5 -0.5q4 0 7.5 0.5t3.5 1.5l83 262q1 4 7 4h90q2 0 4.5 8t0.5 8z" />
    <glyph glyph-name="H" unicode="H" horiz-adv-x="785" 
d="M871 709h-317q-2 0 -4.5 -8t-0.5 -8h74q7 0 5 -4l-98 -312h-230l98 312q2 4 8 4h74q2 0 4 8t0 8h-317q-2 0 -4 -8t0 -8h90q7 0 5 -4l-211 -669q-1 -4 -8 -4h-89q-2 0 -5 -8t-1 -8h317q2 0 5 8t1 8h-74q-6 0 -5 4l107 341h229l-107 -341q-1 -4 -8 -4h-74q-2 0 -4 -8t0 -8
h317q2 0 4 8t0 8h-89q-6 0 -6 4l212 669q2 4 8 4h89q2 0 4.5 8t0.5 8z" />
    <glyph glyph-name="I" unicode="I" horiz-adv-x="417" 
d="M502 709h-333q-2 0 -5 -8t-1 -8h90q7 0 5 -4l-211 -669q0 -4 -7 -4h-90q-2 0 -4.5 -8t-0.5 -8h334q2 0 4 8t0 8h-90q-6 0 -5 4l211 669q2 4 8 4h89q2 0 5 8t1 8z" />
    <glyph glyph-name="J" unicode="J" horiz-adv-x="577" 
d="M672 709h-333q-2 0 -4.5 -8t-0.5 -8h90q7 0 5 -4l-190 -602q-14 -48 -37 -68.5t-61 -20.5q-37 0 -59 10.5t-22 36.5q0 37 32 43q13 3 23 11t17 18.5t10 22t3 22.5q0 13 -5.5 26t-15.5 23t-23.5 16t-28.5 6q-21 0 -38 -8.5t-29 -22t-19 -30.5t-7 -33q0 -33 10.5 -61.5
t31 -49.5t49.5 -33t65 -12q102 0 174 54t110 174l151 478q2 4 8 4h90q2 0 4 8t0 8z" />
    <glyph glyph-name="K" unicode="K" horiz-adv-x="684" 
d="M780 709h-205q-2 0 -4.5 -8t-0.5 -8h70q12 0 9 -8.5t-29 -31.5l-326 -296l104 332q2 4 8 4h89q2 0 5 8t1 8h-333q-2 0 -5 -8t-1 -8h90q6 0 6 -4l-211 -669q-1 -4 -8 -4h-90q-2 0 -4.5 -8t-0.5 -8h318q2 0 4.5 8t0.5 8h-74q-6 0 -6 4l103 324l121 -322q2 -6 -6 -6h-86
q-2 0 -4.5 -8t-0.5 -8h348q2 0 4.5 8t0.5 8h-96q-2 0 -5 1.5t-3 3.5l-159 412l237 218q28 25 38.5 33.5t20.5 8.5h74q2 0 5 8t1 8z" />
    <glyph glyph-name="L" unicode="L" horiz-adv-x="600" 
d="M563 228q0 2 -8 2t-9 -2q-12 -38 -37.5 -76t-65 -68t-93 -49t-120.5 -19h-38q-6 0 -5 4l211 669q2 4 7 4h90q2 0 4.5 8t0.5 8h-333q-2 0 -4.5 -8t-0.5 -8h90q7 0 5 -4l-210 -669q-1 -4 -8 -4h-90q-2 0 -4.5 -8t-0.5 -8h544q3 0 3 3z" />
    <glyph glyph-name="M" unicode="M" horiz-adv-x="895" 
d="M981 709h-238q-8 0 -19 -19l-308 -495l-3 496q-2 18 -10 18h-230q-2 0 -4.5 -8t-0.5 -8h89q6 0 6 -4l-211 -669q-1 -4 -8 -4h-89q-2 0 -5 -8t-1 -8h210q2 0 4.5 8t0.5 8h-90q-6 0 -5 4l207 658l11 -691q1 -2 8 -2q8 0 10 2l428 689l-207 -656q-1 -4 -7 -4h-90
q-2 0 -4.5 -8t-0.5 -8h334q2 0 4 8t0 8h-90q-6 0 -5 4l211 669q2 4 8 4h89q2 0 5 8t1 8z" />
    <glyph glyph-name="N" unicode="N" horiz-adv-x="732" 
d="M823 709h-210q-2 0 -4.5 -8t-0.5 -8h90q7 0 5 -4l-151 -480l-160 482q-6 18 -17 18h-194q-2 0 -5 -8t-1 -8h77q6 0 6 -4l-211 -669q-1 -4 -8 -4h-89q-2 0 -5 -8t-1 -8h210q2 0 4.5 8t0.5 8h-90q-6 0 -5 4l196 624l221 -657q2 -3 10 -2.5t9 2.5l220 702q2 4 8 4h89
q2 0 5 8t1 8z" />
    <glyph glyph-name="O" unicode="O" 
d="M699 459q0 62 -17 111.5t-48.5 84t-75 53t-97.5 18.5t-105 -18.5t-97 -51.5t-84.5 -78.5t-66.5 -98.5t-43.5 -111.5t-15.5 -118.5q0 -62 17 -111.5t48 -84t75 -52.5t98 -18q80 0 154.5 40.5t131.5 107.5t91.5 152.5t34.5 175.5zM587 590q0 -30 -8 -73.5t-21 -92.5
t-29 -100.5t-32.5 -96.5t-31 -80.5t-24.5 -53.5q-14 -24 -29 -42t-33 -29.5t-40 -17t-52 -5.5q-37 0 -61 9.5t-38.5 25.5t-20 38t-5.5 47q0 29 8 72.5t20.5 93t29 100.5t32.5 96.5t30.5 81t24.5 52.5q28 49 61.5 71.5t92.5 22.5q37 0 61 -9t38.5 -25t20.5 -38t6 -47z" />
    <glyph glyph-name="P" unicode="P" horiz-adv-x="655" 
d="M678 534q0 45 -12.5 78t-40 54.5t-71 32t-105.5 10.5h-281q-2 0 -4.5 -8t-0.5 -8h90q7 0 5 -4l-211 -669q-1 -4 -7 -4h-90q-2 0 -4.5 -8t-0.5 -8h333q2 0 4.5 8t0.5 8h-90q-6 0 -5 4l88 278q15 -6 33.5 -9.5t44.5 -3.5q67 0 126 21t103 55.5t69.5 79.5t25.5 93zM551 624
q0 -25 -8 -62.5t-19.5 -76t-24.5 -71t-23 -47.5q-22 -34 -48.5 -50t-68.5 -16q-30 0 -46 3t-32 11l117 374q2 4 8 4h62q26 0 42.5 -4.5t25.5 -13t12 -21.5t3 -30z" />
    <glyph glyph-name="Q" unicode="Q" 
d="M699 459q0 62 -17 111.5t-48.5 84t-75 53t-97.5 18.5t-105 -18.5t-97 -51.5t-84.5 -78.5t-66.5 -98.5t-43.5 -111.5t-15.5 -118.5q0 -62 17 -111.5t48 -84t75 -53t98 -18.5q5 0 11.5 0.5t10.5 1.5q-16 -5 -40.5 -10.5t-50 -12t-49.5 -13t-40 -13.5q-17 -3 -27.5 -8
t-10.5 -7q0 -7 3.5 -11.5t6.5 -4.5q6 0 17 7.5t29 7.5q36 0 59.5 -18.5t44 -46t44.5 -60t61 -60t92.5 -46t139.5 -18.5q2 0 2 9q0 8 -2 8q-47 0 -75 19t-49 48t-40 62t-47 61.5t-70.5 46.5t-110.5 16q46 13 99.5 28.5t107.5 36.5q61 24 115 70.5t94.5 107.5t63.5 132t23 144
zM587 590q0 -30 -8 -73.5t-21 -92.5t-29 -100.5t-32.5 -96.5t-31 -80.5t-24.5 -53.5q-14 -24 -29 -42t-33 -29.5t-40 -17t-52 -5.5q-37 0 -61 9.5t-38.5 25.5t-20 38t-5.5 47q0 29 8 72.5t20.5 93t29 100.5t32.5 96.5t30.5 81t24.5 52.5q28 49 61.5 71.5t92.5 22.5
q37 0 61 -9t38.5 -25t20.5 -38t6 -47z" />
    <glyph glyph-name="R" unicode="R" horiz-adv-x="665" 
d="M644 555q0 72 -52 113t-152 41h-273q-2 0 -4.5 -8t-0.5 -8h90q7 0 5 -4l-210 -669q-1 -4 -8 -4h-90q-2 0 -4.5 -8t-0.5 -8h333q2 0 4.5 8t0.5 8h-90q-6 0 -5 4l108 341h75q43 0 60.5 -12t17.5 -42q0 -16 -6.5 -41.5t-14 -54t-13.5 -57t-6 -49.5q0 -33 11 -56.5t30 -38
t43 -21t50 -6.5q33 0 56 4.5t45 16.5q2 1 0.5 8.5t-3.5 6.5q-15 -8 -29 -11.5t-34 -3.5q-22 0 -33 15.5t-11 41.5q0 16 6 39.5t12.5 49t12.5 51.5t6 47q0 52 -33.5 84.5t-113.5 35.5q57 4 98.5 20.5t68.5 42t40.5 57.5t13.5 67zM530 632q0 -21 -5.5 -49t-14 -56t-18.5 -52.5
t-18 -37.5q-20 -29 -40.5 -44.5t-55.5 -15.5h-79l99 312q2 4 7 4h47q44 0 61 -14.5t17 -46.5z" />
    <glyph glyph-name="S" unicode="S" horiz-adv-x="533" 
d="M544 724q1 2 -7 2q-7 0 -9 -2q-5 -11 -15 -17t-27 -6q-11 0 -23.5 4t-26.5 9t-31 9t-37 4q-47 0 -86.5 -19t-69 -51.5t-46 -74.5t-16.5 -87q0 -43 16.5 -76.5t41 -61.5t53.5 -53t53.5 -50.5t41 -55t16.5 -65.5q0 -66 -35.5 -100t-107.5 -34q-48 0 -81 21.5t-51.5 55.5
t-21.5 75.5t10 81.5q0 2 -8 2t-9 -2l-69 -228q0 -2 8 -2t9 2q6 12 15.5 16.5t29.5 4.5q15 0 31.5 -6.5t36 -15t44 -15t56.5 -6.5q58 0 103 19.5t75.5 52.5t46 77t15.5 94q0 42 -17 76t-42 63.5t-54.5 55.5t-54.5 53t-42 56.5t-17 64.5q0 54 31.5 85t87.5 31q28 0 53 -12.5
t41.5 -36t21.5 -56.5t-8 -74q-1 -2 7 -2t9 2z" />
    <glyph glyph-name="T" unicode="T" horiz-adv-x="635" 
d="M736 706q3 3 -1 3h-590q-1 0 -4 -3l-71 -227q-1 -2 7 -2q9 0 9 2q13 42 35 80.5t54 68t74 47.5t95 18h12q7 0 5 -4l-211 -669q-1 -4 -8 -4h-89q-2 0 -4.5 -8t-0.5 -8h332q2 0 5 8t1 8h-90q-6 0 -5 4l211 669q2 4 7 4h12q55 0 87 -18.5t44.5 -49.5t9.5 -71.5t-16 -83.5
q-1 -2 7 -2q9 0 9 2z" />
    <glyph glyph-name="U" unicode="U" horiz-adv-x="743" 
d="M834 709h-197q-2 0 -4.5 -8t-0.5 -8h83q6 0 6 -4l-151 -475q-32 -101 -88 -152t-151 -51q-54 0 -80 27t-26 78q0 26 6 58t19 70l139 445q2 4 7 4h90q2 0 5 8t1 8h-334q-2 0 -4.5 -8t-0.5 -8h90q7 0 5 -4l-134 -426q-17 -54 -17 -100q0 -38 11.5 -71t35.5 -57t62 -38
t91 -14q115 0 185 58t102 161l154 487q2 4 8 4h83q2 0 4.5 8t0.5 8z" />
    <glyph glyph-name="V" unicode="V" horiz-adv-x="649" 
d="M827 693q2 0 3.5 8t-0.5 8h-214q-2 0 -4.5 -8t-0.5 -8h87q8 0 5 -6.5t-23 -35.5l-353 -479v517q0 4 6 4h80q2 0 4 8t0 8h-317q-2 0 -4.5 -8t-0.5 -8h90q7 0 7 -4v-704q0 -2 8 -2.5t10 2.5l490 666q30 42 42 42h85z" />
    <glyph glyph-name="W" unicode="W" horiz-adv-x="932" 
d="M1098 693q2 0 4 8t0 8h-196q-2 0 -4 -8t0 -8h80q5 0 2 -6.5t-23 -35.5l-331 -477l-14 334l93 131q13 18 21.5 28.5t14 16t9.5 7.5t8 2h71q2 0 4 8t0 8h-737q-2 0 -4 -8t0 -8h89q7 0 7 -4l29 -704q0 -2 8 -2.5t10 2.5l249 344l13 -344q1 -2 9 -2.5t10 2.5l459 666
q19 28 25 35t10 7h84zM721 693q5 0 3 -7t-21 -33l-87 -120l-8 156q0 4 7 4h106zM486 354l-136 -187l-22 522q0 4 6 4h133q7 0 5 -5z" />
    <glyph glyph-name="X" unicode="X" horiz-adv-x="685" 
d="M774 709h-201q-2 0 -5 -8t-1 -8h74q13 0 10 -6.5t-23 -29.5l-201 -224l-65 256q0 4 5 4h91q2 0 4.5 8t0.5 8h-331q-2 0 -4.5 -8t-0.5 -8h86q6 0 8 -4l93 -373l-232 -258q-23 -26 -34 -34t-19 -8h-74q-2 0 -5 -8t-1 -8h202q2 0 4.5 8t0.5 8h-73q-5 0 -7.5 1t-0.5 5.5t9 13
t20 22.5l215 239l69 -277q0 -4 -5 -4h-96q-2 0 -4.5 -8t-0.5 -8h349q2 0 4.5 8t0.5 8h-99q-7 0 -7 4l-99 394l213 237q21 23 33.5 32.5t18.5 9.5h73q2 0 4.5 8t0.5 8z" />
    <glyph glyph-name="Y" unicode="Y" horiz-adv-x="663" 
d="M805 709h-202q-2 0 -4.5 -8t-0.5 -8h85q3 0 3.5 -1t-2 -5.5t-8.5 -12.5t-18 -23l-237 -302l-76 340q-1 1 0.5 2.5t4.5 1.5h108q2 0 4.5 8t0.5 8h-355q-2 0 -4.5 -8t-0.5 -8h92q7 0 7 -4l81 -361l-98 -308q0 -4 -7 -4h-90q-2 0 -4.5 -8t-0.5 -8h333q2 0 4.5 8t0.5 8h-90
q-6 0 -5 4l97 306l256 325q11 14 18.5 22.5t12 13t7.5 5.5t5 1h77q2 0 5 8t1 8z" />
    <glyph glyph-name="Z" unicode="Z" horiz-adv-x="643" 
d="M690 709h-460q-1 0 -4 -3l-74 -236q-1 -2 7 -2t9 2q13 43 39.5 83.5t63 71.5t81 49.5t95.5 18.5h78q3 0 3.5 -1.5t-0.5 -2.5l-552 -675q-3 -4 -3 -9t2 -5h507q4 0 4 3l71 225q1 2 -8 2q-8 0 -8 -2q-12 -38 -38 -76t-65.5 -68t-93 -49t-120.5 -19h-83q-5 0 -3 4l551 675
q3 4 3 9t-2 5z" />
    <glyph glyph-name="bracketleft" unicode="[" horiz-adv-x="323" 
d="M484 721q2 0 4 7.5t0 7.5h-232q-4 0 -5 -3l-306 -972q-1 -4 3 -4h233q2 0 3.5 8t-0.5 8h-114q-7 0 -5 3l296 941q2 4 8 4h115z" />
    <glyph glyph-name="backslash" unicode="\" horiz-adv-x="358" 
d="M300 -17l-318 777q-1 2 -8.5 -1t-6.5 -5l319 -777q0 -2 7.5 1t6.5 5z" />
    <glyph glyph-name="bracketright" unicode="]" horiz-adv-x="323" 
d="M367 733q2 4 -3 4h-233q-2 0 -4 -8t0 -8h114q7 0 5 -4l-296 -940q-1 -4 -7 -4h-116q-2 0 -3.5 -8t0.5 -8h231q4 0 5 4z" />
    <glyph glyph-name="asciicircum" unicode="^" horiz-adv-x="326" 
d="M340 523q-8 19 -16 42.5t-15 49t-12 50.5t-8 47q0 2 -7 4t-9 0q-17 -18 -37.5 -41t-43.5 -48.5t-49 -52t-54 -50.5q-1 -1 1 -2.5t4.5 -3t5 -2.5t3.5 0q36 31 66 59t58 55q8 -38 19 -66t23 -50z" />
    <glyph glyph-name="underscore" unicode="_" horiz-adv-x="545" 
d="M495 0q2 0 2 8t-2 8h-465q-2 0 -2 -8t2 -8h465z" />
    <glyph glyph-name="grave" unicode="`" horiz-adv-x="354" 
d="M374 512q-36 9 -58 27.5t-36 42t-21.5 48t-14 44.5t-14.5 33t-22 13q-21 0 -33.5 -14t-12.5 -37q0 -15 7 -38.5t29 -48t63 -48t109 -39.5q2 -1 4 7t0 10z" />
    <glyph glyph-name="a" unicode="a" horiz-adv-x="529" 
d="M502 436l-108 -11l-19 -43q-5 26 -26 39t-47 13q-58 0 -108.5 -26.5t-88 -67.5t-59 -91t-21.5 -98q0 -30 7 -58.5t22.5 -51t40.5 -36.5t61 -14q84 0 136 107q-14 -46 8 -76.5t66 -30.5q18 0 37.5 7t38 20.5t35 32.5t28.5 42l-15 6q-19 -32 -41.5 -51.5t-46.5 -19.5
q-14 0 -18.5 9.5t-1.5 20.5zM366 354l-55 -174q-33 -82 -66 -125t-71 -43q-22 0 -34.5 14.5t-12.5 53.5q0 31 8.5 77t24.5 92.5t38.5 87t49.5 61.5q18 13 30 17.5t24 4.5q29 0 46.5 -18.5t17.5 -47.5z" />
    <glyph glyph-name="b" unicode="b" horiz-adv-x="504" 
d="M466 288q0 34 -11.5 61.5t-31 46.5t-44 29t-50.5 10q-38 0 -71.5 -23t-53.5 -64l121 386q-1 1 -1 2t-2 1l-167 -3q-2 0 -5 -8t-1 -8h55q6 0 5 -4l-166 -527q-30 -97 -2 -146.5t135 -49.5q52 0 104 24.5t93.5 65.5t67 94.5t25.5 112.5zM367 339q0 -25 -8.5 -63.5
t-21.5 -79t-27.5 -75.5t-27.5 -53q-26 -36 -50.5 -49t-55.5 -13q-34 0 -49.5 23t-3.5 67l56 171q29 78 62.5 112t71.5 34q32 0 43 -16.5t11 -57.5z" />
    <glyph glyph-name="c" unicode="c" horiz-adv-x="424" 
d="M409 326q0 19 -11.5 38.5t-30 35.5t-43 25.5t-50.5 9.5q-51 0 -96 -23t-79 -61.5t-54 -88.5t-20 -104q0 -37 11.5 -68t32.5 -53t49.5 -34t62.5 -12q52 0 97 27.5t79 72.5l-13 9q-30 -40 -68.5 -67t-93.5 -27q-35 0 -48.5 19t-13.5 57q0 23 8 63.5t20 83.5t25 80.5
t22 54.5q17 28 35 41t45 13q24 0 37.5 -8t13.5 -25q0 -10 -2.5 -16t-5.5 -12t-5.5 -14.5t-2.5 -21.5q0 -17 10.5 -31.5t34.5 -14.5q23 0 38.5 12.5t15.5 38.5z" />
    <glyph glyph-name="d" unicode="d" horiz-adv-x="519" 
d="M595 734q0 3 -2 3l-168 -5q-2 0 -4.5 -8t-0.5 -8l55 2q8 0 5 -3l-102 -329q-5 24 -25.5 36t-47.5 12q-58 0 -109 -26.5t-89 -68t-60 -92.5t-22 -100q0 -32 7.5 -60t23 -49.5t39.5 -34t58 -12.5q41 0 76.5 31.5t57.5 77.5q-13 -49 7.5 -79t64.5 -30q13 0 32.5 6t40 18.5
t40 31.5t33.5 46l-15 6q-41 -71 -87 -71q-14 0 -19.5 8t-2.5 19zM366 351l-50 -158q-14 -37 -30.5 -70t-36 -57.5t-40 -39t-41.5 -14.5q-22 0 -31.5 13.5t-9.5 52.5q0 31 8.5 77.5t24.5 93t38.5 87.5t49.5 62q17 14 30 17t24 3q34 0 51 -17.5t13 -49.5z" />
    <glyph glyph-name="e" unicode="e" horiz-adv-x="425" 
d="M406 343q0 18 -8 34.5t-24.5 29t-40.5 20.5t-55 8q-50 0 -95.5 -23t-80.5 -61.5t-56 -88.5t-21 -104q0 -37 11.5 -68t32.5 -53t49.5 -34t62.5 -12q51 0 90 21.5t74 63.5l-9 11q-16 -17 -32 -32t-34 -26t-39.5 -17t-48.5 -6q-35 0 -48 20.5t-13 57.5q0 24 7 59t18 70h27
q49 0 91.5 9t74 26t49.5 41t18 54zM315 365q0 -25 -5.5 -49t-21.5 -43.5t-45 -31.5t-75 -12h-19q11 39 22 73.5t25.5 60t33 40.5t45.5 15q20 0 30 -11.5t10 -41.5z" />
    <glyph glyph-name="f" unicode="f" horiz-adv-x="311" 
d="M537 641q0 19 -7.5 37t-22.5 32.5t-37 23t-50 8.5q-40 0 -78 -18.5t-71.5 -51.5t-60 -79t-44.5 -102q-6 -14 -9.5 -27.5t-10.5 -32.5h-101q-2 0 -5.5 -7.5t-1.5 -7.5h104q-16 -57 -32.5 -124.5t-33.5 -136.5t-33.5 -134t-32.5 -116q-20 -60 -34 -99t-27 -62.5t-27 -33
t-33 -9.5q-16 0 -27.5 9.5t-11.5 26.5q0 7 3.5 14l7.5 15t7.5 17t3.5 18q0 17 -11.5 28t-36.5 11q-22 0 -37.5 -15.5t-15.5 -44.5q0 -20 9.5 -37.5t25.5 -30.5t36.5 -20t42.5 -7q43 0 78 19t64.5 53.5t53 82t42.5 104.5q13 41 28.5 98t32.5 120t34 129t33 125h118q1 0 3 7.5
t0 7.5h-116q1 4 4 15.5t7 24t7 23t4 14.5q22 69 41 111.5t35.5 66t32 32t29.5 8.5q41 0 41 -39q0 -14 -9.5 -30.5t-9.5 -36.5q0 -16 10 -26.5t35 -10.5q23 0 38.5 15.5t15.5 42.5z" />
    <glyph glyph-name="g" unicode="g" horiz-adv-x="501" 
d="M502 435l-109 -15l-14 -34q-8 22 -29 34.5t-49 12.5q-57 0 -107.5 -26.5t-88 -68t-59 -92.5t-21.5 -100q0 -30 6.5 -58t22 -49.5t40.5 -35t62 -13.5t71.5 26.5t60.5 79.5l-20 -60q-36 -112 -62 -178.5t-49.5 -101.5t-46.5 -45.5t-51 -10.5q-45 0 -63 15.5t-18 35.5
q0 25 24 31q16 3 26 19.5t10 34.5q0 21 -16.5 37.5t-39.5 16.5q-31 0 -50 -23t-19 -54q0 -23 10.5 -46t29.5 -41.5t45 -30t57 -11.5q103 0 182.5 82.5t127.5 233.5zM368 354l-55 -173q-35 -87 -70 -129.5t-75 -42.5q-22 0 -32.5 15.5t-10.5 54.5q0 41 10 89t27 92.5t39.5 81
t48.5 55.5q27 20 55 20q31 0 48 -16.5t15 -46.5z" />
    <glyph glyph-name="h" unicode="h" horiz-adv-x="523" 
d="M506 93l-14 6q-23 -38 -43.5 -55t-43.5 -17q-17 0 -24 11t-7 28q0 22 14 54t30.5 69.5t30.5 77.5t14 77q0 44 -22 67.5t-61 23.5q-41 0 -90 -33.5t-98 -118.5l143 452q0 2 -2 2l-169 -4q-2 0 -4.5 -8t-0.5 -8l55 1q6 0 6 -3l-225 -715h109l69 222q25 44 45.5 74.5t38 49
t33.5 27t33 8.5q18 0 27 -12t9 -31q0 -33 -13 -68t-28 -70t-28 -69t-13 -65t22.5 -53t62.5 -22q38 0 78 25.5t66 76.5z" />
    <glyph glyph-name="i" unicode="i" horiz-adv-x="291" 
d="M295 620q0 26 -16.5 43.5t-40.5 17.5q-26 0 -43 -17.5t-17 -43.5q0 -23 17 -40t43 -17q24 0 40.5 17t16.5 40zM272 93l-14 6q-22 -40 -43 -56t-44 -16q-17 0 -23.5 11t-6.5 28q0 24 15.5 58.5t33.5 74t33.5 81t15.5 78.5q0 31 -19.5 54t-58.5 23t-73 -23.5t-54 -66.5
l15 -6q14 29 32 45t31 16q14 0 20.5 -7t6.5 -26q0 -30 -15 -68t-33.5 -77.5t-33.5 -79t-15 -72.5q0 -34 22 -56.5t64 -22.5q20 0 40.5 7t39.5 20t35.5 32t28.5 43z" />
    <glyph glyph-name="j" unicode="j" horiz-adv-x="278" 
d="M297 620q0 26 -16.5 43.5t-40.5 17.5q-26 0 -43 -17.5t-17 -43.5q0 -23 17 -40t43 -17q24 0 40.5 17t16.5 40zM218 264q13 39 17 70.5t-2.5 54t-23.5 34.5t-47 12q-35 0 -68.5 -22.5t-53.5 -66.5l15 -6q14 29 30.5 45t32.5 16q14 0 20.5 -12.5t-0.5 -34.5l-153 -488
q-16 -51 -26.5 -83t-20.5 -50t-20 -24.5t-25 -6.5q-32 0 -32 34q0 13 9.5 27.5t9.5 33.5q0 17 -10 28.5t-35 11.5q-23 0 -38.5 -16.5t-15.5 -43.5q0 -20 9 -36.5t24 -28.5t34.5 -18.5t41.5 -6.5q40 0 72 13.5t58 42t48.5 73.5t42.5 108z" />
    <glyph glyph-name="k" unicode="k" horiz-adv-x="515" 
d="M487 371q0 29 -20 46.5t-51 17.5q-26 0 -45 -12.5t-34 -31.5t-29 -41.5t-31 -41.5t-38.5 -33t-52.5 -15l149 475q2 2 -2 2l-169 -4l-3 -8t-1 -8l54 1q6 0 6 -3l-225 -715h110l75 244q22 -4 31 -24t13 -48t8 -60t16 -59t37 -44.5t72 -17.5q65 0 101.5 36t36.5 90
q0 11 -4 22.5t-11.5 21.5t-19 16t-25.5 6q-23 0 -36 -14t-13 -31t10 -26t21.5 -15.5t21.5 -14t10 -21.5q0 -18 -17 -32t-39 -14q-31 0 -42.5 14.5t-15 37.5t-2.5 51.5t-4 56.5t-20.5 53t-50.5 41q24 16 39.5 38t29 41t27 32.5t32.5 13.5q13 0 16.5 -6t3.5 -12t-2 -9t-4.5 -6
t-4.5 -7.5t-2 -11.5q0 -13 9.5 -23t29.5 -10q26 0 40.5 19t14.5 43z" />
    <glyph glyph-name="l" unicode="l" horiz-adv-x="290" 
d="M345 735q2 1 1 1.5t-3 0.5l-167 -4q-2 0 -5 -8t-1 -8l56 1q7 0 4 -3l-187 -594q-20 -64 -0.5 -97t67.5 -33q39 0 79 25.5t67 76.5l-17 6q-19 -34 -40.5 -53t-45.5 -19q-14 0 -19.5 9.5t-0.5 27.5z" />
    <glyph glyph-name="m" unicode="m" horiz-adv-x="791" 
d="M775 93l-15 6q-23 -38 -44 -55t-44 -17q-16 0 -23 11t-7 28q0 24 14 56.5t30.5 69.5t30.5 76t14 76q0 44 -22 67.5t-60 23.5q-42 0 -85 -37t-88 -115q12 38 9.5 66.5t-14.5 47.5t-31.5 28.5t-42.5 9.5q-43 0 -86 -33.5t-92 -118.5q13 39 13.5 67.5t-9 47.5t-27 28
t-39.5 9q-35 0 -68.5 -23.5t-53.5 -66.5l15 -6q16 34 32 47.5t31 13.5q14 0 21 -13t0 -34l-112 -353h109l69 222q27 48 47 79t36 48.5t29 24.5t26 7q28 0 36.5 -26t-7.5 -75l-88 -280h109l67 214q25 48 45.5 80t36.5 51.5t29 27.5t25 8q18 0 27 -12t9 -31q0 -33 -13 -68
t-28 -70t-28 -69t-13 -65t22.5 -53t62.5 -22q38 0 78.5 25.5t66.5 76.5z" />
    <glyph glyph-name="n" unicode="n" horiz-adv-x="550" 
d="M534 93l-15 6q-23 -39 -43.5 -55.5t-43.5 -16.5q-17 0 -24 11t-7 28q0 22 14 54t31 69.5t31 77.5t14 77q0 44 -22.5 67.5t-60.5 23.5q-41 0 -90.5 -33.5t-97.5 -118.5q13 39 13 67q0 29 -9 47.5t-26.5 28t-39.5 9.5q-36 0 -69 -23.5t-53 -66.5l15 -6q16 34 31.5 47.5
t30.5 13.5t21.5 -13t-0.5 -35l-111 -352h109l69 221q25 44 45 74.5t37.5 49.5t34 27.5t33.5 8.5q18 0 26.5 -12t8.5 -31q0 -33 -12.5 -68.5t-28 -70.5t-28 -69t-12.5 -64q0 -31 22 -53t63 -22q37 0 77.5 25t66.5 77z" />
    <glyph glyph-name="o" unicode="o" horiz-adv-x="481" 
d="M436 266q0 37 -12 68t-33 53.5t-49.5 35t-62.5 12.5q-50 0 -96 -23t-81 -61.5t-56 -88.5t-21 -104q0 -37 11.5 -68t32.5 -53t49.5 -34t62.5 -12q50 0 96 23t81.5 61.5t56.5 88t21 102.5zM339 340q0 -20 -7.5 -59t-18.5 -81.5t-23 -79.5t-20 -52q-19 -32 -40.5 -47
t-48.5 -15q-35 0 -47 20.5t-12 57.5q0 20 7.5 59.5t18 82t22.5 79.5t20 51q19 32 40 47t50 15q34 0 46.5 -20.5t12.5 -57.5z" />
    <glyph glyph-name="p" unicode="p" horiz-adv-x="540" 
d="M495 278q0 30 -7 58t-22.5 50t-41 35.5t-61.5 13.5q-37 0 -72.5 -33t-63.5 -89q9 30 6.5 53t-13 38.5t-27.5 23t-36 7.5q-34 0 -68 -23.5t-54 -65.5l15 -6q17 33 32 46.5t30 13.5t21.5 -13t-0.5 -33l-208 -660h109l108 342q7 -21 28 -32.5t51 -11.5q54 0 104 26.5
t87.5 68.5t60 92.5t22.5 98.5zM393 348q0 -32 -9 -77t-24.5 -91t-36.5 -86.5t-44 -62.5q-14 -12 -26 -17.5t-28 -5.5q-67 0 -74 56l49 157q13 33 30 67.5t36.5 62t41 45.5t44.5 18q21 0 31 -13.5t10 -52.5z" />
    <glyph glyph-name="q" unicode="q" horiz-adv-x="503" 
d="M502 436l-107 -13l-19 -43q-5 26 -26 39.5t-45 13.5q-60 0 -111 -26.5t-88.5 -69t-59 -95t-21.5 -103.5q0 -30 8.5 -57t25 -47.5t41.5 -32.5t57 -12q38 0 74.5 29.5t57.5 82.5l-130 -409h110zM365 349l-56 -177q-28 -72 -63.5 -116.5t-72.5 -44.5q-24 0 -35 14.5
t-11 52.5q0 32 8.5 78t24.5 92.5t38.5 87t49.5 61.5q26 20 54 20q30 0 47.5 -19t15.5 -49z" />
    <glyph glyph-name="r" unicode="r" horiz-adv-x="433" 
d="M442 350q0 38 -23 61.5t-59 23.5q-37 0 -70 -34.5t-67 -110.5q11 37 10 64.5t-10.5 45.5t-26.5 26.5t-39 8.5q-35 0 -68.5 -23.5t-53.5 -66.5l15 -6q16 32 32 46.5t31 14.5t21.5 -13t-0.5 -35l-112 -352h110l62 198q24 51 42.5 87t33.5 58.5t27 32.5t23 10q15 0 20 -7
t5 -19q0 -11 -6 -18.5t-6 -23.5q0 -17 13 -29t39 -12q12 0 22.5 6.5t18 17t12 23.5t4.5 26z" />
    <glyph glyph-name="s" unicode="s" horiz-adv-x="373" 
d="M354 349q0 19 -9.5 35t-25 27t-36.5 17.5t-44 6.5q-32 0 -59.5 -12t-48.5 -32t-33 -45t-12 -50q0 -26 9.5 -45t23.5 -34.5t30.5 -29t30.5 -28.5t23.5 -33.5t9.5 -43.5q0 -33 -18.5 -54t-61.5 -21q-38 0 -53 11t-15 30q0 10 4.5 15t10.5 10t10.5 13t4.5 25q0 14 -11 29.5
t-35 15.5q-23 0 -37.5 -19.5t-14.5 -45.5q0 -20 10 -38.5t28 -32t43 -21.5t55 -8q41 0 72.5 11t53.5 29.5t33 42t11 49.5q0 30 -10 52.5t-25 40.5t-33 34t-33 31.5t-25 32.5t-10 39q0 31 17 48t51 17q48 0 48 -31q0 -7 -3 -12.5t-6.5 -10.5t-6.5 -11.5t-3 -15.5
q0 -16 10 -27.5t33 -11.5q21 0 34 12.5t13 38.5z" />
    <glyph glyph-name="t" unicode="t" horiz-adv-x="295" 
d="M324 432h-75l47 148l-111 -4l-44 -144h-73q-2 0 -4.5 -8.5t-0.5 -8.5h73l-93 -291q-19 -62 1.5 -97.5t68.5 -35.5q38 0 76.5 24.5t64.5 77.5l-15 6q-22 -40 -43 -56t-44 -16q-14 0 -19 9t-1 23l112 356h75q2 0 4 8.5t1 8.5z" />
    <glyph glyph-name="u" unicode="u" horiz-adv-x="541" 
d="M514 432l-110 -6l-70 -222q-25 -44 -45 -74.5t-37.5 -49t-33.5 -27t-33 -8.5q-18 0 -27 12t-9 30q0 34 13 69t28 70.5t28 69t13 64.5q0 32 -18.5 53.5t-57.5 21.5q-34 0 -66.5 -21.5t-52.5 -67.5l15 -6q15 31 31 46t30 15q13 0 18 -7t5 -24q0 -22 -14 -56t-31 -73
t-31 -80.5t-14 -78.5q0 -44 24 -67.5t63 -23.5q41 0 88 34t95 118q-14 -40 -13 -68.5t11.5 -47t28.5 -27.5t40 -9q35 0 73 24t65 78l-15 6q-22 -39 -41.5 -55t-42.5 -16q-34 0 -23 32z" />
    <glyph glyph-name="v" unicode="v" horiz-adv-x="504" 
d="M477 357q0 31 -14 54.5t-46 23.5q-23 0 -36 -19.5t-13 -45.5q0 -20 2.5 -34.5t5.5 -29.5t5.5 -33.5t2.5 -46.5q0 -44 -16.5 -81.5t-41.5 -65t-55 -43t-58 -15.5q-26 0 -38.5 14t-12.5 52q0 27 10 58t21.5 65t21.5 69.5t10 71.5q0 38 -18 61t-60 23q-34 0 -67.5 -22.5
t-53.5 -67.5l16 -6q13 28 29.5 44.5t31.5 16.5t20 -6t5 -22q0 -34 -9.5 -68t-21 -67t-21 -64t-9.5 -58q0 -57 28.5 -90.5t91.5 -33.5q43 0 94 31.5t94.5 83t72.5 117.5t29 134z" />
    <glyph glyph-name="w" unicode="w" horiz-adv-x="725" 
d="M698 356q0 31 -14.5 54.5t-46.5 23.5q-23 0 -34 -19t-11 -45q0 -20 2 -34.5t4.5 -29.5t4.5 -34t2 -47q0 -43 -16 -80.5t-40.5 -65t-55 -43.5t-59.5 -16q-68 0 -41 84l99 326l-110 -5l-74 -243q-35 -75 -67.5 -109.5t-60.5 -34.5q-40 0 -40 45q0 34 12.5 70t28 71.5t28 70
t12.5 64.5q0 33 -18.5 54t-57.5 21q-34 0 -66 -21.5t-53 -67.5l16 -6q14 31 30.5 46t29.5 15t18.5 -6.5t5.5 -23.5q0 -22 -14 -55t-31.5 -72.5t-31.5 -81.5t-14 -82q0 -44 23.5 -66.5t65.5 -22.5q19 0 43 10t47 27.5t43.5 41t33.5 50.5q-7 -29 0 -53t24 -41t42 -26t55 -9
q43 0 93 31.5t93 83.5t71.5 117.5t28.5 133.5z" />
    <glyph glyph-name="x" unicode="x" horiz-adv-x="512" 
d="M512 357q0 29 -18 53.5t-52 24.5q-43 0 -79 -40.5t-73 -120.5q-17 88 -42.5 124.5t-67.5 36.5q-32 0 -61.5 -22t-52.5 -67l14 -13q14 27 25.5 39.5t26.5 12.5q11 0 19.5 -6t16 -24.5t15 -52.5t17.5 -90q3 -14 4.5 -24t3.5 -21q-19 -39 -34 -65t-29 -42t-27 -22.5
t-28 -6.5q-16 0 -23.5 10t-7.5 22q0 13 6 21t6 24q0 12 -10.5 24t-30.5 12q-26 0 -45 -21.5t-19 -53.5q0 -18 7.5 -32t20 -24.5t28.5 -16t32 -5.5q43 0 83.5 37.5t78.5 119.5q19 -82 52 -119.5t75 -37.5q43 0 77.5 27.5t52.5 78.5l-16 7q-15 -34 -30.5 -49t-36.5 -15
q-23 0 -47 41t-41 137q-1 4 -3 14.5t-2 14.5q31 69 54 102.5t46 33.5q14 0 18.5 -5t4.5 -17t-4.5 -18.5t-4.5 -19.5q0 -17 10.5 -27t31.5 -10q20 0 39.5 18t19.5 53z" />
    <glyph glyph-name="y" unicode="y" horiz-adv-x="460" 
d="M499 407q0 12 -6.5 20t-23.5 8q-47 0 -92.5 -75.5t-106.5 -223.5l-28 129q-17 78 -40 124t-67 46q-37 0 -67 -25.5t-54 -70.5l11 -10q14 23 25.5 33t24.5 10q10 0 20 -5.5t19.5 -22t19 -48t18.5 -83.5l44 -253q-27 -62 -50 -110t-47.5 -81t-52 -50t-61.5 -17
q-16 0 -25.5 8t-9.5 26q0 13 11 29t11 35q0 17 -11 30t-36 13q-23 0 -39 -17.5t-16 -46.5q0 -21 9 -38t24.5 -29t35.5 -19t42 -7q43 0 76.5 21.5t63.5 64t58.5 106t63.5 147.5q41 101 68.5 163t50.5 98.5t46 53.5t56 27q14 6 24.5 14t10.5 26z" />
    <glyph glyph-name="z" unicode="z" horiz-adv-x="436" 
d="M420 430l-12 9l-11 -11q-19 -18 -38 -30.5t-48 -12.5t-74 12t-111 44l-68 -168l15 -6l29 74q38 -17 74.5 -23t64.5 -6q32 0 53 13l-313 -323l13 -13q20 24 41 35.5t47 11.5q22 0 44.5 -7t45 -15.5t46 -15.5t46.5 -7q29 0 54 8.5t43.5 24.5t29 38.5t10.5 49.5
q0 18 -6 35.5t-17 31.5t-27 22.5t-36 8.5q-23 0 -37.5 -13.5t-14.5 -36.5q0 -17 9.5 -26.5t26.5 -9.5q12 0 20.5 2.5t15 5.5t12 5.5t11.5 2.5q24 0 24 -34q0 -26 -15.5 -43.5t-47.5 -17.5q-16 0 -36.5 11t-44 24.5t-50 24.5t-54.5 11q-14 0 -25 -5z" />
    <glyph glyph-name="braceleft" unicode="{" horiz-adv-x="309" 
d="M420 721q3 0 5 7.5t-1 7.5h-8q-53 0 -101 -14.5t-85 -43t-58.5 -69.5t-21.5 -94q0 -32 5 -57.5t10.5 -49t10.5 -46.5t5 -50q0 -22 -10 -34.5t-19 -14.5q-10 -2 -12 -2q-8 0 -13.5 1.5t-10.5 1.5q-4 0 -7.5 -4.5t-3.5 -6.5t2 -6.5t5 -4.5q5 0 11 1.5t14 1.5q4 0 8 -2
q12 -3 12 -15q0 -15 -14 -34t-34.5 -42.5t-45 -51t-45 -58.5t-34.5 -65t-14 -71q0 -30 11 -57t32 -47.5t51 -32.5t68 -12h8q2 0 4 8t0 8h-8q-43 0 -55.5 17.5t-12.5 49.5q0 44 18.5 94.5t41 99.5t41 92.5t18.5 73.5q0 18 -8 33t-25 20q16 3 29 11.5t22.5 19.5t16.5 23.5
t11 23.5q9 28 14.5 67t11 79.5t11 78.5t13.5 64q19 56 48 78.5t81 22.5h8z" />
    <glyph glyph-name="bar" unicode="|" horiz-adv-x="159" 
d="M88 -23v778q0 2 -8 2q-7 0 -7 -2v-778q0 -2 7 -2q8 0 8 2z" />
    <glyph glyph-name="braceright" unicode="}" horiz-adv-x="309" 
d="M329 588q0 30 -11.5 57t-32.5 47.5t-51 32.5t-67 12h-8q-2 0 -4 -8t0 -8h8q43 0 55.5 -17.5t12.5 -49.5q0 -44 -18.5 -94.5t-41 -99.5t-41 -92.5t-18.5 -73.5q0 -18 8 -32.5t25 -20.5q-16 -3 -29 -11t-22.5 -19t-16.5 -23.5t-11 -23.5q-9 -29 -15 -68t-11 -79.5
t-10.5 -78.5t-13.5 -64q-19 -56 -48 -78.5t-81 -22.5h-8q-3 0 -5 -8t1 -8h8q53 0 101 15t85 43.5t58.5 70t21.5 94.5q0 31 -5 56.5t-10.5 49t-10.5 47t-5 50.5q0 21 10 33.5t19 14.5q5 2 12 2q8 0 13.5 -1t10.5 -1q4 0 7.5 4t3.5 6t-2 6.5t-5 4.5q-5 0 -11 -1t-14 -1
q-6 0 -8 1q-12 3 -12 15q0 15 14 34.5t34.5 43t45 50.5t45 58t34.5 65t14 71z" />
    <glyph glyph-name="asciitilde" unicode="~" horiz-adv-x="436" 
d="M425 416q0 2 -8 2t-8 -2q0 -24 -15 -43t-49 -19q-17 0 -36 8.5t-40 18.5t-44.5 18.5t-48.5 8.5q-27 0 -50.5 -9.5t-40 -25.5t-26 -37.5t-9.5 -45.5q0 -2 8 -2t8 2q0 24 15 43t49 19q17 0 36 -8.5t40.5 -18.5t45 -18.5t48.5 -8.5q27 0 50 9.5t39.5 25.5t26 37.5t9.5 45.5z
" />
    <glyph glyph-name="exclamdown" unicode="&#xa1;" horiz-adv-x="292" 
d="M267 339q0 20 -12 33t-32 13q-14 0 -26 -6.5t-22 -17t-15.5 -24.5t-5.5 -29q0 -20 12.5 -33t29.5 -13q14 0 27 6.5t22.5 17t15.5 24.5t6 29zM179 208q2 3 -6 3t-10 -3q-14 -44 -35 -94t-45 -100.5t-48.5 -99.5t-44 -91t-32 -74.5t-12.5 -50.5q0 -21 12.5 -36t36.5 -15
q27 0 53.5 18.5t43.5 70.5q11 36 18.5 89.5t16 116.5t20.5 131.5t32 134.5z" />
    <glyph glyph-name="cent" unicode="&#xa2;" horiz-adv-x="424" 
d="M409 326q0 18 -10 36.5t-27.5 34t-40 25.5t-46.5 12l18 70q1 2 -8 2q-8 0 -9 -2l-19 -69q-50 -2 -94 -25.5t-77 -61.5t-52 -87.5t-19 -102.5q0 -65 35 -109t90 -55l-19 -72q0 -2 8 -2q9 0 9 2l19 70q4 -1 7 -1h7q52 0 97 27.5t79 72.5l-13 9q-30 -40 -68.5 -67t-93.5 -27
q-7 0 -11 1l109 411q46 -3 46 -33q0 -10 -2.5 -16t-5.5 -12t-5.5 -14.5t-2.5 -21.5q0 -17 10.5 -31.5t34.5 -14.5q23 0 38.5 12.5t15.5 38.5zM263 417l-109 -406q-19 7 -26.5 24.5t-7.5 46.5q0 23 8 63.5t20 83.5t25 80.5t22 54.5q14 24 30 37.5t38 15.5z" />
    <glyph glyph-name="sterling" unicode="&#xa3;" horiz-adv-x="609" 
d="M639 629q0 39 -31 68t-86 29q-44 0 -86.5 -21t-78.5 -57t-62 -84.5t-36 -103.5q-5 -28 -6.5 -51.5t-1.5 -48.5h-114q-2 0 -4 -7t0 -7h117q0 -55 -0.5 -92t-4 -62t-11 -42t-22.5 -33q-20 4 -44 7.5t-53 3.5t-51.5 -9t-38.5 -23t-24.5 -30t-8.5 -29q0 -29 19.5 -41.5
t42.5 -12.5q32 0 59.5 14.5t56.5 40.5q44 -19 93.5 -37t106.5 -18q37 0 67 13.5t52 35t34 48.5t13 55q0 2 -8 2.5t-8 -1.5q-2 -26 -19 -46.5t-51 -20.5q-39 0 -69 4.5t-55.5 10.5t-49 13.5t-50.5 13.5q60 44 98.5 103.5t47.5 131.5h111q2 0 4 7t0 7h-112q10 112 24.5 180.5
t32 106t39 50.5t47.5 13q36 0 36 -42q0 -12 -10.5 -29.5t-10.5 -37.5q0 -17 11 -28.5t37 -11.5q22 0 40 16t18 52zM156 44q-23 -23 -50.5 -33.5t-49.5 -10.5q-18 0 -32 8t-14 25q0 41 46 41q24 0 46 -7.5t54 -22.5z" />
    <glyph glyph-name="yen" unicode="&#xa5;" horiz-adv-x="637" 
d="M777 706h-207q-2 0 -4.5 -8t-0.5 -8h91q3 0 3.5 -1t-2 -5t-9 -12t-17.5 -22l-237 -301l-69 339q-1 0 0.5 1t4.5 1h95q2 0 4.5 8t0.5 8h-312q-2 0 -4 -8t0 -8h86q7 0 7 -2l64 -307h-168q-2 0 -3.5 -8t0.5 -8h174l7 -38l-23 -73h-195q-2 0 -3.5 -8t0.5 -8h194l-70 -220
q0 -2 -7 -2h-90q-2 0 -5 -8t-1 -8h308q2 0 5 8t1 8h-89q-6 0 -6 2l69 220h194q2 0 4 8t0 8h-194l23 71l33 40h175q2 0 3.5 8t-0.5 8h-166l212 269q11 14 18.5 22t12 12t7.5 5t5 1h76q2 0 4.5 8t0.5 8z" />
    <glyph glyph-name="section" unicode="&#xa7;" horiz-adv-x="564" 
d="M607 610q0 25 -11 49t-31 42.5t-48.5 29.5t-63.5 11q-50 0 -94.5 -19t-78.5 -51t-53.5 -73.5t-19.5 -86.5q0 -29 5 -50t16 -44q-36 -9 -67.5 -28t-55.5 -46.5t-37.5 -62.5t-13.5 -74q0 -41 14 -73t35.5 -59t46 -51.5t46 -49.5t35.5 -53t14 -63q0 -32 -8 -61t-26 -51
t-47.5 -35t-73.5 -13q-36 0 -66 10.5t-52 27.5t-34 38t-12 42q0 20 8 33t25 13q10 0 16.5 -2.5t12 -5.5t11 -5.5t14.5 -2.5q15 0 25.5 11.5t10.5 34.5q0 20 -15 33t-35 13q-38 0 -65 -31t-27 -85q0 -26 13 -51t37 -45t57 -32t74 -12q63 0 111 22.5t80.5 58t48.5 78t16 81.5
q0 26 -4 45t-14 40q81 18 125.5 73.5t44.5 130.5q0 42 -14 76.5t-35.5 64.5t-46.5 57.5t-46.5 55t-35.5 57.5t-14 65q0 76 41.5 107.5t106.5 31.5q33 0 58.5 -9.5t42.5 -24.5t26 -34.5t9 -38.5q0 -20 -5 -32t-20 -12q-9 0 -15 2t-11 5t-10 5t-13 2q-14 0 -23.5 -10.5
t-9.5 -31.5q0 -18 12 -29t30 -11q34 0 59 26t25 77zM393 159q0 -45 -18 -82.5t-56 -53.5q-20 41 -49 73t-56 61.5t-46 59.5t-19 68q0 49 24 79t63 38q19 -37 45.5 -66.5t51.5 -57t42.5 -56t17.5 -63.5z" />
    <glyph glyph-name="dieresis" unicode="&#xa8;" horiz-adv-x="439" 
d="M445 605q0 17 -10 27t-26 10q-24 0 -42 -19t-18 -45q0 -17 10.5 -28t26.5 -11q23 0 41 20t18 46zM254 605q0 17 -10.5 27t-26.5 10q-23 0 -41.5 -19t-18.5 -45q0 -17 10.5 -28t27.5 -11q23 0 41 20t18 46z" />
    <glyph glyph-name="copyright" unicode="&#xa9;" horiz-adv-x="831" 
d="M805 354q0 77 -28.5 145t-78 118.5t-115 79.5t-140.5 29t-140.5 -29t-115 -79.5t-78 -118.5t-28.5 -145t28.5 -144.5t78 -118t115 -79.5t140.5 -29t140.5 29t115 79.5t78 118t28.5 144.5zM789 354q0 -74 -27.5 -138.5t-74.5 -112.5t-110 -75.5t-134 -27.5t-134 27.5
t-110 75.5t-74 112.5t-27 138.5t27 138.5t74 112.5t110 76t134 28t134 -28t110 -76t74.5 -112.5t27.5 -138.5zM592 138v165q-2 1 -9 1q-6 0 -6 -1q0 -30 -10.5 -57t-28.5 -48t-41.5 -33.5t-50.5 -12.5q-20 0 -36.5 4.5t-28.5 17.5q-22 20 -29.5 65.5t-7.5 120.5t7.5 120
t29.5 65q12 13 27 17.5t35 4.5q22 0 44 -12.5t39.5 -32t28.5 -43t11 -45.5q0 -1 6 -1q7 0 8 1v147q-1 1 -8 1q-6 0 -6 -1q-2 -5 -10 -10t-19 -5q-21 0 -47 8.5t-47 8.5q-42 0 -77 -18t-60.5 -49t-40 -71t-14.5 -85t14.5 -85.5t41 -71t62 -48.5t77.5 -18q12 0 26 3t28 6.5
t27 6.5t23 3q13 0 19.5 -6.5t7.5 -11.5q0 -1 6 -1q7 0 9 1z" />
    <glyph glyph-name="ordfeminine" unicode="&#xaa;" horiz-adv-x="368" 
d="M418 477l-15 4q-16 -31 -28 -43.5t-29 -12.5q-18 0 -12 24l81 284l-81 -7l-9 -30q-2 17 -16.5 27t-31.5 10q-39 0 -74.5 -20.5t-63 -52t-44 -69.5t-16.5 -74q0 -24 6 -46t18 -39t29.5 -27.5t40.5 -10.5q25 0 47.5 17.5t39.5 53.5q-5 -34 11.5 -52.5t39.5 -18.5
q33 0 61.5 19.5t45.5 63.5zM316 665l-42 -143q-8 -21 -18 -40.5t-21.5 -34t-24.5 -23.5t-26 -9q-17 0 -23.5 11.5t-6.5 37.5q0 23 5.5 57.5t16 69t25.5 65t33 45.5q12 10 21 13t20 3q24 0 33.5 -14.5t7.5 -37.5z" />
    <glyph glyph-name="guillemotleft" unicode="&#xab;" horiz-adv-x="442" 
d="M425 370q0 2 -2.5 3.5t-6 2.5t-7 0.5t-3.5 -3.5q-9 -29 -35 -54.5t-56 -46t-57.5 -34.5t-39.5 -19q-4 -2 1 -4q8 -5 26 -20.5t34 -38t24.5 -49.5t-0.5 -56q0 -2 2.5 -4t6 -2.5t7 0t3.5 2.5q7 24 9.5 49t1 47.5t-6.5 40t-11 26.5q12 10 27.5 27t31.5 39t29.5 46t21.5 48z
M256 370q0 2 -2.5 3.5t-6 2.5t-7 0.5t-3.5 -3.5q-9 -29 -35 -54.5t-56 -46t-57.5 -34.5t-39.5 -19q-4 -2 1 -4q8 -5 26 -20.5t34 -38t24.5 -49.5t-0.5 -56q0 -2 2.5 -4t6 -2.5t7 0t3.5 2.5q7 24 9.5 49t1 47.5t-6.5 40t-11 26.5q12 10 27.5 27t31.5 39t29.5 46t21.5 48z" />
    <glyph glyph-name="registered" unicode="&#xae;" horiz-adv-x="831" 
d="M805 354q0 77 -28.5 145t-78 118.5t-115 79.5t-140.5 29t-140.5 -29t-115 -79.5t-78 -118.5t-28.5 -145t28.5 -144.5t78 -118t115 -79.5t140.5 -29t140.5 29t115 79.5t78 118t28.5 144.5zM789 354q0 -74 -27.5 -138.5t-74.5 -112.5t-110 -75.5t-134 -27.5t-134 27.5
t-110 75.5t-74 112.5t-27 138.5t27 138.5t74 112.5t110 76t134 28t134 -28t110 -76t74.5 -112.5t27.5 -138.5zM677 158q1 0 -2.5 6.5t-4.5 5.5q-5 -6 -13.5 -11.5t-19.5 -5.5q-15 0 -24 11t-9 34v54q0 22 -7 42.5t-23 35.5t-42 24t-64 9q27 0 49 8.5t37.5 23t23.5 33.5t8 40
q0 45 -37.5 74.5t-102.5 29.5h-184q-1 0 -1 -8t1 -8h51q4 0 4 -2v-389q0 -2 -4 -2h-51q-1 0 -1 -8t1 -8h189q1 0 1 8t-1 8h-46q-4 0 -4 2v189h33q40 0 62 -17t22 -57v-27q0 -32 9.5 -54t24.5 -36t34 -20t37 -6q20 0 32.5 5.5t21.5 15.5zM502 466q0 -29 -2.5 -47.5t-10 -29.5
t-21 -15t-34.5 -4h-33v184q0 2 4 2h25q21 0 35 -3.5t22 -13.5t11.5 -27.5t3.5 -45.5z" />
    <glyph glyph-name="macron" unicode="&#xaf;" horiz-adv-x="400" 
d="M455 592q2 5 2 11q0 7 -2 12h-320q-2 -5 -2 -12q0 -6 2 -11h320z" />
    <glyph glyph-name="macron" unicode="&#x2c9;" horiz-adv-x="400" 
d="M455 592q2 5 2 11q0 7 -2 12h-320q-2 -5 -2 -12q0 -6 2 -11h320z" />
    <glyph glyph-name="degree" unicode="&#xb0;" horiz-adv-x="283" 
d="M327 655q0 29 -17.5 46.5t-45.5 17.5q-20 0 -38 -8t-31.5 -21.5t-21.5 -32t-8 -38.5q0 -29 17.5 -46t45.5 -17q20 0 38 8t31.5 21.5t21.5 31.5t8 38zM309 654q0 -17 -6.5 -31.5t-17 -26t-24 -18t-28.5 -6.5q-22 0 -36 13t-14 36q0 16 6.5 31t17 26t24 17.5t28.5 6.5
q22 0 36 -12.5t14 -35.5z" />
    <glyph glyph-name="acute" unicode="&#xb4;" horiz-adv-x="354" 
d="M409 677q0 20 -11 30t-28 10q-15 0 -28 -12t-27.5 -30.5t-32.5 -41t-43 -44t-58.5 -40t-78.5 -27.5q-2 -1 -3.5 -8.5t0.5 -7.5q77 14 135 36t97 46.5t58.5 48t19.5 40.5z" />
    <glyph glyph-name="paragraph" unicode="&#xb6;" horiz-adv-x="654" 
d="M772 707h-237q-80 0 -161.5 -36t-147 -96t-106.5 -139t-41 -165q0 -59 20.5 -108.5t55.5 -85.5t82.5 -56.5t100.5 -20.5h212q2 0 4 8t0 8h-83q-6 0 -5 4l211 668q1 3 8 3h83q2 0 4 8t0 8zM660 687l-212 -668q-2 -3 -8 -3h-62q-7 0 -5 3l211 668q0 4 7 4h64q6 0 5 -4z" />
    <glyph glyph-name="periodcentered" unicode="&#xb7;" horiz-adv-x="181" 
d="M164 369q0 20 -12 33.5t-30 13.5q-14 0 -27 -6.5t-23 -17.5t-15.5 -25t-5.5 -29q0 -20 12.5 -32.5t31.5 -12.5q27 0 48 23t21 53z" />
    <glyph glyph-name="cedilla" unicode="&#xb8;" horiz-adv-x="289" 
d="M114 -148q0 20 -7 33t-15.5 23.5t-15.5 22t-7 28.5q0 11 5 18.5t10 10.5q2 2 -4 6t-8 3q-5 -4 -12.5 -10.5t-14 -15.5t-11.5 -20.5t-5 -23.5q0 -17 8 -30t18 -24t18 -21t8 -21q0 -41 -49 -41q-17 0 -27 9t-10 20q0 4 3 7l6.5 6.5t6.5 8t3 10.5q0 23 -22 23
q-13 0 -21 -11.5t-8 -25.5q0 -25 18 -44t52 -19q35 0 58 23t23 55z" />
    <glyph glyph-name="ordmasculine" unicode="&#xba;" horiz-adv-x="351" 
d="M372 603q0 29 -8.5 53t-23.5 41t-35.5 26.5t-43.5 9.5q-33 0 -65.5 -18t-58 -47t-41.5 -66.5t-16 -76.5q0 -60 31.5 -95.5t80.5 -35.5q33 0 65 18t57.5 47t41.5 67t16 77zM301 660q0 -17 -3.5 -44t-10 -57t-15 -59t-18.5 -49q-14 -23 -29 -32t-35 -9q-26 0 -33 17t-7 40
q0 16 3.5 43.5t10 57.5t15 58.5t18.5 48.5q14 23 28.5 32.5t34.5 9.5q26 0 33.5 -17t7.5 -40z" />
    <glyph glyph-name="guillemotright" unicode="&#xbb;" horiz-adv-x="442" 
d="M392 209q-9 5 -26.5 20.5t-34 38t-25 49.5t0.5 56q0 2 -2.5 4t-6 2.5t-7 0t-3.5 -2.5q-8 -24 -10 -49t-0.5 -47.5t6.5 -40t12 -26.5q-12 -10 -28 -27t-32 -39t-30 -46t-21 -48q0 -2 2.5 -3.5t6.5 -2.5t7 -0.5t4 3.5q9 29 35 54.5t55.5 46t57 34.5t39.5 19q4 2 0 4z
M223 209q-9 5 -26.5 20.5t-34 38t-25 49.5t0.5 56q0 2 -2.5 4t-6 2.5t-7 0t-3.5 -2.5q-8 -24 -10 -49t-0.5 -47.5t6.5 -40t12 -26.5q-12 -10 -28 -27t-32 -39t-30 -46t-21 -48q0 -2 2.5 -3.5t6.5 -2.5t7 -0.5t4 3.5q9 29 35 54.5t55.5 46t57 34.5t39.5 19q4 2 0 4z" />
    <glyph glyph-name="questiondown" unicode="&#xbf;" horiz-adv-x="478" 
d="M450 339q0 20 -12 33t-32 13q-14 0 -26 -6.5t-22 -17t-15.5 -24.5t-5.5 -29q0 -20 12.5 -33t29.5 -13q14 0 27 6.5t22.5 17t15.5 24.5t6 29zM362 208q1 3 -8 3t-9 -3l-55 -174q-6 12 -25 19t-39 7q-48 0 -92.5 -18.5t-78 -51.5t-53.5 -77.5t-20 -95.5q0 -35 12 -65.5
t33 -54t50 -37t63 -13.5q37 0 72 13.5t61.5 35.5t42.5 48t16 52q0 23 -15 42.5t-41 19.5q-27 0 -41 -14t-14 -34q0 -10 2.5 -17t6 -13.5t6 -14.5t2.5 -20q0 -41 -25 -61t-68 -20q-19 0 -30.5 4.5t-17.5 13t-8 19.5t-2 24q0 18 8 56t18.5 79.5t21.5 77t18 48.5q17 32 32 45.5
t44 13.5q20 0 36.5 -9t20.5 -26q1 -3 8 -1.5t7 4.5q0 1 2 7.5t2 8.5z" />
    <glyph glyph-name="Agrave" unicode="&#xc0;" horiz-adv-x="635" 
d="M605 0q2 0 4 8t0 8h-94q-7 0 -7 3v704q0 2 -9.5 2.5t-11.5 -2.5l-508 -666q-19 -25 -29 -33t-21 -8h-71q-2 0 -4.5 -8t-0.5 -8h202q2 0 4.5 8t0.5 8h-77q-8 0 -5.5 7t22.5 35l140 181h233v-220q0 -3 -6 -3h-76q-2 0 -4 -8t0 -8h318zM373 256h-221l221 290v-290zM551 767
q-36 9 -58 27.5t-36 42t-21.5 48t-14 44.5t-14.5 33t-22 13q-21 0 -33.5 -14t-12.5 -37q0 -15 7 -38.5t29 -48t63 -48t109 -39.5q2 -1 4 7t0 10z" />
    <glyph glyph-name="Aacute" unicode="&#xc1;" horiz-adv-x="635" 
d="M605 0q2 0 4 8t0 8h-94q-7 0 -7 3v704q0 2 -9.5 2.5t-11.5 -2.5l-508 -666q-19 -25 -29 -33t-21 -8h-71q-2 0 -4.5 -8t-0.5 -8h202q2 0 4.5 8t0.5 8h-77q-8 0 -5.5 7t22.5 35l140 181h233v-220q0 -3 -6 -3h-76q-2 0 -4 -8t0 -8h318zM373 256h-221l221 290v-290zM775 932
q0 20 -11 30t-28 10q-15 0 -28 -12t-27.5 -30.5t-32.5 -41t-43 -44t-58.5 -40t-78.5 -27.5q-2 -1 -3.5 -8.5t0.5 -7.5q77 14 135 36t97 46.5t58.5 48t19.5 40.5z" />
    <glyph glyph-name="Acircumflex" unicode="&#xc2;" horiz-adv-x="635" 
d="M605 0q2 0 4 8t0 8h-94q-7 0 -7 3v704q0 2 -9.5 2.5t-11.5 -2.5l-508 -666q-19 -25 -29 -33t-21 -8h-71q-2 0 -4.5 -8t-0.5 -8h202q2 0 4.5 8t0.5 8h-77q-8 0 -5.5 7t22.5 35l140 181h233v-220q0 -3 -6 -3h-76q-2 0 -4 -8t0 -8h318zM373 256h-221l221 290v-290zM646 778
q-8 19 -16 42.5t-15 49t-12 50.5t-8 47q0 2 -7 4t-9 0q-17 -18 -37.5 -41t-43.5 -48.5t-49 -52t-54 -50.5q-1 -1 1 -2.5t4.5 -3t5 -2.5t3.5 0q36 31 66 59t58 55q8 -38 19 -66t23 -50z" />
    <glyph glyph-name="Atilde" unicode="&#xc3;" horiz-adv-x="635" 
d="M605 0q2 0 4 8t0 8h-94q-7 0 -7 3v704q0 2 -9.5 2.5t-11.5 -2.5l-508 -666q-19 -25 -29 -33t-21 -8h-71q-2 0 -4.5 -8t-0.5 -8h202q2 0 4.5 8t0.5 8h-77q-8 0 -5.5 7t22.5 35l140 181h233v-220q0 -3 -6 -3h-76q-2 0 -4 -8t0 -8h318zM373 256h-221l221 290v-290zM731 913
q0 2 -9 2q-8 0 -8 -2q0 -25 -14.5 -44t-48.5 -19q-17 0 -36 8.5t-40.5 18.5t-45 18.5t-48.5 8.5q-27 0 -50.5 -9.5t-40 -25.5t-26 -37.5t-9.5 -45.5q0 -2 8 -2t8 2q0 24 15 43t49 19q17 0 36 -8.5t40.5 -18.5t45 -18.5t48.5 -8.5q27 0 50.5 9.5t40 25.5t26 38t9.5 46z" />
    <glyph glyph-name="Adieresis" unicode="&#xc4;" horiz-adv-x="635" 
d="M605 0q2 0 4 8t0 8h-94q-7 0 -7 3v704q0 2 -9.5 2.5t-11.5 -2.5l-508 -666q-19 -25 -29 -33t-21 -8h-71q-2 0 -4.5 -8t-0.5 -8h202q2 0 4.5 8t0.5 8h-77q-8 0 -5.5 7t22.5 35l140 181h233v-220q0 -3 -6 -3h-76q-2 0 -4 -8t0 -8h318zM373 256h-221l221 290v-290zM668 860
q0 17 -10 27t-26 10q-24 0 -42 -19t-18 -45q0 -17 10.5 -28t26.5 -11q23 0 41 20t18 46zM477 860q0 17 -10.5 27t-26.5 10q-23 0 -41.5 -19t-18.5 -45q0 -17 10.5 -28t27.5 -11q23 0 41 20t18 46z" />
    <glyph glyph-name="Aring" unicode="&#xc5;" horiz-adv-x="655" 
d="M605 0q2 0 4 8t0 8h-94q-7 0 -7 3v691q35 5 59.5 33t24.5 65q0 29 -17.5 46t-45.5 17q-20 0 -38 -8t-31.5 -21.5t-21.5 -31.5t-8 -39q0 -24 13 -40t34 -21l-498 -653q-20 -25 -29.5 -33t-20.5 -8h-71q-2 0 -4.5 -8t-0.5 -8h202q2 0 4.5 8t0.5 8h-77q-8 0 -5.5 7t22.5 35
l140 181h233v-220q0 -3 -6 -3h-76q-2 0 -4 -8t0 -8h318zM574 806q0 -17 -6.5 -31.5t-17 -26t-24 -18t-28.5 -6.5q-22 0 -36 13t-14 37q0 16 6.5 30.5t17 26t24 18t28.5 6.5q22 0 36 -13t14 -36zM373 256h-221l221 290v-290z" />
    <glyph glyph-name="AE" unicode="&#xc6;" horiz-adv-x="898" 
d="M930 705q0 3 -2 3h-519q-2 0 -4.5 -8t-0.5 -8h91l-517 -636q-20 -25 -30 -32.5t-28 -7.5h-57q-2 0 -4 -8t0 -8h203q2 0 4 8t0 8h-83q-8 0 -5.5 8.5t22.5 33.5l172 210h203l-78 -249q-2 -3 -8 -3h-90q-2 0 -4.5 -8t-0.5 -8h564q4 0 4 3l71 225q1 2 -7 2t-9 -2
q-12 -38 -37.5 -76t-65.5 -68t-93.5 -49t-120.5 -19h-57q-6 0 -6 3l110 346h20q31 0 51 -12t30 -32t10.5 -45t-7.5 -51q-1 -2 7 -2t9 2l87 275q0 2 -8 2t-9 -2q-16 -52 -59.5 -85.5t-105.5 -33.5h-20l96 308q1 3 8 3h70q48 0 78.5 -17t45.5 -44.5t16 -62t-10 -69.5
q-1 -2 7 -2t9 2zM504 677l-124 -393h-196z" />
    <glyph glyph-name="Ccedilla" unicode="&#xc7;" horiz-adv-x="620" 
d="M677 723q1 2 -7 2t-9 -2q-7 -12 -19.5 -22t-39.5 -10q-15 0 -30.5 5.5t-32.5 12t-36.5 12t-42.5 5.5q-53 0 -104.5 -18.5t-97 -51.5t-84 -78.5t-66.5 -98.5t-43.5 -111.5t-15.5 -118.5q0 -65 18.5 -115t50.5 -84t76.5 -51t96.5 -16q-11 -10 -20.5 -25.5t-9.5 -33.5
q0 -17 8 -30t17.5 -24t17.5 -21t8 -21q0 -42 -48 -42q-17 0 -27 9t-10 21q0 4 3 7l6 6t6 7.5t3 10.5q0 11 -6 17.5t-15 6.5q-14 0 -22 -11.5t-8 -25.5q0 -25 18 -44.5t52 -19.5q35 0 58 23.5t23 55.5q0 20 -7 33t-15.5 23.5t-15.5 22t-7 28.5q0 11 4.5 18t9.5 10
q73 8 137.5 51.5t117.5 119.5q1 1 -5 7t-7 4q-115 -167 -270 -167q-37 0 -61 9.5t-38.5 25.5t-20 38t-5.5 47q0 29 8 72.5t20.5 93t29 100.5t32.5 96.5t30.5 81t24.5 52.5q28 49 61 71.5t92 22.5q40 0 69.5 -20.5t46 -52t20 -70.5t-8.5 -76q-1 -2 7 -2q9 0 10 2z" />
    <glyph glyph-name="Egrave" unicode="&#xc8;" horiz-adv-x="645" 
d="M680 706q3 3 -2 3h-510q-2 0 -4.5 -8t-0.5 -8h89q6 0 6 -4l-211 -669q-1 -4 -8 -4h-89q-2 0 -5 -8t-1 -8h565q3 0 3 3l72 225q0 2 -8 2t-9 -2q-12 -38 -37.5 -76t-65 -68t-93 -49t-120.5 -19h-58q-6 0 -6 4l110 346h20q31 0 51 -12.5t30 -32t10.5 -45t-7.5 -50.5
q-1 -2 7 -2q9 0 10 2l86 274q1 2 -8 2q-8 0 -9 -2q-16 -52 -59.5 -85t-105.5 -33h-20l96 307q2 4 8 4h70q48 0 78.5 -17t45.5 -44.5t16 -62t-10 -69.5q-1 -2 7 -2q9 0 10 2zM575 767q-36 9 -58 27.5t-36 42t-21.5 48t-14 44.5t-14.5 33t-22 13q-21 0 -33.5 -14t-12.5 -37
q0 -15 7 -38.5t29 -48t63 -48t109 -39.5q2 -1 4 7t0 10z" />
    <glyph glyph-name="Eacute" unicode="&#xc9;" horiz-adv-x="645" 
d="M680 706q3 3 -2 3h-510q-2 0 -4.5 -8t-0.5 -8h89q6 0 6 -4l-211 -669q-1 -4 -8 -4h-89q-2 0 -5 -8t-1 -8h565q3 0 3 3l72 225q0 2 -8 2t-9 -2q-12 -38 -37.5 -76t-65 -68t-93 -49t-120.5 -19h-58q-6 0 -6 4l110 346h20q31 0 51 -12.5t30 -32t10.5 -45t-7.5 -50.5
q-1 -2 7 -2q9 0 10 2l86 274q1 2 -8 2q-8 0 -9 -2q-16 -52 -59.5 -85t-105.5 -33h-20l96 307q2 4 8 4h70q48 0 78.5 -17t45.5 -44.5t16 -62t-10 -69.5q-1 -2 7 -2q9 0 10 2zM691 932q0 20 -11 30t-28 10q-15 0 -28 -12t-27.5 -30.5t-32.5 -41t-43 -44t-58.5 -40t-78.5 -27.5
q-2 -1 -3.5 -8.5t0.5 -7.5q77 14 135 36t97 46.5t58.5 48t19.5 40.5z" />
    <glyph glyph-name="Ecircumflex" unicode="&#xca;" horiz-adv-x="645" 
d="M680 706q3 3 -2 3h-510q-2 0 -4.5 -8t-0.5 -8h89q6 0 6 -4l-211 -669q-1 -4 -8 -4h-89q-2 0 -5 -8t-1 -8h565q3 0 3 3l72 225q0 2 -8 2t-9 -2q-12 -38 -37.5 -76t-65 -68t-93 -49t-120.5 -19h-58q-6 0 -6 4l110 346h20q31 0 51 -12.5t30 -32t10.5 -45t-7.5 -50.5
q-1 -2 7 -2q9 0 10 2l86 274q1 2 -8 2q-8 0 -9 -2q-16 -52 -59.5 -85t-105.5 -33h-20l96 307q2 4 8 4h70q48 0 78.5 -17t45.5 -44.5t16 -62t-10 -69.5q-1 -2 7 -2q9 0 10 2zM619 778q-8 19 -16 42.5t-15 49t-12 50.5t-8 47q0 2 -7 4t-9 0q-17 -18 -37.5 -41t-43.5 -48.5
t-49 -52t-54 -50.5q-1 -1 1 -2.5t4.5 -3t5 -2.5t3.5 0q36 31 66 59t58 55q8 -38 19 -66t23 -50z" />
    <glyph glyph-name="Edieresis" unicode="&#xcb;" horiz-adv-x="645" 
d="M680 706q3 3 -2 3h-510q-2 0 -4.5 -8t-0.5 -8h89q6 0 6 -4l-211 -669q-1 -4 -8 -4h-89q-2 0 -5 -8t-1 -8h565q3 0 3 3l72 225q0 2 -8 2t-9 -2q-12 -38 -37.5 -76t-65 -68t-93 -49t-120.5 -19h-58q-6 0 -6 4l110 346h20q31 0 51 -12.5t30 -32t10.5 -45t-7.5 -50.5
q-1 -2 7 -2q9 0 10 2l86 274q1 2 -8 2q-8 0 -9 -2q-16 -52 -59.5 -85t-105.5 -33h-20l96 307q2 4 8 4h70q48 0 78.5 -17t45.5 -44.5t16 -62t-10 -69.5q-1 -2 7 -2q9 0 10 2zM648 860q0 17 -10 27t-26 10q-24 0 -42 -19t-18 -45q0 -17 10.5 -28t26.5 -11q23 0 41 20t18 46z
M457 860q0 17 -10.5 27t-26.5 10q-23 0 -41.5 -19t-18.5 -45q0 -17 10.5 -28t27.5 -11q23 0 41 20t18 46z" />
    <glyph glyph-name="Igrave" unicode="&#xcc;" horiz-adv-x="396" 
d="M502 709h-333q-2 0 -5 -8t-1 -8h90q7 0 5 -4l-211 -669q0 -4 -7 -4h-90q-2 0 -4.5 -8t-0.5 -8h334q2 0 4 8t0 8h-90q-6 0 -5 4l211 669q2 4 8 4h89q2 0 5 8t1 8zM446 767q-36 9 -58 27.5t-36 42t-21.5 48t-14 44.5t-14.5 33t-22 13q-21 0 -33.5 -14t-12.5 -37
q0 -15 7 -38.5t29 -48t63 -48t109 -39.5q2 -1 4 7t0 10z" />
    <glyph glyph-name="Iacute" unicode="&#xcd;" horiz-adv-x="396" 
d="M502 709h-333q-2 0 -5 -8t-1 -8h90q7 0 5 -4l-211 -669q0 -4 -7 -4h-90q-2 0 -4.5 -8t-0.5 -8h334q2 0 4 8t0 8h-90q-6 0 -5 4l211 669q2 4 8 4h89q2 0 5 8t1 8zM577 932q0 20 -11 30t-28 10q-15 0 -28 -12t-27.5 -30.5t-32.5 -41t-43 -44t-58.5 -40t-78.5 -27.5
q-2 -1 -3.5 -8.5t0.5 -7.5q77 14 135 36t97 46.5t58.5 48t19.5 40.5z" />
    <glyph glyph-name="Icircumflex" unicode="&#xce;" horiz-adv-x="396" 
d="M502 709h-333q-2 0 -5 -8t-1 -8h90q7 0 5 -4l-211 -669q0 -4 -7 -4h-90q-2 0 -4.5 -8t-0.5 -8h334q2 0 4 8t0 8h-90q-6 0 -5 4l211 669q2 4 8 4h89q2 0 5 8t1 8zM493 778q-8 19 -16 42.5t-15 49t-12 50.5t-8 47q0 2 -7 4t-9 0q-17 -18 -37.5 -41t-43.5 -48.5t-49 -52
t-54 -50.5q-1 -1 1 -2.5t4.5 -3t5 -2.5t3.5 0q36 31 66 59t58 55q8 -38 19 -66t23 -50z" />
    <glyph glyph-name="Idieresis" unicode="&#xcf;" horiz-adv-x="396" 
d="M502 709h-333q-2 0 -5 -8t-1 -8h90q7 0 5 -4l-211 -669q0 -4 -7 -4h-90q-2 0 -4.5 -8t-0.5 -8h334q2 0 4 8t0 8h-90q-6 0 -5 4l211 669q2 4 8 4h89q2 0 5 8t1 8zM515 860q0 17 -10 27t-26 10q-24 0 -42 -19t-18 -45q0 -17 10.5 -28t26.5 -11q23 0 41 20t18 46zM324 860
q0 17 -10.5 27t-26.5 10q-23 0 -41.5 -19t-18.5 -45q0 -17 10.5 -28t27.5 -11q23 0 41 20t18 46z" />
    <glyph glyph-name="Ntilde" unicode="&#xd1;" horiz-adv-x="738" 
d="M823 709h-210q-2 0 -4.5 -8t-0.5 -8h90q7 0 5 -4l-151 -480l-160 482q-6 18 -17 18h-194q-2 0 -5 -8t-1 -8h77q6 0 6 -4l-211 -669q-1 -4 -8 -4h-89q-2 0 -5 -8t-1 -8h210q2 0 4.5 8t0.5 8h-90q-6 0 -5 4l196 624l221 -657q2 -3 10 -2.5t9 2.5l220 702q2 4 8 4h89
q2 0 5 8t1 8zM725 913q0 2 -9 2q-8 0 -8 -2q0 -25 -14.5 -44t-48.5 -19q-17 0 -36 8.5t-40.5 18.5t-45 18.5t-48.5 8.5q-27 0 -50.5 -9.5t-40 -25.5t-26 -37.5t-9.5 -45.5q0 -2 8 -2t8 2q0 24 15 43t49 19q17 0 36 -8.5t40.5 -18.5t45 -18.5t48.5 -8.5q27 0 50.5 9.5
t40 25.5t26 38t9.5 46z" />
    <glyph glyph-name="Ograve" unicode="&#xd2;" 
d="M699 459q0 62 -17 111.5t-48.5 84t-75 53t-97.5 18.5t-105 -18.5t-97 -51.5t-84.5 -78.5t-66.5 -98.5t-43.5 -111.5t-15.5 -118.5q0 -62 17 -111.5t48 -84t75 -52.5t98 -18q80 0 154.5 40.5t131.5 107.5t91.5 152.5t34.5 175.5zM587 590q0 -30 -8 -73.5t-21 -92.5
t-29 -100.5t-32.5 -96.5t-31 -80.5t-24.5 -53.5q-14 -24 -29 -42t-33 -29.5t-40 -17t-52 -5.5q-37 0 -61 9.5t-38.5 25.5t-20 38t-5.5 47q0 29 8 72.5t20.5 93t29 100.5t32.5 96.5t30.5 81t24.5 52.5q28 49 61.5 71.5t92.5 22.5q37 0 61 -9t38.5 -25t20.5 -38t6 -47z
M551 767q-36 9 -58 27.5t-36 42t-21.5 48t-14 44.5t-14.5 33t-22 13q-21 0 -33.5 -14t-12.5 -37q0 -15 7 -38.5t29 -48t63 -48t109 -39.5q2 -1 4 7t0 10z" />
    <glyph glyph-name="Oacute" unicode="&#xd3;" 
d="M699 459q0 62 -17 111.5t-48.5 84t-75 53t-97.5 18.5t-105 -18.5t-97 -51.5t-84.5 -78.5t-66.5 -98.5t-43.5 -111.5t-15.5 -118.5q0 -62 17 -111.5t48 -84t75 -52.5t98 -18q80 0 154.5 40.5t131.5 107.5t91.5 152.5t34.5 175.5zM587 590q0 -30 -8 -73.5t-21 -92.5
t-29 -100.5t-32.5 -96.5t-31 -80.5t-24.5 -53.5q-14 -24 -29 -42t-33 -29.5t-40 -17t-52 -5.5q-37 0 -61 9.5t-38.5 25.5t-20 38t-5.5 47q0 29 8 72.5t20.5 93t29 100.5t32.5 96.5t30.5 81t24.5 52.5q28 49 61.5 71.5t92.5 22.5q37 0 61 -9t38.5 -25t20.5 -38t6 -47z
M724 932q0 20 -11 30t-28 10q-15 0 -28 -12t-27.5 -30.5t-32.5 -41t-43 -44t-58.5 -40t-78.5 -27.5q-2 -1 -3.5 -8.5t0.5 -7.5q77 14 135 36t97 46.5t58.5 48t19.5 40.5z" />
    <glyph glyph-name="Ocircumflex" unicode="&#xd4;" 
d="M699 459q0 62 -17 111.5t-48.5 84t-75 53t-97.5 18.5t-105 -18.5t-97 -51.5t-84.5 -78.5t-66.5 -98.5t-43.5 -111.5t-15.5 -118.5q0 -62 17 -111.5t48 -84t75 -52.5t98 -18q80 0 154.5 40.5t131.5 107.5t91.5 152.5t34.5 175.5zM587 590q0 -30 -8 -73.5t-21 -92.5
t-29 -100.5t-32.5 -96.5t-31 -80.5t-24.5 -53.5q-14 -24 -29 -42t-33 -29.5t-40 -17t-52 -5.5q-37 0 -61 9.5t-38.5 25.5t-20 38t-5.5 47q0 29 8 72.5t20.5 93t29 100.5t32.5 96.5t30.5 81t24.5 52.5q28 49 61.5 71.5t92.5 22.5q37 0 61 -9t38.5 -25t20.5 -38t6 -47z
M640 778q-8 19 -16 42.5t-15 49t-12 50.5t-8 47q0 2 -7 4t-9 0q-17 -18 -37.5 -41t-43.5 -48.5t-49 -52t-54 -50.5q-1 -1 1 -2.5t4.5 -3t5 -2.5t3.5 0q36 31 66 59t58 55q8 -38 19 -66t23 -50z" />
    <glyph glyph-name="Otilde" unicode="&#xd5;" 
d="M699 459q0 62 -17 111.5t-48.5 84t-75 53t-97.5 18.5t-105 -18.5t-97 -51.5t-84.5 -78.5t-66.5 -98.5t-43.5 -111.5t-15.5 -118.5q0 -62 17 -111.5t48 -84t75 -52.5t98 -18q80 0 154.5 40.5t131.5 107.5t91.5 152.5t34.5 175.5zM587 590q0 -30 -8 -73.5t-21 -92.5
t-29 -100.5t-32.5 -96.5t-31 -80.5t-24.5 -53.5q-14 -24 -29 -42t-33 -29.5t-40 -17t-52 -5.5q-37 0 -61 9.5t-38.5 25.5t-20 38t-5.5 47q0 29 8 72.5t20.5 93t29 100.5t32.5 96.5t30.5 81t24.5 52.5q28 49 61.5 71.5t92.5 22.5q37 0 61 -9t38.5 -25t20.5 -38t6 -47z
M707 913q0 2 -9 2q-8 0 -8 -2q0 -25 -14.5 -44t-48.5 -19q-17 0 -36 8.5t-40.5 18.5t-45 18.5t-48.5 8.5q-27 0 -50.5 -9.5t-40 -25.5t-26 -37.5t-9.5 -45.5q0 -2 8 -2t8 2q0 24 15 43t49 19q17 0 36 -8.5t40.5 -18.5t45 -18.5t48.5 -8.5q27 0 50.5 9.5t40 25.5t26 38
t9.5 46z" />
    <glyph glyph-name="Odieresis" unicode="&#xd6;" 
d="M699 459q0 62 -17 111.5t-48.5 84t-75 53t-97.5 18.5t-105 -18.5t-97 -51.5t-84.5 -78.5t-66.5 -98.5t-43.5 -111.5t-15.5 -118.5q0 -62 17 -111.5t48 -84t75 -52.5t98 -18q80 0 154.5 40.5t131.5 107.5t91.5 152.5t34.5 175.5zM587 590q0 -30 -8 -73.5t-21 -92.5
t-29 -100.5t-32.5 -96.5t-31 -80.5t-24.5 -53.5q-14 -24 -29 -42t-33 -29.5t-40 -17t-52 -5.5q-37 0 -61 9.5t-38.5 25.5t-20 38t-5.5 47q0 29 8 72.5t20.5 93t29 100.5t32.5 96.5t30.5 81t24.5 52.5q28 49 61.5 71.5t92.5 22.5q37 0 61 -9t38.5 -25t20.5 -38t6 -47z
M664 860q0 17 -10 27t-26 10q-24 0 -42 -19t-18 -45q0 -17 10.5 -28t26.5 -11q23 0 41 20t18 46zM473 860q0 17 -10.5 27t-26.5 10q-23 0 -41.5 -19t-18.5 -45q0 -17 10.5 -28t27.5 -11q23 0 41 20t18 46z" />
    <glyph glyph-name="Oslash" unicode="&#xd8;" 
d="M699 459q0 65 -18 115t-51 85l56 68q1 1 -5 6t-7 3l-55 -67q-62 57 -158 57q-54 0 -105 -18.5t-97 -51.5t-84.5 -78.5t-66.5 -98.5t-43.5 -111.5t-15.5 -118.5q0 -64 17.5 -113.5t49.5 -84.5l-8.5 -11t-19 -23.5t-19.5 -23.5l-9 -11q-1 -2 5 -6t8 -2q1 1 8.5 10t20.5 25
t26 31q62 -57 159 -57q80 0 154.5 40.5t131.5 107.5t91.5 152.5t34.5 175.5zM583 625l-421 -518v12q0 29 8 72.5t20.5 93t29 100.5t32.5 96.5t30.5 81t24.5 52.5q28 49 61.5 71.5t92.5 22.5q61 0 88 -24t34 -60zM587 590q0 -30 -8 -73.5t-21 -92.5t-29 -100.5t-32.5 -96.5
t-31 -80.5t-24.5 -53.5q-14 -24 -29 -42t-33 -29.5t-40 -17t-52 -5.5q-31 0 -52.5 6.5t-36 18t-23 27.5t-11.5 35l18.5 22.5t48 58.5t67.5 82.5t77.5 95.5t77.5 95.5t68 82.5t48 58.5l18 22.5v-14z" />
    <glyph glyph-name="Ugrave" unicode="&#xd9;" horiz-adv-x="743" 
d="M834 709h-197q-2 0 -4.5 -8t-0.5 -8h83q6 0 6 -4l-151 -475q-32 -101 -88 -152t-151 -51q-54 0 -80 27t-26 78q0 26 6 58t19 70l139 445q2 4 7 4h90q2 0 5 8t1 8h-334q-2 0 -4.5 -8t-0.5 -8h90q7 0 5 -4l-134 -426q-17 -54 -17 -100q0 -38 11.5 -71t35.5 -57t62 -38
t91 -14q115 0 185 58t102 161l154 487q2 4 8 4h83q2 0 4.5 8t0.5 8zM623 767q-36 9 -58 27.5t-36 42t-21.5 48t-14 44.5t-14.5 33t-22 13q-21 0 -33.5 -14t-12.5 -37q0 -15 7 -38.5t29 -48t63 -48t109 -39.5q2 -1 4 7t0 10z" />
    <glyph glyph-name="Uacute" unicode="&#xda;" horiz-adv-x="743" 
d="M834 709h-197q-2 0 -4.5 -8t-0.5 -8h83q6 0 6 -4l-151 -475q-32 -101 -88 -152t-151 -51q-54 0 -80 27t-26 78q0 26 6 58t19 70l139 445q2 4 7 4h90q2 0 5 8t1 8h-334q-2 0 -4.5 -8t-0.5 -8h90q7 0 5 -4l-134 -426q-17 -54 -17 -100q0 -38 11.5 -71t35.5 -57t62 -38
t91 -14q115 0 185 58t102 161l154 487q2 4 8 4h83q2 0 4.5 8t0.5 8zM781 932q0 20 -11 30t-28 10q-15 0 -28 -12t-27.5 -30.5t-32.5 -41t-43 -44t-58.5 -40t-78.5 -27.5q-2 -1 -3.5 -8.5t0.5 -7.5q77 14 135 36t97 46.5t58.5 48t19.5 40.5z" />
    <glyph glyph-name="Ucircumflex" unicode="&#xdb;" horiz-adv-x="743" 
d="M834 709h-197q-2 0 -4.5 -8t-0.5 -8h83q6 0 6 -4l-151 -475q-32 -101 -88 -152t-151 -51q-54 0 -80 27t-26 78q0 26 6 58t19 70l139 445q2 4 7 4h90q2 0 5 8t1 8h-334q-2 0 -4.5 -8t-0.5 -8h90q7 0 5 -4l-134 -426q-17 -54 -17 -100q0 -38 11.5 -71t35.5 -57t62 -38
t91 -14q115 0 185 58t102 161l154 487q2 4 8 4h83q2 0 4.5 8t0.5 8zM703 778q-8 19 -16 42.5t-15 49t-12 50.5t-8 47q0 2 -7 4t-9 0q-17 -18 -37.5 -41t-43.5 -48.5t-49 -52t-54 -50.5q-1 -1 1 -2.5t4.5 -3t5 -2.5t3.5 0q36 31 66 59t58 55q8 -38 19 -66t23 -50z" />
    <glyph glyph-name="Udieresis" unicode="&#xdc;" horiz-adv-x="743" 
d="M834 709h-197q-2 0 -4.5 -8t-0.5 -8h83q6 0 6 -4l-151 -475q-32 -101 -88 -152t-151 -51q-54 0 -80 27t-26 78q0 26 6 58t19 70l139 445q2 4 7 4h90q2 0 5 8t1 8h-334q-2 0 -4.5 -8t-0.5 -8h90q7 0 5 -4l-134 -426q-17 -54 -17 -100q0 -38 11.5 -71t35.5 -57t62 -38
t91 -14q115 0 185 58t102 161l154 487q2 4 8 4h83q2 0 4.5 8t0.5 8zM727 860q0 17 -10 27t-26 10q-24 0 -42 -19t-18 -45q0 -17 10.5 -28t26.5 -11q23 0 41 20t18 46zM536 860q0 17 -10.5 27t-26.5 10q-23 0 -41.5 -19t-18.5 -45q0 -17 10.5 -28t27.5 -11q23 0 41 20t18 46z
" />
    <glyph glyph-name="germandbls" unicode="&#xdf;" horiz-adv-x="547" 
d="M542 632q0 52 -32.5 81t-93.5 29q-42 0 -82 -18t-74.5 -51t-63 -79t-46.5 -103q-9 -26 -21 -71t-26 -99.5t-29 -115t-29.5 -117t-28 -104.5t-23.5 -79q-19 -60 -33.5 -99t-27.5 -62.5t-27 -33t-33 -9.5q-16 0 -27.5 9.5t-11.5 26.5q0 7 3.5 14l7.5 15t7.5 17t3.5 18
q0 17 -11.5 28t-36.5 11q-21 0 -36.5 -15.5t-15.5 -44.5q0 -20 9.5 -37.5t25.5 -30.5t36.5 -20t42.5 -7q43 0 78 19.5t63.5 54t52 82t42.5 103.5q10 27 23 72.5t28 99.5t30.5 112t30 111.5t27 98t20.5 70.5q21 68 39.5 110.5t36 66.5t34 32.5t32.5 8.5q29 0 39.5 -16
t10.5 -47q0 -33 -11 -72t-31.5 -76t-50 -67t-65.5 -44q-1 0 -0.5 -2.5t1 -5.5t2 -5t2.5 -1q22 11 39 11q30 0 47.5 -15.5t17.5 -54.5q0 -23 -7 -60.5t-17 -77.5t-21.5 -75t-21.5 -52q-19 -32 -33.5 -45t-29.5 -13q-25 0 -25 28q0 10 7.5 21t7.5 25q0 12 -7.5 22t-26.5 10
q-17 0 -30 -14t-13 -38q0 -31 23.5 -50.5t58.5 -19.5q39 0 79.5 21.5t72.5 57.5t52.5 83.5t20.5 100.5q0 36 -9.5 65.5t-26.5 50t-40 32t-49 11.5h-14q-4 0 -10 -1q39 14 74 35.5t62 49.5t42.5 61.5t15.5 72.5z" />
    <glyph glyph-name="agrave" unicode="&#xe0;" horiz-adv-x="510" 
d="M502 436l-108 -11l-19 -43q-5 26 -26 39t-47 13q-58 0 -108.5 -26.5t-88 -67.5t-59 -91t-21.5 -98q0 -30 7 -58.5t22.5 -51t40.5 -36.5t61 -14q84 0 136 107q-14 -46 8 -76.5t66 -30.5q18 0 37.5 7t38 20.5t35 32.5t28.5 42l-15 6q-19 -32 -41.5 -51.5t-46.5 -19.5
q-14 0 -18.5 9.5t-1.5 20.5zM366 354l-55 -174q-33 -82 -66 -125t-71 -43q-22 0 -34.5 14.5t-12.5 53.5q0 31 8.5 77t24.5 92.5t38.5 87t49.5 61.5q18 13 30 17.5t24 4.5q29 0 46.5 -18.5t17.5 -47.5zM425 512q-36 9 -58 27.5t-36 42t-21.5 48t-14 44.5t-14.5 33t-22 13
q-21 0 -33.5 -14t-12.5 -37q0 -15 7 -38.5t29 -48t63 -48t109 -39.5q2 -1 4 7t0 10z" />
    <glyph glyph-name="aacute" unicode="&#xe1;" horiz-adv-x="510" 
d="M502 436l-108 -11l-19 -43q-5 26 -26 39t-47 13q-58 0 -108.5 -26.5t-88 -67.5t-59 -91t-21.5 -98q0 -30 7 -58.5t22.5 -51t40.5 -36.5t61 -14q84 0 136 107q-14 -46 8 -76.5t66 -30.5q18 0 37.5 7t38 20.5t35 32.5t28.5 42l-15 6q-19 -32 -41.5 -51.5t-46.5 -19.5
q-14 0 -18.5 9.5t-1.5 20.5zM366 354l-55 -174q-33 -82 -66 -125t-71 -43q-22 0 -34.5 14.5t-12.5 53.5q0 31 8.5 77t24.5 92.5t38.5 87t49.5 61.5q18 13 30 17.5t24 4.5q29 0 46.5 -18.5t17.5 -47.5zM562 677q0 20 -11 30t-28 10q-15 0 -28 -12t-27.5 -30.5t-32.5 -41
t-43 -44t-58.5 -40t-78.5 -27.5q-2 -1 -3.5 -8.5t0.5 -7.5q77 14 135 36t97 46.5t58.5 48t19.5 40.5z" />
    <glyph glyph-name="acircumflex" unicode="&#xe2;" horiz-adv-x="510" 
d="M502 436l-108 -11l-19 -43q-5 26 -26 39t-47 13q-58 0 -108.5 -26.5t-88 -67.5t-59 -91t-21.5 -98q0 -30 7 -58.5t22.5 -51t40.5 -36.5t61 -14q84 0 136 107q-14 -46 8 -76.5t66 -30.5q18 0 37.5 7t38 20.5t35 32.5t28.5 42l-15 6q-19 -32 -41.5 -51.5t-46.5 -19.5
q-14 0 -18.5 9.5t-1.5 20.5zM366 354l-55 -174q-33 -82 -66 -125t-71 -43q-22 0 -34.5 14.5t-12.5 53.5q0 31 8.5 77t24.5 92.5t38.5 87t49.5 61.5q18 13 30 17.5t24 4.5q29 0 46.5 -18.5t17.5 -47.5zM487 523q-8 19 -16 42.5t-15 49t-12 50.5t-8 47q0 2 -7 4t-9 0
q-17 -18 -37.5 -41t-43.5 -48.5t-49 -52t-54 -50.5q-1 -1 1 -2.5t4.5 -3t5 -2.5t3.5 0q36 31 66 59t58 55q8 -38 19 -66t23 -50z" />
    <glyph glyph-name="atilde" unicode="&#xe3;" horiz-adv-x="510" 
d="M502 436l-108 -11l-19 -43q-5 26 -26 39t-47 13q-58 0 -108.5 -26.5t-88 -67.5t-59 -91t-21.5 -98q0 -30 7 -58.5t22.5 -51t40.5 -36.5t61 -14q84 0 136 107q-14 -46 8 -76.5t66 -30.5q18 0 37.5 7t38 20.5t35 32.5t28.5 42l-15 6q-19 -32 -41.5 -51.5t-46.5 -19.5
q-14 0 -18.5 9.5t-1.5 20.5zM366 354l-55 -174q-33 -82 -66 -125t-71 -43q-22 0 -34.5 14.5t-12.5 53.5q0 31 8.5 77t24.5 92.5t38.5 87t49.5 61.5q18 13 30 17.5t24 4.5q29 0 46.5 -18.5t17.5 -47.5zM548 658q0 2 -9 2q-8 0 -8 -2q0 -25 -14.5 -44t-48.5 -19q-17 0 -36 8.5
t-40.5 18.5t-45 18.5t-48.5 8.5q-27 0 -50.5 -9.5t-40 -25.5t-26 -37.5t-9.5 -45.5q0 -2 8 -2t8 2q0 24 15 43t49 19q17 0 36 -8.5t40.5 -18.5t45 -18.5t48.5 -8.5q27 0 50.5 9.5t40 25.5t26 38t9.5 46z" />
    <glyph glyph-name="adieresis" unicode="&#xe4;" horiz-adv-x="510" 
d="M502 436l-108 -11l-19 -43q-5 26 -26 39t-47 13q-58 0 -108.5 -26.5t-88 -67.5t-59 -91t-21.5 -98q0 -30 7 -58.5t22.5 -51t40.5 -36.5t61 -14q84 0 136 107q-14 -46 8 -76.5t66 -30.5q18 0 37.5 7t38 20.5t35 32.5t28.5 42l-15 6q-19 -32 -41.5 -51.5t-46.5 -19.5
q-14 0 -18.5 9.5t-1.5 20.5zM366 354l-55 -174q-33 -82 -66 -125t-71 -43q-22 0 -34.5 14.5t-12.5 53.5q0 31 8.5 77t24.5 92.5t38.5 87t49.5 61.5q18 13 30 17.5t24 4.5q29 0 46.5 -18.5t17.5 -47.5zM508 605q0 17 -10 27t-26 10q-24 0 -42 -19t-18 -45q0 -17 10.5 -28
t26.5 -11q23 0 41 20t18 46zM317 605q0 17 -10.5 27t-26.5 10q-23 0 -41.5 -19t-18.5 -45q0 -17 10.5 -28t27.5 -11q23 0 41 20t18 46z" />
    <glyph glyph-name="aring" unicode="&#xe5;" horiz-adv-x="510" 
d="M502 436l-108 -11l-19 -43q-5 26 -26 39t-47 13q-58 0 -108.5 -26.5t-88 -67.5t-59 -91t-21.5 -98q0 -30 7 -58.5t22.5 -51t40.5 -36.5t61 -14q84 0 136 107q-14 -46 8 -76.5t66 -30.5q18 0 37.5 7t38 20.5t35 32.5t28.5 42l-15 6q-19 -32 -41.5 -51.5t-46.5 -19.5
q-14 0 -18.5 9.5t-1.5 20.5zM366 354l-55 -174q-33 -82 -66 -125t-71 -43q-22 0 -34.5 14.5t-12.5 53.5q0 31 8.5 77t24.5 92.5t38.5 87t49.5 61.5q18 13 30 17.5t24 4.5q29 0 46.5 -18.5t17.5 -47.5zM439 627q0 29 -17.5 46.5t-45.5 17.5q-20 0 -38 -8t-31.5 -21.5
t-21.5 -32t-8 -38.5q0 -29 17.5 -46t45.5 -17q20 0 38 8t31.5 21.5t21.5 31.5t8 38zM421 626q0 -17 -6.5 -31.5t-17 -26t-24 -18t-28.5 -6.5q-22 0 -36 13t-14 36q0 16 6.5 31t17 26t24 17.5t28.5 6.5q22 0 36 -12.5t14 -35.5z" />
    <glyph glyph-name="ae" unicode="&#xe6;" horiz-adv-x="663" 
d="M644 343q0 18 -8 34.5t-24.5 29t-40.5 20.5t-55 8q-48 0 -89 -21.5t-73 -56.5q-17 36 -53.5 56.5t-80.5 20.5q-23 0 -45.5 -8.5t-39.5 -22t-27.5 -30.5t-10.5 -34q0 -24 15.5 -37t35.5 -13q23 0 33 14t10 30q0 9 -2.5 15t-6 11.5t-6 10.5t-2.5 12q0 14 13.5 25t32.5 11
q41 0 60 -21t19 -58q0 -21 -4.5 -45t-17.5 -71h-53q-57 0 -99 -11.5t-69.5 -31t-41 -44t-13.5 -49.5q0 -45 33.5 -70.5t91.5 -25.5q57 0 98 20.5t70 53.5q17 -35 49 -54.5t76 -19.5q52 0 90.5 21.5t73.5 63.5l-10 11q-15 -17 -31 -32t-34 -26t-40 -17t-49 -6
q-35 0 -47.5 20.5t-12.5 57.5q0 51 23 123h27q49 0 92 10t74.5 28t50 43t18.5 55zM553 365q0 -25 -6 -50t-22 -45.5t-45.5 -33.5t-75.5 -13h-19q12 40 23 75.5t25.5 62t33 42t45.5 15.5q20 0 30.5 -11.5t10.5 -41.5zM273 207q-13 -47 -25.5 -84t-27.5 -63t-34.5 -39.5
t-47.5 -13.5q-23 0 -35.5 11.5t-12.5 35.5q0 21 7.5 47.5t25.5 50t47.5 39.5t73.5 16h29z" />
    <glyph glyph-name="ccedilla" unicode="&#xe7;" horiz-adv-x="424" 
d="M409 326q0 19 -11.5 38.5t-30 35.5t-43 25.5t-50.5 9.5q-51 0 -96 -23t-79 -61.5t-54 -88.5t-20 -104q0 -71 41 -116t104 -50q-9 -9 -19 -24.5t-10 -33.5q0 -17 8 -30t18 -24t18 -21t8 -21q0 -41 -49 -41q-17 0 -27 9t-10 20q0 8 9 13.5t9 18.5q0 11 -6 17t-15 6
q-13 0 -21.5 -11.5t-8.5 -25.5q0 -25 18 -44t52 -19q35 0 58 23t23 56q0 19 -7 32t-15.5 23.5t-15.5 22t-7 28.5q0 9 3.5 15.5t7.5 9.5q49 3 91.5 30t74.5 70l-13 9q-30 -40 -68.5 -67t-93.5 -27q-35 0 -48.5 19t-13.5 57q0 23 8 63.5t20 83.5t25 80.5t22 54.5q17 28 35 41
t45 13q24 0 37.5 -8t13.5 -25q0 -10 -2.5 -16t-5.5 -12t-5.5 -14.5t-2.5 -21.5q0 -17 10.5 -31.5t34.5 -14.5q23 0 38.5 12.5t15.5 38.5z" />
    <glyph glyph-name="egrave" unicode="&#xe8;" horiz-adv-x="422" 
d="M406 343q0 18 -8 34.5t-24.5 29t-40.5 20.5t-55 8q-50 0 -95.5 -23t-80.5 -61.5t-56 -88.5t-21 -104q0 -37 11.5 -68t32.5 -53t49.5 -34t62.5 -12q51 0 90 21.5t74 63.5l-9 11q-16 -17 -32 -32t-34 -26t-39.5 -17t-48.5 -6q-35 0 -48 20.5t-13 57.5q0 24 7 59t18 70h27
q49 0 91.5 9t74 26t49.5 41t18 54zM315 365q0 -25 -5.5 -49t-21.5 -43.5t-45 -31.5t-75 -12h-19q11 39 22 73.5t25.5 60t33 40.5t45.5 15q20 0 30 -11.5t10 -41.5zM347 512q-36 9 -58 27.5t-36 42t-21.5 48t-14 44.5t-14.5 33t-22 13q-21 0 -33.5 -14t-12.5 -37
q0 -15 7 -38.5t29 -48t63 -48t109 -39.5q2 -1 4 7t0 10z" />
    <glyph glyph-name="eacute" unicode="&#xe9;" horiz-adv-x="422" 
d="M406 343q0 18 -8 34.5t-24.5 29t-40.5 20.5t-55 8q-50 0 -95.5 -23t-80.5 -61.5t-56 -88.5t-21 -104q0 -37 11.5 -68t32.5 -53t49.5 -34t62.5 -12q51 0 90 21.5t74 63.5l-9 11q-16 -17 -32 -32t-34 -26t-39.5 -17t-48.5 -6q-35 0 -48 20.5t-13 57.5q0 24 7 59t18 70h27
q49 0 91.5 9t74 26t49.5 41t18 54zM315 365q0 -25 -5.5 -49t-21.5 -43.5t-45 -31.5t-75 -12h-19q11 39 22 73.5t25.5 60t33 40.5t45.5 15q20 0 30 -11.5t10 -41.5zM523 677q0 20 -11 30t-28 10q-15 0 -28 -12t-27.5 -30.5t-32.5 -41t-43 -44t-58.5 -40t-78.5 -27.5
q-2 -1 -3.5 -8.5t0.5 -7.5q77 14 135 36t97 46.5t58.5 48t19.5 40.5z" />
    <glyph glyph-name="ecircumflex" unicode="&#xea;" horiz-adv-x="422" 
d="M406 343q0 18 -8 34.5t-24.5 29t-40.5 20.5t-55 8q-50 0 -95.5 -23t-80.5 -61.5t-56 -88.5t-21 -104q0 -37 11.5 -68t32.5 -53t49.5 -34t62.5 -12q51 0 90 21.5t74 63.5l-9 11q-16 -17 -32 -32t-34 -26t-39.5 -17t-48.5 -6q-35 0 -48 20.5t-13 57.5q0 24 7 59t18 70h27
q49 0 91.5 9t74 26t49.5 41t18 54zM315 365q0 -25 -5.5 -49t-21.5 -43.5t-45 -31.5t-75 -12h-19q11 39 22 73.5t25.5 60t33 40.5t45.5 15q20 0 30 -11.5t10 -41.5zM439 523q-8 19 -16 42.5t-15 49t-12 50.5t-8 47q0 2 -7 4t-9 0q-17 -18 -37.5 -41t-43.5 -48.5t-49 -52
t-54 -50.5q-1 -1 1 -2.5t4.5 -3t5 -2.5t3.5 0q36 31 66 59t58 55q8 -38 19 -66t23 -50z" />
    <glyph glyph-name="edieresis" unicode="&#xeb;" horiz-adv-x="422" 
d="M406 343q0 18 -8 34.5t-24.5 29t-40.5 20.5t-55 8q-50 0 -95.5 -23t-80.5 -61.5t-56 -88.5t-21 -104q0 -37 11.5 -68t32.5 -53t49.5 -34t62.5 -12q51 0 90 21.5t74 63.5l-9 11q-16 -17 -32 -32t-34 -26t-39.5 -17t-48.5 -6q-35 0 -48 20.5t-13 57.5q0 24 7 59t18 70h27
q49 0 91.5 9t74 26t49.5 41t18 54zM315 365q0 -25 -5.5 -49t-21.5 -43.5t-45 -31.5t-75 -12h-19q11 39 22 73.5t25.5 60t33 40.5t45.5 15q20 0 30 -11.5t10 -41.5zM445 605q0 17 -10 27t-26 10q-24 0 -42 -19t-18 -45q0 -17 10.5 -28t26.5 -11q23 0 41 20t18 46zM254 605
q0 17 -10.5 27t-26.5 10q-23 0 -41.5 -19t-18.5 -45q0 -17 10.5 -28t27.5 -11q23 0 41 20t18 46z" />
    <glyph glyph-name="igrave" unicode="&#xec;" horiz-adv-x="272" 
d="M272 93l-14 6q-22 -40 -43 -56t-44 -16q-17 0 -23.5 11t-6.5 28q0 24 15.5 58.5t33.5 74t33.5 81t15.5 78.5q0 31 -19.5 54t-58.5 23t-73 -23.5t-54 -66.5l15 -6q14 29 32 45t31 16q14 0 20.5 -7t6.5 -26q0 -30 -15 -68t-33.5 -77.5t-33.5 -79t-15 -72.5q0 -34 22 -56.5
t64 -22.5q20 0 40.5 7t39.5 20t35.5 32t28.5 43zM260 512q-36 9 -58 27.5t-36 42t-21.5 48t-14 44.5t-14.5 33t-22 13q-21 0 -33.5 -14t-12.5 -37q0 -15 7 -38.5t29 -48t63 -48t109 -39.5q2 -1 4 7t0 10z" />
    <glyph glyph-name="iacute" unicode="&#xed;" horiz-adv-x="272" 
d="M272 93l-14 6q-22 -40 -43 -56t-44 -16q-17 0 -23.5 11t-6.5 28q0 24 15.5 58.5t33.5 74t33.5 81t15.5 78.5q0 31 -19.5 54t-58.5 23t-73 -23.5t-54 -66.5l15 -6q14 29 32 45t31 16q14 0 20.5 -7t6.5 -26q0 -30 -15 -68t-33.5 -77.5t-33.5 -79t-15 -72.5q0 -34 22 -56.5
t64 -22.5q20 0 40.5 7t39.5 20t35.5 32t28.5 43zM433 677q0 20 -11 30t-28 10q-15 0 -28 -12t-27.5 -30.5t-32.5 -41t-43 -44t-58 -40t-79 -27.5q-2 -1 -3.5 -8.5t0.5 -7.5q77 14 135 36t97 46.5t58.5 48t19.5 40.5z" />
    <glyph glyph-name="icircumflex" unicode="&#xee;" horiz-adv-x="272" 
d="M272 93l-14 6q-22 -40 -43 -56t-44 -16q-17 0 -23.5 11t-6.5 28q0 24 15.5 58.5t33.5 74t33.5 81t15.5 78.5q0 31 -19.5 54t-58.5 23t-73 -23.5t-54 -66.5l15 -6q14 29 32 45t31 16q14 0 20.5 -7t6.5 -26q0 -30 -15 -68t-33.5 -77.5t-33.5 -79t-15 -72.5q0 -34 22 -56.5
t64 -22.5q20 0 40.5 7t39.5 20t35.5 32t28.5 43zM346 523q-8 19 -16 42.5t-15 49t-12 50.5t-8 47q0 2 -7 4t-9 0q-17 -18 -37.5 -41t-43.5 -48.5t-49 -52t-54 -50.5q-1 -1 1 -2.5t4.5 -3t5 -2.5t3.5 0q36 31 66 59t58 55q8 -38 19 -66t23 -50z" />
    <glyph glyph-name="idieresis" unicode="&#xef;" horiz-adv-x="272" 
d="M272 93l-14 6q-22 -40 -43 -56t-44 -16q-17 0 -23.5 11t-6.5 28q0 24 15.5 58.5t33.5 74t33.5 81t15.5 78.5q0 31 -19.5 54t-58.5 23t-73 -23.5t-54 -66.5l15 -6q14 29 32 45t31 16q14 0 20.5 -7t6.5 -26q0 -30 -15 -68t-33.5 -77.5t-33.5 -79t-15 -72.5q0 -34 22 -56.5
t64 -22.5q20 0 40.5 7t39.5 20t35.5 32t28.5 43zM349 605q0 17 -10 27t-26 10q-24 0 -42 -19t-18 -45q0 -17 10.5 -28t26.5 -11q23 0 41 20t18 46zM158 605q0 17 -10.5 27t-26.5 10q-23 0 -41.5 -19t-18.5 -45q0 -17 10.5 -28t27.5 -11q23 0 41 20t18 46z" />
    <glyph glyph-name="ntilde" unicode="&#xf1;" horiz-adv-x="533" 
d="M534 93l-15 6q-23 -39 -43.5 -55.5t-43.5 -16.5q-17 0 -24 11t-7 28q0 22 14 54t31 69.5t31 77.5t14 77q0 44 -22.5 67.5t-60.5 23.5q-41 0 -90.5 -33.5t-97.5 -118.5q13 39 13 67q0 29 -9 47.5t-26.5 28t-39.5 9.5q-36 0 -69 -23.5t-53 -66.5l15 -6q16 34 31.5 47.5
t30.5 13.5t21.5 -13t-0.5 -35l-111 -352h109l69 221q25 44 45 74.5t37.5 49.5t34 27.5t33.5 8.5q18 0 26.5 -12t8.5 -31q0 -33 -12.5 -68.5t-28 -70.5t-28 -69t-12.5 -64q0 -31 22 -53t63 -22q37 0 77.5 25t66.5 77zM527 658q0 2 -9 2q-8 0 -8 -2q0 -25 -14.5 -44t-48.5 -19
q-17 0 -36 8.5t-40.5 18.5t-45 18.5t-48.5 8.5q-27 0 -50.5 -9.5t-40 -25.5t-26 -37.5t-9.5 -45.5q0 -2 8 -2t8 2q0 24 15 43t49 19q17 0 36 -8.5t40.5 -18.5t45 -18.5t48.5 -8.5q27 0 50.5 9.5t40 25.5t26 38t9.5 46z" />
    <glyph glyph-name="ograve" unicode="&#xf2;" horiz-adv-x="482" 
d="M436 266q0 37 -12 68t-33 53.5t-49.5 35t-62.5 12.5q-50 0 -96 -23t-81 -61.5t-56 -88.5t-21 -104q0 -37 11.5 -68t32.5 -53t49.5 -34t62.5 -12q50 0 96 23t81.5 61.5t56.5 88t21 102.5zM339 340q0 -20 -7.5 -59t-18.5 -81.5t-23 -79.5t-20 -52q-19 -32 -40.5 -47
t-48.5 -15q-35 0 -47 20.5t-12 57.5q0 20 7.5 59.5t18 82t22.5 79.5t20 51q19 32 40 47t50 15q34 0 46.5 -20.5t12.5 -57.5zM365 512q-36 9 -58 27.5t-36 42t-21.5 48t-14 44.5t-14.5 33t-22 13q-21 0 -33.5 -14t-12.5 -37q0 -15 7 -38.5t29 -48t63 -48t109 -39.5q2 -1 4 7
t0 10z" />
    <glyph glyph-name="oacute" unicode="&#xf3;" horiz-adv-x="482" 
d="M436 266q0 37 -12 68t-33 53.5t-49.5 35t-62.5 12.5q-50 0 -96 -23t-81 -61.5t-56 -88.5t-21 -104q0 -37 11.5 -68t32.5 -53t49.5 -34t62.5 -12q50 0 96 23t81.5 61.5t56.5 88t21 102.5zM339 340q0 -20 -7.5 -59t-18.5 -81.5t-23 -79.5t-20 -52q-19 -32 -40.5 -47
t-48.5 -15q-35 0 -47 20.5t-12 57.5q0 20 7.5 59.5t18 82t22.5 79.5t20 51q19 32 40 47t50 15q34 0 46.5 -20.5t12.5 -57.5zM526 677q0 20 -11 30t-28 10q-15 0 -28 -12t-27.5 -30.5t-32.5 -41t-43 -44t-58 -40t-79 -27.5q-2 -1 -3.5 -8.5t0.5 -7.5q77 14 135 36t97 46.5
t58.5 48t19.5 40.5z" />
    <glyph glyph-name="ocircumflex" unicode="&#xf4;" horiz-adv-x="482" 
d="M436 266q0 37 -12 68t-33 53.5t-49.5 35t-62.5 12.5q-50 0 -96 -23t-81 -61.5t-56 -88.5t-21 -104q0 -37 11.5 -68t32.5 -53t49.5 -34t62.5 -12q50 0 96 23t81.5 61.5t56.5 88t21 102.5zM339 340q0 -20 -7.5 -59t-18.5 -81.5t-23 -79.5t-20 -52q-19 -32 -40.5 -47
t-48.5 -15q-35 0 -47 20.5t-12 57.5q0 20 7.5 59.5t18 82t22.5 79.5t20 51q19 32 40 47t50 15q34 0 46.5 -20.5t12.5 -57.5zM451 523q-8 19 -16 42.5t-15 49t-12 50.5t-8 47q0 2 -7 4t-9 0q-17 -18 -37.5 -41t-43.5 -48.5t-49 -52t-54 -50.5q-1 -1 1 -2.5t4.5 -3t5 -2.5
t3.5 0q36 31 66 59t58 55q8 -38 19 -66t23 -50z" />
    <glyph glyph-name="otilde" unicode="&#xf5;" horiz-adv-x="482" 
d="M436 266q0 37 -12 68t-33 53.5t-49.5 35t-62.5 12.5q-50 0 -96 -23t-81 -61.5t-56 -88.5t-21 -104q0 -37 11.5 -68t32.5 -53t49.5 -34t62.5 -12q50 0 96 23t81.5 61.5t56.5 88t21 102.5zM339 340q0 -20 -7.5 -59t-18.5 -81.5t-23 -79.5t-20 -52q-19 -32 -40.5 -47
t-48.5 -15q-35 0 -47 20.5t-12 57.5q0 20 7.5 59.5t18 82t22.5 79.5t20 51q19 32 40 47t50 15q34 0 46.5 -20.5t12.5 -57.5zM510 658q0 2 -9 2q-8 0 -8 -2q0 -25 -14.5 -44t-48.5 -19q-17 0 -36 8.5t-40.5 18.5t-45 18.5t-48.5 8.5q-27 0 -50.5 -9.5t-40 -25.5t-26 -37.5
t-9.5 -45.5q0 -2 8 -2t8 2q0 24 15 43t49 19q17 0 36 -8.5t40.5 -18.5t45 -18.5t48.5 -8.5q27 0 50.5 9.5t40 25.5t26 38t9.5 46z" />
    <glyph glyph-name="odieresis" unicode="&#xf6;" horiz-adv-x="482" 
d="M436 266q0 37 -12 68t-33 53.5t-49.5 35t-62.5 12.5q-50 0 -96 -23t-81 -61.5t-56 -88.5t-21 -104q0 -37 11.5 -68t32.5 -53t49.5 -34t62.5 -12q50 0 96 23t81.5 61.5t56.5 88t21 102.5zM339 340q0 -20 -7.5 -59t-18.5 -81.5t-23 -79.5t-20 -52q-19 -32 -40.5 -47
t-48.5 -15q-35 0 -47 20.5t-12 57.5q0 20 7.5 59.5t18 82t22.5 79.5t20 51q19 32 40 47t50 15q34 0 46.5 -20.5t12.5 -57.5zM448 605q0 17 -10 27t-26 10q-24 0 -42 -19t-18 -45q0 -17 10.5 -28t26.5 -11q23 0 41 20t18 46zM257 605q0 17 -10.5 27t-26.5 10q-23 0 -41.5 -19
t-18.5 -45q0 -17 10.5 -28t27.5 -11q23 0 41 20t18 46z" />
    <glyph glyph-name="oslash" unicode="&#xf8;" horiz-adv-x="481" 
d="M436 266q0 37 -12 67.5t-33 53.5l7 7.5t15.5 17t15 17l6.5 7.5q1 1 -5 6.5t-7 3.5l-42 -49q-20 18 -46 28t-56 10q-50 0 -96 -23t-81 -61.5t-56 -88.5t-21 -104q0 -37 12 -67t32 -53l-42 -49q-1 -2 5 -6t7 -2q2 2 11 12.5t19.5 22l10.5 11.5q42 -36 101 -36q50 0 96 23
t81.5 61.5t56.5 88t21 102.5zM339 349l-216 -249q0 5 1 9t1 9q3 24 11 60t17.5 71t19.5 65t17 42q19 32 40 47t50 15q32 0 45 -18.5t14 -50.5zM336 312q-3 -24 -11 -60t-17.5 -72.5t-20 -67.5t-17.5 -44q-19 -32 -40.5 -47t-48.5 -15q-34 0 -46 19t-13 51l216 249
q-1 -3 -1 -7q0 -3 -1 -6z" />
    <glyph glyph-name="ugrave" unicode="&#xf9;" horiz-adv-x="523" 
d="M514 432l-110 -6l-70 -222q-25 -44 -45 -74.5t-37.5 -49t-33.5 -27t-33 -8.5q-18 0 -27 12t-9 30q0 34 13 69t28 70.5t28 69t13 64.5q0 32 -18.5 53.5t-57.5 21.5q-34 0 -66.5 -21.5t-52.5 -67.5l15 -6q15 31 31 46t30 15q13 0 18 -7t5 -24q0 -22 -14 -56t-31 -73
t-31 -80.5t-14 -78.5q0 -44 24 -67.5t63 -23.5q41 0 88 34t95 118q-14 -40 -13 -68.5t11.5 -47t28.5 -27.5t40 -9q35 0 73 24t65 78l-15 6q-22 -39 -41.5 -55t-42.5 -16q-34 0 -23 32zM389 512q-36 9 -58 27.5t-36 42t-21.5 48t-14 44.5t-14.5 33t-22 13q-21 0 -33.5 -14
t-12.5 -37q0 -15 7 -38.5t29 -48t63 -48t109 -39.5q2 -1 4 7t0 10z" />
    <glyph glyph-name="uacute" unicode="&#xfa;" horiz-adv-x="523" 
d="M514 432l-110 -6l-70 -222q-25 -44 -45 -74.5t-37.5 -49t-33.5 -27t-33 -8.5q-18 0 -27 12t-9 30q0 34 13 69t28 70.5t28 69t13 64.5q0 32 -18.5 53.5t-57.5 21.5q-34 0 -66.5 -21.5t-52.5 -67.5l15 -6q15 31 31 46t30 15q13 0 18 -7t5 -24q0 -22 -14 -56t-31 -73
t-31 -80.5t-14 -78.5q0 -44 24 -67.5t63 -23.5q41 0 88 34t95 118q-14 -40 -13 -68.5t11.5 -47t28.5 -27.5t40 -9q35 0 73 24t65 78l-15 6q-22 -39 -41.5 -55t-42.5 -16q-34 0 -23 32zM525 677q0 20 -11 30t-28 10q-15 0 -28 -12t-27.5 -30.5t-32.5 -41t-43 -44t-58.5 -40
t-78.5 -27.5q-2 -1 -3.5 -8.5t0.5 -7.5q77 14 135 36t97 46.5t58.5 48t19.5 40.5z" />
    <glyph glyph-name="ucircumflex" unicode="&#xfb;" horiz-adv-x="523" 
d="M514 432l-110 -6l-70 -222q-25 -44 -45 -74.5t-37.5 -49t-33.5 -27t-33 -8.5q-18 0 -27 12t-9 30q0 34 13 69t28 70.5t28 69t13 64.5q0 32 -18.5 53.5t-57.5 21.5q-34 0 -66.5 -21.5t-52.5 -67.5l15 -6q15 31 31 46t30 15q13 0 18 -7t5 -24q0 -22 -14 -56t-31 -73
t-31 -80.5t-14 -78.5q0 -44 24 -67.5t63 -23.5q41 0 88 34t95 118q-14 -40 -13 -68.5t11.5 -47t28.5 -27.5t40 -9q35 0 73 24t65 78l-15 6q-22 -39 -41.5 -55t-42.5 -16q-34 0 -23 32zM469 523q-8 19 -16 42.5t-15 49t-12 50.5t-8 47q0 2 -7 4t-9 0q-17 -18 -37.5 -41
t-43.5 -48.5t-49 -52t-54 -50.5q-1 -1 1 -2.5t4.5 -3t5 -2.5t3.5 0q36 31 66 59t58 55q8 -38 19 -66t23 -50z" />
    <glyph glyph-name="udieresis" unicode="&#xfc;" horiz-adv-x="523" 
d="M514 432l-110 -6l-70 -222q-25 -44 -45 -74.5t-37.5 -49t-33.5 -27t-33 -8.5q-18 0 -27 12t-9 30q0 34 13 69t28 70.5t28 69t13 64.5q0 32 -18.5 53.5t-57.5 21.5q-34 0 -66.5 -21.5t-52.5 -67.5l15 -6q15 31 31 46t30 15q13 0 18 -7t5 -24q0 -22 -14 -56t-31 -73
t-31 -80.5t-14 -78.5q0 -44 24 -67.5t63 -23.5q41 0 88 34t95 118q-14 -40 -13 -68.5t11.5 -47t28.5 -27.5t40 -9q35 0 73 24t65 78l-15 6q-22 -39 -41.5 -55t-42.5 -16q-34 0 -23 32zM481 605q0 17 -10 27t-26 10q-24 0 -42 -19t-18 -45q0 -17 10.5 -28t26.5 -11
q23 0 41 20t18 46zM290 605q0 17 -10.5 27t-26.5 10q-23 0 -41.5 -19t-18.5 -45q0 -17 10.5 -28t27.5 -11q23 0 41 20t18 46z" />
    <glyph glyph-name="ydieresis" unicode="&#xff;" horiz-adv-x="453" 
d="M499 407q0 12 -6.5 20t-23.5 8q-47 0 -92.5 -75.5t-106.5 -223.5l-28 129q-17 78 -40 124t-67 46q-37 0 -67 -25.5t-54 -70.5l11 -10q14 23 25.5 33t24.5 10q10 0 20 -5.5t19.5 -22t19 -48t18.5 -83.5l44 -253q-27 -62 -50 -110t-47.5 -81t-52 -50t-61.5 -17
q-16 0 -25.5 8t-9.5 26q0 13 11 29t11 35q0 17 -11 30t-36 13q-23 0 -39 -17.5t-16 -46.5q0 -21 9 -38t24.5 -29t35.5 -19t42 -7q43 0 76.5 21.5t63.5 64t58.5 106t63.5 147.5q41 101 68.5 163t50.5 98.5t46 53.5t56 27q14 6 24.5 14t10.5 26zM445 605q0 17 -10 27t-26 10
q-24 0 -42 -19t-18 -45q0 -17 10.5 -28t26.5 -11q23 0 41 20t18 46zM254 605q0 17 -10.5 27t-26.5 10q-23 0 -41.5 -19t-18.5 -45q0 -17 10.5 -28t27.5 -11q23 0 41 20t18 46z" />
    <glyph glyph-name="dotlessi" unicode="&#x131;" horiz-adv-x="291" 
d="M272 93l-14 6q-22 -40 -43 -56t-44 -16q-17 0 -23.5 11t-6.5 28q0 24 15.5 58.5t33.5 74t33.5 81t15.5 78.5q0 31 -19.5 54t-58.5 23t-73 -23.5t-54 -66.5l15 -6q14 29 32 45t31 16q14 0 20.5 -7t6.5 -26q0 -30 -15 -68t-33.5 -77.5t-33.5 -79t-15 -72.5q0 -34 22 -56.5
t64 -22.5q20 0 40.5 7t39.5 20t35.5 32t28.5 43z" />
    <glyph glyph-name="OE" unicode="&#x152;" horiz-adv-x="974" 
d="M1006 705q1 3 -2 3h-498q-54 0 -108.5 -16.5t-105 -46t-95 -70t-77.5 -89t-52 -103t-19 -111.5q0 -59 20.5 -109t56 -86t82.5 -56.5t101 -20.5h526q3 0 3 3l71 225q1 2 -8 2q-8 0 -8 -2q-12 -38 -38 -76t-65.5 -68t-93 -49t-120.5 -19h-58q-7 0 -5 3l110 346h20
q31 0 51 -12t30 -32t10.5 -45t-7.5 -51q-1 -2 7 -2q9 0 9 2l87 275q0 2 -8 2t-9 -2q-17 -52 -60 -85.5t-105 -33.5h-21l97 308q1 3 8 3h69q48 0 78.5 -17t46 -44.5t16.5 -62t-10 -69.5q-1 -2 7 -2q9 0 9 2zM583 689l-211 -669q-1 -4 -7 -4h-49q-44 0 -74 9.5t-48 26
t-25.5 40t-7.5 50.5q0 28 6.5 67t17 82t23.5 87.5t27.5 83.5t28 70t24.5 48q38 60 89.5 86.5t127.5 26.5h73q7 0 5 -4z" />
    <glyph glyph-name="oe" unicode="&#x153;" horiz-adv-x="716" 
d="M697 342q0 36 -32 64t-95 28q-49 0 -91.5 -21.5t-74.5 -58.5q-16 38 -47.5 59.5t-76.5 21.5q-50 0 -96.5 -23t-81.5 -61.5t-56 -88.5t-21 -104q0 -37 12 -68t33 -53t49.5 -34t62.5 -12q48 0 91 21t75 57q16 -37 47.5 -58t76.5 -21q52 0 91 21.5t74 63.5l-10 11
q-31 -35 -65.5 -57.5t-89.5 -22.5q-35 0 -47.5 20.5t-12.5 56.5q0 25 6.5 60t17.5 70h28q49 0 92 9t74 26t49 40.5t18 53.5zM606 365q0 -25 -5.5 -49.5t-21 -43.5t-44.5 -31t-76 -12h-19q11 39 22.5 73.5t25.5 60t33 40t45 14.5q20 0 30 -11.5t10 -40.5zM340 340
q0 -20 -7.5 -59t-18.5 -81.5t-23 -79.5t-20 -52q-19 -32 -40.5 -47t-48.5 -15q-36 0 -48 20.5t-12 57.5q0 13 3.5 35.5t9.5 49.5t13.5 56t15 55t14.5 46t13 30q35 62 89 62q35 0 47.5 -20.5t12.5 -57.5z" />
    <glyph glyph-name="Ydieresis" unicode="&#x178;" horiz-adv-x="643" 
d="M805 709h-202q-2 0 -4.5 -8t-0.5 -8h85q3 0 3.5 -1t-2 -5.5t-8.5 -12.5t-18 -23l-237 -302l-76 340q-1 1 0.5 2.5t4.5 1.5h108q2 0 4.5 8t0.5 8h-355q-2 0 -4.5 -8t-0.5 -8h92q7 0 7 -4l81 -361l-98 -308q0 -4 -7 -4h-90q-2 0 -4.5 -8t-0.5 -8h333q2 0 4.5 8t0.5 8h-90
q-6 0 -5 4l97 306l256 325q11 14 18.5 22.5t12 13t7.5 5.5t5 1h77q2 0 5 8t1 8zM682 860q0 17 -10 27t-26 10q-24 0 -42 -19t-18 -45q0 -17 10.5 -28t26.5 -11q23 0 41 20t18 46zM491 860q0 17 -10.5 27t-26.5 10q-23 0 -41.5 -19t-18.5 -45q0 -17 10.5 -28t27.5 -11
q23 0 41 20t18 46z" />
    <glyph glyph-name="florin" unicode="&#x192;" horiz-adv-x="375" 
d="M548 661q0 38 -26.5 60.5t-74.5 22.5q-54 0 -102.5 -28.5t-88 -80t-67.5 -123t-41 -157.5l-2 -14q0 -3 -7 -3h-90q-2 0 -4 -8t0 -8h91q6 0 6 -4q-20 -133 -36.5 -245.5t-37.5 -194.5t-51.5 -128.5t-79.5 -46.5q-26 0 -26 32q0 10 3 16t6 11t6 11t3 16q0 17 -11 28t-35 11
t-40 -17.5t-16 -41.5q0 -41 28 -62.5t72 -21.5q52 0 94 25t75.5 68.5t59.5 103t46 128.5t35 144t26 150l2 14q0 4 7 4h89q2 0 3.5 8t-0.5 8h-90q-6 0 -6 3q18 132 37 208.5t40 116t43.5 50t45.5 10.5q28 0 28 -31q0 -12 -2.5 -18t-6 -11t-6 -10t-2.5 -14q0 -18 10.5 -29
t36.5 -11q22 0 39 16.5t17 42.5z" />
    <glyph glyph-name="circumflex" unicode="&#x2c6;" horiz-adv-x="326" 
d="M358 523q-8 19 -16 42.5t-15 49t-12 50.5t-8 47q0 2 -7 4t-9 0q-17 -18 -37.5 -41t-43.5 -48.5t-49 -52t-54 -50.5q-1 -1 1 -2.5t4.5 -3t5 -2.5t3.5 0q36 31 66 59t58 55q8 -38 19 -66t23 -50z" />
    <glyph glyph-name="caron" unicode="&#x2c7;" horiz-adv-x="326" 
d="M417 704q1 2 -6 5t-8 2q-36 -31 -66 -58.5t-58 -54.5q-8 38 -19 66t-23 50l-71 -9q8 -19 16 -43t15 -49.5t12 -50.5t8 -47q0 -2 7 -3.5t9 -0.5q17 18 37.5 41.5t43.5 49t48.5 52t54.5 50.5z" />
    <glyph glyph-name="breve" unicode="&#x2d8;" horiz-adv-x="380" 
d="M492 691q1 2 -8 2q-8 0 -8 -2q-5 -13 -13 -28.5t-23.5 -28.5t-41.5 -22t-65 -9t-61.5 9t-33 22t-11 28.5t3.5 28.5q0 2 -9 2q-8 0 -8 -2q-8 -24 -8.5 -51t9.5 -50.5t33 -38.5t64 -15q40 0 70.5 15t52 38.5t35.5 50.5t22 51z" />
    <glyph glyph-name="dotaccent" unicode="&#x2d9;" horiz-adv-x="247" 
d="M251 605q0 17 -10.5 27t-26.5 10q-23 0 -41.5 -19t-18.5 -45q0 -17 10.5 -28t27.5 -11q23 0 41 20t18 46z" />
    <glyph glyph-name="ring" unicode="&#x2da;" horiz-adv-x="283" 
d="M313 627q0 29 -17.5 46.5t-45.5 17.5q-20 0 -38 -8t-31.5 -21.5t-21.5 -32t-8 -38.5q0 -29 17.5 -46t45.5 -17q20 0 38 8t31.5 21.5t21.5 31.5t8 38zM295 626q0 -17 -6.5 -31.5t-17 -26t-24 -18t-28.5 -6.5q-22 0 -36 13t-14 36q0 16 6.5 31t17 26t24 17.5t28.5 6.5
q22 0 36 -12.5t14 -35.5z" />
    <glyph glyph-name="ogonek" unicode="&#x2db;" horiz-adv-x="273" 
d="M142 -11q2 0 0.5 8t-3.5 8q-83 -14 -125 -53t-42 -84q0 -33 23 -55t59 -22q26 0 43.5 7.5t30.5 18.5q4 3 3 9.5t-3 7.5q-8 -4 -17.5 -7t-17.5 -3q-21 0 -37.5 13.5t-16.5 40.5q0 45 24.5 71t78.5 40z" />
    <glyph glyph-name="tilde" unicode="&#x2dc;" horiz-adv-x="406" 
d="M473 658q0 2 -9 2q-8 0 -8 -2q0 -25 -14.5 -44t-48.5 -19q-17 0 -36 8.5t-40.5 18.5t-45 18.5t-48.5 8.5q-27 0 -50.5 -9.5t-40 -25.5t-26 -37.5t-9.5 -45.5q0 -2 8 -2t8 2q0 24 15 43t49 19q17 0 36 -8.5t40.5 -18.5t45 -18.5t48.5 -8.5q27 0 50.5 9.5t40 25.5t26 38
t9.5 46z" />
    <glyph glyph-name="hungarumlaut" unicode="&#x2dd;" horiz-adv-x="588" 
d="M583 672q0 19 -11 29.5t-28 10.5q-15 0 -28 -12t-27.5 -30.5t-32.5 -41t-43 -44t-58 -40t-79 -27.5q-2 -1 -3 -8.5t1 -7.5q77 14 135 36t96.5 46.5t58 48t19.5 40.5zM389 672q0 19 -11 29.5t-28 10.5q-15 0 -28 -12t-27.5 -30.5t-32.5 -41t-43 -44t-58.5 -40t-78.5 -27.5
q-2 -1 -3 -8.5t1 -7.5q77 14 135 36t96.5 46.5t58 48t19.5 40.5z" />
    <glyph glyph-name="Omega" unicode="&#x3a9;" horiz-adv-x="554" 
d="M781 641q0 19 -7.5 37t-22.5 32.5t-37 23t-50 8.5q-35 0 -68.5 -14t-64.5 -40q-18 25 -45 39.5t-66 14.5q-41 0 -79 -18.5t-71 -51.5t-60 -79.5t-45 -102.5q-5 -14 -8.5 -27t-10.5 -32h-101q-2 0 -5 -7t-2 -8h104q-16 -57 -32.5 -124.5t-33.5 -136.5t-34 -134t-33 -116
q-19 -60 -33 -99t-27 -62.5t-27 -33t-33 -9.5q-16 0 -27.5 9.5t-11.5 26.5q0 14 10.5 29.5t10.5 34.5q0 17 -11 28t-36 11q-22 0 -37.5 -15.5t-15.5 -44.5q0 -20 9.5 -37.5t25.5 -30.5t36.5 -20t42.5 -7q60 0 108 39q18 -20 40.5 -29.5t60.5 -9.5q36 0 74.5 19t73.5 53.5
t63.5 81t46.5 102.5q13 41 31 98.5t37.5 121t39 130t35.5 125.5h118q1 0 3 7.5t0 7.5h-116q1 4 4 15.5t7 23.5t7 22.5t4 14.5q22 69 41 112t35.5 66.5t32 32t29.5 8.5q41 0 41 -39q0 -14 -10 -30.5t-10 -36.5q0 -17 10.5 -27t35.5 -10q23 0 38.5 15t15.5 43zM517 674
q-34 -33 -61.5 -79.5t-45.5 -104.5q-7 -14 -10.5 -27t-9.5 -32h-134q1 4 4 15.5t7 23.5t7 22.5t4 14.5q22 69 40.5 112t35.5 66.5t34.5 32t37.5 8.5q31 0 54 -14.5t37 -37.5zM386 416q-16 -57 -35 -124t-38 -134.5t-37.5 -131.5t-34.5 -115q-21 -69 -40 -110.5t-38 -63
t-38 -28.5t-40 -7q-25 0 -44 7.5t-35 25.5q38 34 66 88t51 121q13 41 28.5 98t32.5 120t34 129t33 125h135z" />
    <glyph glyph-name="endash" unicode="&#x2013;" horiz-adv-x="545" 
d="M505 228q2 0 2 8t-2 8h-465q-2 0 -2 -8t2 -8h465z" />
    <glyph glyph-name="emdash" unicode="&#x2014;" horiz-adv-x="1011" 
d="M970 228q2 0 2 8t-2 8h-930q-2 0 -2 -8t2 -8h930z" />
    <glyph glyph-name="quoteleft" unicode="&#x2018;" horiz-adv-x="191" 
d="M293 720q1 1 1.5 8.5t-0.5 6.5q-41 -8 -77 -28.5t-64 -47.5t-44 -57t-16 -58q0 -22 12 -40.5t38 -18.5q30 0 45.5 18.5t15.5 47.5q0 13 -3.5 22.5t-8 18t-8 17.5t-3.5 21q0 26 18 43t40 28q11 5 25 10t29 9z" />
    <glyph glyph-name="quoteright" unicode="&#x2019;" horiz-adv-x="191" 
d="M269 674q0 22 -12 40.5t-39 18.5q-29 0 -44.5 -18.5t-15.5 -47.5q0 -13 3.5 -22.5t8 -18t8 -17.5t3.5 -21q0 -26 -18 -43t-40 -28q-12 -5 -26 -10t-28 -9q-1 0 -1.5 -3l-1 -6t0 -5t0.5 -1q40 8 77 28.5t64.5 47.5t44 57t16.5 58z" />
    <glyph glyph-name="quotesinglbase" unicode="&#x201a;" horiz-adv-x="206" 
d="M132 46q0 22 -12 40.5t-38 18.5q-30 0 -45.5 -18.5t-15.5 -47.5q0 -13 3.5 -22.5t8 -18t8 -17.5t3.5 -21q0 -26 -18 -43t-40 -28q-11 -6 -25.5 -10.5t-28.5 -8.5q-1 0 -1.5 -3t-0.5 -6v-5t1 -1q40 8 76.5 28.5t64.5 47.5t44 57t16 58z" />
    <glyph glyph-name="quotedblleft" unicode="&#x201c;" horiz-adv-x="353" 
d="M455 720q1 1 1.5 8.5t-0.5 6.5q-41 -8 -77 -28.5t-64 -47.5t-44 -57t-16 -58q0 -22 12 -40.5t38 -18.5q30 0 45.5 18.5t15.5 47.5q0 13 -3.5 22.5t-8 18t-8 17.5t-3.5 21q0 26 18 43t40 28q11 5 25 10t29 9zM293 720q1 1 1.5 8.5t-0.5 6.5q-41 -8 -77 -28.5t-64 -47.5
t-44 -57t-16 -58q0 -22 12 -40.5t38 -18.5q30 0 45.5 18.5t15.5 47.5q0 13 -3.5 22.5t-8 18t-8 17.5t-3.5 21q0 26 18 43t40 28q11 5 25 10t29 9z" />
    <glyph glyph-name="quotedblright" unicode="&#x201d;" horiz-adv-x="353" 
d="M431 674q0 22 -12 40.5t-39 18.5q-29 0 -44.5 -18.5t-15.5 -47.5q0 -13 3.5 -22.5t8 -18t8 -17.5t3.5 -21q0 -26 -18 -43t-40 -28q-12 -5 -26 -10t-28 -9q-1 0 -1.5 -3l-1 -6t0 -5t0.5 -1q40 8 77 28.5t64.5 47.5t44 57t16.5 58zM269 674q0 22 -12 40.5t-39 18.5
q-29 0 -44.5 -18.5t-15.5 -47.5q0 -13 3.5 -22.5t8 -18t8 -17.5t3.5 -21q0 -26 -18 -43t-40 -28q-12 -5 -26 -10t-28 -9q-1 0 -1.5 -3l-1 -6t0 -5t0.5 -1q40 8 77 28.5t64.5 47.5t44 57t16.5 58z" />
    <glyph glyph-name="quotedblbase" unicode="&#x201e;" horiz-adv-x="368" 
d="M294 46q0 22 -12 40.5t-38 18.5q-30 0 -45.5 -18.5t-15.5 -47.5q0 -13 3.5 -22.5t8 -18t8 -17.5t3.5 -21q0 -26 -18 -43t-40 -28q-11 -6 -25.5 -10.5t-28.5 -8.5q-1 0 -1.5 -3t-0.5 -6v-5t1 -1q40 8 76.5 28.5t64.5 47.5t44 57t16 58zM132 46q0 22 -12 40.5t-38 18.5
q-30 0 -45.5 -18.5t-15.5 -47.5q0 -13 3.5 -22.5t8 -18t8 -17.5t3.5 -21q0 -26 -18 -43t-40 -28q-11 -6 -25.5 -10.5t-28.5 -8.5q-1 0 -1.5 -3t-0.5 -6v-5t1 -1q40 8 76.5 28.5t64.5 47.5t44 57t16 58z" />
    <glyph glyph-name="dagger" unicode="&#x2020;" horiz-adv-x="609" 
d="M593 367q0 18 -8 38t-23.5 36t-38 26.5t-50.5 10.5q-41 0 -69.5 -16.5t-44.5 -40.5q3 11 11.5 23.5t17.5 27t15.5 32t6.5 38.5q0 8 -1.5 20.5t-1.5 29.5q0 20 9.5 30.5t21.5 19.5t21.5 22t9.5 37q0 19 -13.5 31t-31.5 12q-12 0 -24.5 -6t-22 -15.5t-16 -22.5t-6.5 -27
q0 -16 2.5 -24t5.5 -13.5t5.5 -9.5t2.5 -12q0 -9 -6 -18.5t-14.5 -20.5t-17 -23.5t-13.5 -26.5q-7 -19 -9 -32.5t-2.5 -24.5t-1.5 -21.5t-5 -23.5q0 8 -6 18.5t-17 20t-27.5 16t-38.5 6.5q-41 0 -73 -13.5t-54.5 -33t-34 -41t-11.5 -36.5q0 -18 11.5 -28.5t28.5 -10.5
q33 0 44 19t11 43q0 46 21 65.5t50 19.5q53 0 76 -31.5t4 -95.5q-7 -21 -16.5 -33t-19.5 -18.5t-19 -9.5t-14 -5q-4 0 -6 -7t2 -7q20 4 20.5 -31.5t-16 -109t-48 -182.5t-75.5 -251q-1 -1 1 -2t5 -2t5 -1q3 0 3 1q45 142 82.5 251t67.5 181.5t52 106.5t36 27q4 -2 7 5t1 10
q-4 2 -10.5 6.5t-11 13.5t-6 22.5t4.5 34.5q18 60 51.5 90.5t86.5 30.5q20 0 34 -10.5t14 -34.5q0 -13 -4 -21t-8.5 -15.5t-8 -17t-3.5 -24.5q0 -17 13 -25t30 -8q26 0 41.5 16t15.5 45z" />
    <glyph glyph-name="daggerdbl" unicode="&#x2021;" horiz-adv-x="608" 
d="M613 417q0 17 -8 35t-23 33t-38 25t-53 10q-41 0 -69.5 -17.5t-49.5 -47.5q4 15 11 25t13 19t10.5 20t4.5 29q0 9 -2 18t-2 27q0 20 9.5 30t21.5 19.5t21.5 22t9.5 36.5q0 20 -14 31.5t-30 11.5q-13 0 -25.5 -6t-22.5 -15.5t-16.5 -22.5t-6.5 -26q0 -16 2.5 -24.5
t6 -13.5t6 -9t2.5 -12t-5.5 -16t-13 -17t-15.5 -20t-13 -26q-6 -17 -3.5 -33t-0.5 -42q-4 26 -25.5 45.5t-64.5 19.5q-41 0 -73 -12.5t-53.5 -30.5t-33 -38.5t-11.5 -35.5q0 -19 11.5 -29.5t28.5 -10.5q34 0 44.5 19t10.5 43q0 46 19.5 62.5t50.5 16.5q47 0 70.5 -27.5
t4.5 -83.5q-7 -20 -15.5 -32.5t-17.5 -19t-16.5 -9.5l-12.5 -5q-4 -1 -4 -9q0 -7 3 -6q17 5 26 -2.5t12 -22.5t0 -35t-10 -41t-16 -41t-20 -34.5t-24 -21t-28 1.5q-2 1 -6 -6.5t0 -8.5q4 -2 9.5 -5t9 -10.5t4 -20t-6.5 -32.5q-35 -113 -127 -113q-25 0 -39 7t-14 30
q0 13 4 21t9 15t9 16t4 23q0 18 -12 25.5t-32 7.5q-24 0 -40 -15.5t-16 -44.5q0 -17 7.5 -35t23 -32.5t38 -24t52.5 -9.5q41 0 70 17t49 47q-4 -15 -10.5 -24.5t-12.5 -18.5t-10.5 -20t-4.5 -29q0 -10 2 -18.5t2 -26.5q0 -20 -9.5 -30.5t-21.5 -20t-21.5 -22t-9.5 -36.5
q0 -20 13.5 -31.5t29.5 -11.5q13 0 26 6t23 15.5t16.5 22t6.5 25.5q0 16 -2.5 24.5t-6 14t-6 9.5t-2.5 13q0 8 5.5 15.5t13 16.5t15.5 20t13 26q5 17 3 33t1 43q4 -27 25.5 -46t64.5 -19q41 0 73 12.5t53.5 30t33 37.5t11.5 35q0 19 -12 30t-29 11q-34 0 -44 -19t-10 -43
q0 -46 -20 -62t-51 -16q-47 0 -70 26.5t-5 82.5q7 20 15.5 32.5t17.5 19t16.5 9.5l12.5 5t5 9t-3 6q-18 -5 -27 2.5t-11.5 23t0.5 35.5t10 41q7 20 16 40.5t20 35t24 20.5t28 -1q1 -1 2.5 1t3 5t1.5 5q0 3 -2 4q-4 2 -9.5 5t-9 10.5t-3.5 19.5q0 13 7 33q18 58 48.5 86
t77.5 28q26 0 40 -7.5t14 -30.5q0 -13 -4 -21t-9 -15.5t-9 -16t-4 -23.5q0 -17 12 -25t31 -8q25 0 41 15.5t16 44.5z" />
    <glyph glyph-name="bullet" unicode="&#x2022;" horiz-adv-x="345" 
d="M309 354q0 23 -9 43.5t-24 35.5t-35 24t-43 9t-43.5 -9t-35.5 -24t-24 -35.5t-9 -43.5t9 -43.5t24 -35.5t35.5 -24t43.5 -9t43 9t35 24t24 35.5t9 43.5z" />
    <glyph glyph-name="ellipsis" unicode="&#x2026;" horiz-adv-x="628" 
d="M555 58q0 20 -12.5 33.5t-30.5 13.5q-14 0 -27 -6.5t-22.5 -17.5t-15.5 -25t-6 -29q0 -20 13 -32.5t31 -12.5q13 0 26 6t22.5 16.5t15.5 24.5t6 29zM344 58q0 20 -12.5 33.5t-30.5 13.5q-14 0 -27 -6.5t-22.5 -17.5t-15.5 -25t-6 -29q0 -20 13 -32.5t31 -12.5q13 0 26 6
t22.5 16.5t15.5 24.5t6 29zM133 58q0 20 -12.5 33.5t-30.5 13.5q-14 0 -27 -6.5t-22.5 -17.5t-15.5 -25t-6 -29q0 -20 13 -32.5t31 -12.5q13 0 26 6t22.5 16.5t15.5 24.5t6 29z" />
    <glyph glyph-name="perthousand" unicode="&#x2030;" horiz-adv-x="1075" 
d="M1057 220q0 60 -32.5 93t-83.5 33q-48 0 -88.5 -21.5t-70 -54.5t-46.5 -73.5t-17 -79.5q0 -60 32.5 -93t82.5 -33q48 0 89 21.5t70.5 54.5t46.5 73.5t17 79.5zM390 587q0 60 -32.5 93t-82.5 33q-48 0 -89 -21.5t-71 -54.5t-47 -73.5t-17 -79.5q0 -60 33 -93t83 -33
q48 0 89 21.5t70.5 54.5t46.5 73.5t17 79.5zM596 726q1 1 -6.5 5.5t-8.5 2.5l-434 -749q-1 -2 5.5 -6.5t7.5 -2.5zM689 220q0 60 -32.5 93t-82.5 33q-48 0 -88.5 -21.5t-70.5 -54.5t-47 -73.5t-17 -79.5q0 -60 32.5 -93t82.5 -33q48 0 89 21.5t70.5 54.5t46.5 73.5t17 79.5z
M987 262q0 -23 -7.5 -56.5t-20.5 -68t-30.5 -65.5t-37.5 -47q-12 -11 -25.5 -14.5t-27.5 -3.5q-26 0 -35.5 16t-9.5 52q0 22 7.5 56t21 68.5t30.5 65t37 47.5q13 11 26 14.5t28 3.5q24 0 34 -16t10 -52zM319 629q0 -23 -7.5 -56.5t-20.5 -68t-30.5 -65.5t-36.5 -47
q-14 -11 -26.5 -14.5t-26.5 -3.5q-25 0 -34.5 16t-9.5 52q0 22 7.5 56t20.5 68.5t30 65t37 47.5q13 11 26.5 14.5t27.5 3.5q25 0 34 -16t9 -52zM619 262q0 -23 -7.5 -56.5t-20.5 -68t-30.5 -65.5t-37.5 -47q-12 -11 -25.5 -14.5t-27.5 -3.5q-25 0 -34.5 16t-9.5 52
q0 22 7.5 56t20.5 68.5t30 65t37 47.5q14 11 26.5 14.5t27.5 3.5q24 0 34 -16t10 -52z" />
    <glyph glyph-name="guilsinglleft" unicode="&#x2039;" horiz-adv-x="273" 
d="M256 370q0 2 -2.5 3.5t-6 2.5t-7 0.5t-3.5 -3.5q-9 -29 -35 -54.5t-56 -46t-57.5 -34.5t-39.5 -19q-4 -2 1 -4q8 -5 26 -20.5t34 -38t24.5 -49.5t-0.5 -56q0 -2 2.5 -4t6 -2.5t7 0t3.5 2.5q7 24 9.5 49t1 47.5t-6.5 40t-11 26.5q12 10 27.5 27t31.5 39t29.5 46t21.5 48z
" />
    <glyph glyph-name="guilsinglright" unicode="&#x203a;" horiz-adv-x="273" 
d="M223 209q-9 5 -26.5 20.5t-34 38t-25 49.5t0.5 56q0 2 -2.5 4t-6 2.5t-7 0t-3.5 -2.5q-8 -24 -10 -49t-0.5 -47.5t6.5 -40t12 -26.5q-12 -10 -28 -27t-32 -39t-30 -46t-21 -48q0 -2 2.5 -3.5t6.5 -2.5t7 -0.5t4 3.5q9 29 35 54.5t55.5 46t57 34.5t39.5 19q4 2 0 4z" />
    <glyph glyph-name="trademark" unicode="&#x2122;" horiz-adv-x="496" 
d="M592 528v15h-24q-2 0 -2 1v148q0 1 2 1h24v16h-81q-2 0 -4 -5l-42 -118l-40 118q-2 5 -3 5h-76q-1 0 -1 -8t1 -8h24q2 0 2 -1v-148q0 -1 -2 -1h-24q-1 0 -1 -8q0 -7 1 -7h66q1 0 1 7q0 8 -1 8h-23q-2 0 -2 1v145l61 -165q0 -1 5 -1t6 1l63 171v-151q0 -1 -2 -1h-23
q-1 0 -1 -8q0 -7 1 -7h95zM316 643v65v0q0 1 1 1h-185q-1 0 -1 -1v0v-65q0 -1 7 -1q8 0 8 1q0 22 10.5 36t41.5 14h2q2 0 2 -1v-148q0 -1 -2 -1h-24q-1 0 -1 -8q0 -7 1 -7h95q1 0 1 7q0 8 -1 8h-24q-1 0 -1 1v148q0 1 1 1h1q29 0 41 -14t12 -36q0 -1 7 -1q8 0 8 1z" />
    <glyph glyph-name="fraction" unicode="&#x2215;" horiz-adv-x="493" 
d="M430 724q1 1 -6 5t-8 2l-452 -749q-1 -2 5 -6t7 -2z" />
    <glyph glyph-name="radical" unicode="&#x221a;" horiz-adv-x="803" 
d="M858 739q1 2 -3.5 4t-5.5 0q-4 -4 -8 -7t-13.5 -5t-28 -3t-51.5 -1q-17 6 -35.5 10.5t-47.5 4.5q-36 0 -69.5 -14t-64.5 -40q-17 25 -44 39.5t-66 14.5q-41 0 -79 -18.5t-71.5 -51.5t-60 -79.5t-44.5 -102.5q-6 -14 -9.5 -27t-9.5 -32h-102q-2 0 -4.5 -7t-2.5 -8h103
q-16 -57 -32.5 -124.5t-33 -136.5t-33 -134t-32.5 -116q-20 -60 -34 -99t-27 -62.5t-27 -33t-33 -9.5q-16 0 -27.5 9.5t-11.5 26.5q0 14 10.5 29.5t10.5 34.5q0 17 -11 28t-36 11q-22 0 -37.5 -15.5t-15.5 -44.5q0 -20 9.5 -37.5t25.5 -30.5t36.5 -20t42.5 -7q31 0 57.5 10
t50.5 29q17 -20 40 -29.5t60 -9.5q36 0 74.5 19t73.5 53.5t64 81t46 102.5q13 41 31 98.5t38 121t39.5 130t35.5 125.5h152l-92 -295q-20 -63 -1 -96t67 -33q40 0 80 25t67 76l-17 6q-19 -34 -40.5 -52.5t-45.5 -18.5q-14 0 -19.5 9t0.5 27zM741 711l-87 -280h-154
q1 4 4.5 15.5t7 23.5t6.5 22.5t4 14.5q22 69 40.5 112t36 66.5t35 32t37.5 8.5q21 0 38 -4t32 -11zM518 674q-35 -33 -62.5 -80t-45.5 -104q-6 -14 -9.5 -27t-9.5 -32h-135q1 4 4 15.5t7 23.5t7 22.5t4 14.5q22 69 40.5 112t36 66.5t35 32t37.5 8.5q31 0 54 -14.5t37 -37.5z
M386 416q-16 -57 -35 -124t-38 -134.5t-37.5 -131.5t-34.5 -115q-22 -69 -41 -110.5t-37.5 -63t-37.5 -28.5t-41 -7q-24 0 -42.5 7.5t-35.5 25.5q37 34 65.5 88t51.5 121q13 41 28.5 98t32.5 120t34 129t33 125h135z" />
    <glyph glyph-name="approxequal" unicode="&#x2248;" horiz-adv-x="801" 
d="M811 623q0 30 -12.5 52t-32.5 37t-46.5 22.5t-54.5 7.5q-36 0 -69.5 -14t-64.5 -40q-17 25 -44 39.5t-67 14.5t-78 -18.5t-71.5 -51.5t-60.5 -79.5t-45 -102.5q-5 -14 -8.5 -27t-10.5 -32h-101q-2 0 -5.5 -7.5t-1.5 -7.5h104q-16 -57 -32.5 -124.5t-33.5 -136.5
t-33.5 -134t-32.5 -116q-20 -60 -34 -99t-27 -62.5t-27 -33t-33 -9.5q-16 0 -27.5 9.5t-11.5 26.5q0 14 10.5 29.5t10.5 34.5q0 17 -11 28t-36 11q-22 0 -37.5 -15.5t-15.5 -44.5q0 -20 9.5 -37.5t25.5 -30.5t36.5 -20t42.5 -7q60 0 108 39q18 -20 40.5 -29.5t60.5 -9.5
q36 0 74.5 19t73.5 53.5t63.5 81t46.5 102.5q13 41 31 98.5t37.5 121t39 130t35.5 125.5h153q-1 -7 -9 -31.5t-19.5 -57t-24 -70t-23.5 -70t-18 -56.5t-7 -31q-12 -51 9 -79.5t66 -28.5q39 0 79 25t67 76l-17 6q-18 -34 -40 -52.5t-45 -18.5q-15 0 -22 9.5t-2 29.5
q0 5 8.5 31.5t21 65t28 83t29.5 85t24.5 71.5t14.5 42q0 2 -4.5 4t-6.5 0q-10 -10 -39 -14t-74 -4h-144q1 4 4 15.5t7 23.5t7 22.5t4 14.5q22 69 40.5 112t35.5 66.5t35 32t38 8.5q32 0 50 -13.5t18 -34.5q0 -14 -5 -23t-11 -16.5t-11 -17t-5 -25.5q0 -41 45 -41
q22 0 40.5 19t18.5 49zM517 674q-34 -33 -61.5 -79.5t-45.5 -104.5q-6 -14 -9.5 -27t-9.5 -32h-135q1 4 4.5 15.5t7 23.5t6.5 22.5t4 14.5q22 69 40.5 112t36 66.5t35 32t37.5 8.5q30 0 53.5 -14.5t36.5 -37.5zM386 416q-16 -57 -34.5 -124t-38 -134.5t-38 -131.5
t-34.5 -115q-22 -69 -41 -110.5t-37.5 -63t-37.5 -28.5t-40 -7q-24 0 -43 7.5t-36 25.5q38 34 66 88t51 121q13 41 28.5 98t32.5 120t34 129t33 125h135z" />
    <glyph glyph-name="apple" unicode="&#xf8ff;" horiz-adv-x="967" 
d="M867 0v750h-767v-750h767zM820 520q0 -1 -1 -1v0q-4 0 -6 0.5t-7 0.5t-7 -0.5t-7 -0.5q-1 0 -1 1v1v1q7 1 7 5q0 3 -1 4l-3 15h-25l4 -15q0 -4 1 -5.5t8 -3.5v-2v-1q-4 0 -5.5 0.5t-6.5 0.5t-7.5 -0.5t-7.5 -0.5q-1 0 -1 1v1v1q8 1 8 5q0 3 -1 4l-7 33l-3 6t-8 3v2v1
q4 0 6.5 -0.5t6.5 -0.5q5 0 7 0.5t7 0.5q1 0 1 -2v-1q-7 -1 -7 -5v-4l4 -14h25l-3 14l-3 6t-6 3q-1 0 -1 2v1q4 0 6 -0.5t7 -0.5q4 0 7 0.5t7 0.5q2 0 2 -2q0 -1 -1 -1q-8 -1 -8 -5q0 -3 1 -4l8 -33q1 -4 2 -5.5t7 -3.5q2 0 2 -2zM559 686h-2q-3 9 -11 9q-3 0 -3 -3v-22
q0 -5 5 -6q1 0 1 -1t-1 -1h-8h-9q-1 0 -1 1t1 1q5 1 5 6v22q0 3 -3 3q-5 0 -6 -2t-3 -7h-1h-1q1 4 1.5 6.5t0.5 5.5q2 -1 4 -1h12h11t4 1q2 -3 2 -6q0 -2 2 -6zM694 540q0 -12 -7.5 -17t-14.5 -5q-14 0 -25 11t-11 27q0 12 7.5 17t14.5 5q14 0 25 -11.5t11 -26.5zM503 662
h-9h-9v1v1q5 1 5 6v9h-17v-9q0 -5 5 -6v-1v-1h-9h-8q-1 0 -1 1t1 1q5 1 5 6v19q0 6 -5 6q-1 0 -1 1t1 1h8h9v-1v-1q-5 0 -5 -6v-8h17v8q0 6 -5 6v1v1h9h9v-1v-1q-5 0 -5.5 -1.5t-0.5 -4.5v-19q0 -3 0.5 -4t5.5 -2v-1v-1zM825 378h-36v28h-11v-65h14v-33h-81v33h14v65h-11
v-28h-36v62h147v-62zM587 536q0 -8 -6.5 -13t-17.5 -5q-16 0 -16 13q0 10 9 10q7 0 7 -5t-4 -5q-2 0 -3 1t-2 1q-3 0 -3 -3q0 -9 12 -9t12 14q0 10 -6 15q-5 -5 -11 -5q-8 0 -8 6t8 6h8q2 2 2 6q0 12 -10 12q-7 0 -7 -6q0 -2 1.5 -2.5t1.5 -3.5t-4 -3q-5 0 -5 6q0 5 3.5 8.5
t9.5 3.5q9 0 14.5 -5t5.5 -10t-4 -9q13 -7 13 -18zM826 619h-685v4h685v-4zM439 663q0 -1 -1 -1v0h-16h-12q-1 3 -2 5.5t-2 5.5v0q0 1 1 1q4 -9 12 -9h3q4 0 4 3v12h-4q-6 0 -6 -6v-1h-1h-1v1v6v6q0 1 1 1t1 -1q0 -5 6 -5h4v10q0 4 -4 4h-3q-6 0 -9 -8v-1q-1 0 -1.5 0.5
l-0.5 0.5q2 4 2 10h12h16v0q1 0 1 -1t-1 -1v0q-5 0 -5 -6v-19q0 -5 5 -6v0q1 0 1 -1zM497 520v-1q-5 0 -7 0.5t-7 0.5q-4 0 -7 -0.5t-7 -0.5q-1 0 -1.5 1l-0.5 1v1h1q8 1 8 5q0 3 -1 4l-3 16h-5q-9 0 -8 -11h-1h-2q-1 4 -1 6q0 3 -1 6q-1 4 -1.5 5.5t-1.5 5.5v1h1q2 0 2 -1
q2 -6 4.5 -7.5t7.5 -1.5h4l-3 16q-1 6 -6 6h-4q-13 0 -14 -13q0 -1 -1 -1q-2 0 -2 1q0 3 0.5 5.5t0.5 4.5q0 5 -1 7q5 0 10 -0.5t10 -0.5t13.5 0.5t11.5 0.5l0.5 -0.5t0.5 -1.5t-1 -1q-7 -1 -7 -5q0 -3 1 -4l7 -33q2 -4 3 -5.5t7 -3.5q1 0 1 -2zM823 173q0 -1 -0.5 -1.5
l-0.5 -0.5q-4 0 -6 0.5t-7 0.5t-7.5 -0.5t-7.5 -0.5q-1 0 -1 1v1v2q8 1 8 5q0 1 -0.5 1.5t-0.5 2.5l-3 15h-5q-9 0 -8 -11h-1h-1q-2 4 -2 7t-1 5q-1 4 -1.5 5.5t-1.5 6.5h2h1q2 -7 4.5 -8t7.5 -1h5l-4 15q-1 6 -6 6h-4q-11 0 -14 -13v-1h-1t-1.5 0.5t0.5 0.5v11v6h19h25
q2 0 2 -2l-1 -1q-8 -1 -8 -5v-4l9 -32q1 -5 2 -6.5t7 -2.5q1 0 1.5 -1zM826 476h-685v4h685v-4zM644 406h-14l-37 -45v-20h15v-33h-81v33h14v19l-37 46h-12v34h62v-34h-10l15 -23l15 23h-11v34h81v-34zM399 521q0 -3 -4 -3q-7 0 -12 7q-8 0 -11 -6t-16 -6t-13 11q0 6 5 6
t5 -4q0 -2 -1 -2.5t-1 -2.5q0 -4 5 -4q7 0 8.5 6.5t12.5 6.5q-5 6 -7 14t-3 14.5t-2.5 11.5t-6.5 5t-5 -6t-4 -6q-5 0 -5 5q0 3 4 6.5t9 3.5q10 0 14.5 -6t6.5 -13.5t3.5 -16t4.5 -12.5q7 -1 10 -4t3 -5zM725 192q0 -12 -7.5 -17t-14.5 -5q-13 0 -24 11.5t-11 26.5
q0 12 7 17t14 5q14 0 25 -11.5t11 -26.5zM292 536q0 -8 -6 -13t-17 -5q-17 0 -17 13q0 10 9 10q8 0 8 -5t-5 -5q-2 0 -3 1t-2 1q-2 0 -2 -3q0 -9 12 -9q5 0 8.5 3t3.5 11q0 9 -6 15q-5 -5 -12 -5t-7 6t7 6h9q0 1 0.5 2t0.5 4q0 12 -10 12q-6 0 -6 -6q0 -2 1.5 -2.5t1.5 -3.5
t-5 -3t-5 6q0 5 4 8.5t9 3.5q9 0 14.5 -5t5.5 -10t-4 -9q13 -7 13 -18zM620 225q-9 -1 -9 -5q0 -1 0.5 -1.5t0.5 -2.5l5 -22q2 -6 2 -8q0 -5 -4.5 -10.5t-16.5 -5.5q-14 0 -19 9t-7 17l-5 20q-1 5 -2.5 6.5t-8.5 2.5q-1 0 -1 1v1v1h11h12v-1v-2q-8 -1 -8 -5q0 -1 0.5 -1.5
t0.5 -2.5l4 -19q2 -9 7 -15.5t13 -6.5q13 0 13 10q0 2 -2 10l-5 21q-1 5 -2 6.5t-8 2.5q-1 0 -1 1v1v1h14h15q1 0 1 -2v-1zM455 308h-81v33h15v19h-30q-22 0 -34.5 11.5t-12.5 28.5t12.5 28.5t34.5 11.5h96v-34h-14v-65h14v-33zM826 272h-685v4h685v-4zM694 47h-8h-6
q-1 0 -1 1v0q0 1 1 1q5 0 5 5l-1 19l-25 -27h-1h-2v28q0 2 -0.5 3.5t-5.5 1.5v2v1q2 0 3.5 -0.5t3.5 -0.5t4 0.5t4 0.5v-1v-2q-5 0 -5.5 -1.5t-0.5 -3.5v-17l24 25q2 0 2.5 -0.5t2.5 -0.5t2.5 0.5t2.5 0.5v-1v-2q-6 0 -6 -5l1 -20q0 -5 6 -5v-1v-1zM203 520q0 -1 -1 -1
q-4 0 -6.5 0.5t-6.5 0.5q-5 0 -8 -0.5t-7 -0.5q-1 0 -1 1v1v1q8 1 8 5v4l-4 14q-4 0 -5 -3l-12 -23q-6 0 -10.5 -0.5t-7.5 -0.5q-2 0 -2 1q0 2 1 2q9 1 14 9l8 16q-7 2 -13 6.5t-6 10.5q0 13 20 13q5 0 7.5 -0.5t6.5 -0.5t6 0.5t7 0.5v-2v-1q-8 -1 -8 -5q0 -3 1 -4l7 -33
q2 -4 3 -5.5t8 -3.5l0.5 -0.5t0.5 -1.5zM522 173q0 -2 -1 -2q-2 0 -4 0.5t-5 0.5q-4 0 -7 -0.5t-5 -0.5l-1 2q0 2 1 2q8 1 6 9l-5 30l-31 -44h-2q-1 0 -1 1l-8 45q-2 8 -10 9v2v1q3 0 5 -0.5t5 -0.5q4 0 6.5 0.5t4.5 0.5t2 -2v-1h-1q-9 -1 -7 -9l4 -28l30 40h9h5q2 0 2 -2
v-1h-1q-9 -1 -9 -6q0 -2 1 -3l7 -32q0 -8 9 -9zM632 46q-3 1 -8 1h-9q-8 0 -12 -1q-1 7 -4 11q0 1 1 1h1q3 -9 12 -9h2q4 0 4 4v11h-4q-2 0 -3.5 -0.5t-2.5 -5.5h-1v6v7v1q1 0 1 -1v0q1 -5 6 -5h4v9q0 4 -4 4h-2q-8 0 -10 -7q0 -1 -1 -1v1q0 3 0.5 5t1.5 5q3 0 5.5 -0.5
t6.5 -0.5q3 0 8 0.5t8 0.5v-1v-2q-5 0 -5.5 -1.5t-0.5 -3.5v-20q0 -2 0.5 -3.5t5.5 -1.5v-1v-2zM582 81q0 -2 -1 -2q-2 0 -6 -6l-12 -27h-1l-9 15l-7 -15h-1h-1l-12 27q-2 3 -2.5 4.5t-3.5 1.5v2v1q2 0 2.5 -0.5t2.5 -0.5t3 0.5t3 0.5q1 0 1 -1v0q0 -2 -1 -2q-2 0 -2 -3v-3
l8 -18l7 13l-3 5q-3 6 -7 6q-1 0 -1 2v1q2 0 3.5 -0.5t3.5 -0.5t2.5 0.5t2.5 0.5q3 0 4 -0.5t3 -0.5q3 0 3.5 0.5t3.5 0.5l1 -1q0 -1 -0.5 -1.5l-0.5 -0.5q-5 0 -6 -6l-5 -9l6 -9l9 19v2q0 3 -2 3v2v1q3 0 4.5 -0.5t3.5 -0.5t3 0.5t4 0.5v-1zM826 128h-685v4h685v-4z
M277 308h-141v61h41v-28h33v21h-24v24h24v20h-33v-28h-41v62h141v-34h-14v-65h14v-33zM413 171q-3 1 -8 1h-9h-15q-13 0 -24 9t-11 25q0 11 8 17t17 6q3 0 6.5 -0.5t8.5 -0.5h15v-2v-1q-7 -1 -7 -5v-4l8 -32q1 -5 2 -6.5t8 -2.5q1 0 1 -1v-1v-2zM479 81v-2q-5 0 -7 -5
l-8 -12v-8q0 -5 5 -5q1 0 1 -1v0q0 -2 -1 -2q-2 0 -4 0.5t-4 0.5q-4 0 -5.5 -0.5t-3.5 -0.5v2v1q5 0 5 5v8l-8 12q-4 5 -8 5v2v1q2 0 3 -0.5t3 -0.5t4 0.5t4 0.5v-1v-2q-4 0 -4 -3v-1l1 -1l6 -9l6 9q1 1 1 3t-2 2q-1 0 -1 2v0q0 1 1 1q2 0 3.5 -0.5t4.5 -0.5t4.5 0.5
t3.5 0.5v-1zM306 173q0 -1 -0.5 -1.5l-0.5 -0.5q-4 0 -6 0.5t-7 0.5t-7.5 -0.5t-7.5 -0.5l-1 2q0 2 1 2q7 1 7 5v4l-3 13q-4 0 -6 -3l-12 -22q-6 0 -10 -0.5t-8 -1.5h-1v2q0 1 1 1q9 3 12 10l9 16q-7 1 -12.5 6t-5.5 11q0 12 19 12h14h12q2 0 2 -2v-1h-1q-7 -1 -7 -5v-4
l8 -32q1 -5 2 -6.5t8 -2.5zM424 64q0 -8 -5.5 -13t-14.5 -5t-14 5t-5 13t5 13t14 5t14.5 -5t5.5 -13zM364 48q0 -2 -1 -2q-2 0 -3.5 0.5t-5.5 0.5q-3 0 -4.5 -0.5t-3.5 -0.5q-1 0 -1 2v0q0 1 1 1q5 0 5 5v9q-3 0 -4 -1t-3 -4l-6 -11h-6h-6v1v1q5 0 7 4l8 11q-8 3 -8 9
q0 9 12 9q3 0 4.5 -0.5t4.5 -0.5t5 0.5t4 0.5q1 0 1 -1v0q0 -2 -1 -2q-5 0 -5 -5v-20q0 -5 5 -5q1 0 1 -1v0zM202 215h-2l-4.5 4.5t-7.5 2.5q-9 0 -9 -13q0 -8 3 -17l2 -8q1 -5 2 -6.5t8 -2.5l1 -2q0 -1 -0.5 -1.5l-0.5 -0.5q-4 0 -6 0.5t-6 0.5q-5 0 -7.5 -0.5t-7.5 -0.5
q-1 0 -1 1v1v2q7 1 7 5v4l-1 6q-4 14 -9 23.5t-15 9.5q-8 0 -8 -6h-3v1q0 5 2 8.5t7 3.5q8 0 14.5 -6.5t9.5 -16.5v5q0 18 14 18q8 0 11.5 -4t6.5 -9q2 0 0 -2zM308 46q-2 0 -4 0.5t-5 0.5t-4.5 -0.5t-4.5 -0.5v2v1q5 0 5.5 1.5t0.5 3.5v9q-2 0 -4 -2l-7 -8q-1 -1 -1 -2
q0 -2 3 -2v-1v-2q-3 0 -5.5 0.5t-4.5 0.5q-3 0 -4.5 -0.5t-3.5 -0.5q-1 0 -1 2l1 1q3 0 7 4l13 13l-9 9l-3 3t-5 1v2v1q2 0 3 -0.5t3 -0.5t3.5 0.5t3.5 0.5v-1v-2q-3 0 -3 -1t2 -3l8 -8q1 -3 4 -3v10q0 2 -0.5 3.5t-5.5 1.5v2v1q3 0 4.5 -0.5t4.5 -0.5t5 0.5t4 0.5v-1v-2
q-6 0 -6 -5v-20q0 -5 6 -5v-1v-2zM683 535q0 16 -7.5 28t-16.5 12q-12 0 -12 -15t7.5 -27t16.5 -12q12 0 12 14zM565 553q-2 1 -7 1q-4 0 -4 -3q0 -2 4 -2t7 4zM713 188q0 15 -6.5 27t-17.5 12q-10 0 -10 -14q0 -16 6.5 -28t17.5 -12q10 0 10 15zM270 553q-2 1 -7 1
q-3 0 -3 -3q0 -2 3 -2q4 0 7 4zM389 384v22h-11q-13 0 -13 -11t13 -11h11zM176 548l-3 18q-2 6 -9 6q-8 0 -8 -9q0 -5 3 -10t12 -5h5zM554 77q0 2 -3 2q-2 0 -2 -3l0.5 -1.5t1.5 -3.5q3 4 3 6zM392 182l-9 36q-2 5 -3 5.5t-3 0.5l-6 1q-14 0 -14 -18q0 -12 7.5 -21.5
t18.5 -9.5h5q2 0 3 0.5t1 5.5zM280 201l-5 17q0 7 -7 7q-8 0 -8 -10q0 -5 3 -9.5t12 -4.5h5zM416 64q0 7 -2.5 12t-9.5 5q-6 0 -9 -5t-3 -12q0 -16 12 -16t12 16zM351 65v10q0 4 -4 4q-7 0 -7 -6q0 -8 8 -8h3z" />
    <glyph glyph-name="fi" unicode="&#xfb01;" horiz-adv-x="556" 
d="M566 624q0 29 -12.5 51t-32.5 37t-46.5 22.5t-54.5 7.5q-41 0 -79 -18.5t-71.5 -51.5t-60 -79t-44.5 -102q-5 -14 -9 -27.5t-10 -32.5h-102q-2 0 -5 -7.5t-1 -7.5h103q-16 -57 -32.5 -124.5t-33 -136.5t-33.5 -134t-33 -116q-19 -60 -33.5 -99t-27.5 -62.5t-27 -33
t-33 -9.5q-15 0 -26.5 9.5t-11.5 26.5q0 14 10.5 29.5t10.5 34.5q0 17 -11.5 28t-35.5 11q-22 0 -37.5 -15.5t-15.5 -44.5q0 -20 9.5 -37.5t25.5 -30.5t36.5 -20t42.5 -7q43 0 78 19t64.5 53.5t53 82t42.5 104.5q13 41 28.5 98t32 120t33.5 129t33 125h153q-1 -7 -9 -31.5
t-19 -57t-23.5 -70t-23.5 -70t-18 -56.5t-7 -31q-13 -51 8 -79.5t67 -28.5q38 0 78.5 25t67.5 76l-17 6q-19 -34 -40.5 -52.5t-45.5 -18.5q-30 0 -24 39q0 5 8.5 31.5t21 65t28 83t29.5 85t24.5 71.5t14.5 42q1 2 -3.5 4t-6.5 0q-10 -10 -39 -14t-75 -4h-144q1 4 4.5 15.5
t7 24t7 23t4.5 14.5q22 69 40.5 111.5t35.5 66t35 32t38 8.5q32 0 50 -13.5t18 -34.5q0 -14 -5 -22.5t-11 -16.5t-11 -17.5t-5 -25.5q0 -41 45 -41q22 0 40 19.5t18 49.5z" />
    <glyph glyph-name="fl" unicode="&#xfb02;" horiz-adv-x="559" 
d="M614 739q1 2 -3.5 4t-6.5 0q-4 -4 -8 -6.5t-13.5 -4.5t-28 -3t-51.5 -1q-17 6 -35.5 10t-47.5 4q-40 0 -78 -18.5t-71.5 -51.5t-60.5 -79.5t-45 -101.5q-5 -14 -9 -27.5t-10 -32.5h-102q-2 0 -5 -7.5t-1 -7.5h104q-16 -57 -32.5 -124.5t-33.5 -136.5t-34 -134t-33 -116
q-19 -60 -33 -99t-27 -62.5t-27 -33t-33 -9.5q-16 0 -27.5 9.5t-11.5 26.5q0 14 10.5 29.5t10.5 34.5q0 17 -11 28t-36 11q-22 0 -37.5 -15.5t-15.5 -44.5q0 -20 9.5 -37.5t25.5 -30.5t36.5 -20t42.5 -7q43 0 78 19t64.5 53.5t53 82t42.5 104.5q13 41 28.5 98t32.5 120
t34 129t33 125h153l-92 -295q-20 -63 -1 -96t67 -33q38 0 78.5 25t67.5 76l-17 6q-19 -34 -40.5 -52.5t-45.5 -18.5q-14 0 -19.5 9t0.5 27zM496 711l-87 -280h-153q1 4 4 15.5t7 24t7 23t4 14.5q22 69 40.5 111.5t35.5 66t34.5 32t37.5 8.5q22 0 39 -4t31 -11z" />
    </font>
</defs>
</svg>
