<?xml version="1.0" standalone="no"?>
<!DOCTYPE svg PUBLIC "-//W3C//DTD SVG 1.1//EN" "http://www.w3.org/Graphics/SVG/1.1/DTD/svg11.dtd" >
<svg xmlns="http://www.w3.org/2000/svg" xmlns:xlink="http://www.w3.org/1999/xlink" version="1.1">
<metadata>
Created by FontForge 20170731 at Tue Mar 23 07:57:08 2004
 By Aleksey,,,
Copyright (c) 1981, 1982, 1983, 1989 and 1993, Linotype Library GmbH or its affiliated Linotype-Hell companies. All rights reserved.The digitally encoded machine readable software for producing the Typefaces licensed to you is now the property of Heidelberger Druckmaschinen AG and its licensors, and may not be reproduced, used, displayed, modified, disclosed or transferred without the express written approval of Heidelberger Druckmaschinen AG.Copyright (c) 1988, 1990, 1993 Adobe Systems Incorporated. All Rights Reserved.
</metadata>
<defs>
<font id="Didot" horiz-adv-x="278" >
  <font-face 
    font-family="Didot"
    font-weight="400"
    font-stretch="normal"
    units-per-em="1000"
    panose-1="2 0 5 3 0 0 0 2 0 3"
    ascent="800"
    descent="-200"
    x-height="429"
    cap-height="712"
    bbox="-292 -299 1300 946"
    underline-thickness="50"
    underline-position="-175"
    unicode-range="U+0008-FB02"
  />
<missing-glyph horiz-adv-x="500" 
d="M442 8h-384v496h384v-496zM50 512v-512h400v512h-400z" />
    <glyph glyph-name="fi" unicode="fi" horiz-adv-x="593" 
d="M28 429h77v53q0 44 9.5 87t38.5 77q70 84 174 84q21 0 47.5 -5t49.5 -18t39 -34.5t16 -55.5q0 -19 -10.5 -35.5t-38.5 -16.5q-20 0 -33 8.5t-13 25.5q0 10 2 16t5 13t5 16t2 26q0 25 -21 35.5t-52 10.5q-38 0 -63.5 -13.5t-41 -38.5t-22.5 -59t-7 -74v-102h303v-415h77
v-14h-240v14h77v401h-217v-401h77v-14h-240v14h77v401h-77v14z" />
    <glyph glyph-name="fl" unicode="fl" horiz-adv-x="593" 
d="M37 14h77v401h-77v14h77v70q0 48 7.5 83.5t31.5 65.5q29 36 71.5 54.5t94.5 18.5h86h85v-707h77v-14h-233v14h70v693h-87q-32 0 -54.5 -10t-36.5 -32.5t-20 -51.5t-6 -57v-127h100v-14h-100v-401h70v-14h-233v14z" />
    <glyph glyph-name=".notdef" horiz-adv-x="500" 
d="M442 8h-384v496h384v-496zM50 512v-512h400v512h-400z" />
    <glyph glyph-name=".null" horiz-adv-x="0" 
 />
    <glyph glyph-name="nonmarkingreturn" 
 />
    <glyph glyph-name="controlGS" horiz-adv-x="0" 
 />
    <glyph glyph-name="controlGS" horiz-adv-x="0" 
 />
    <glyph glyph-name="controlGS" horiz-adv-x="0" 
 />
    <glyph glyph-name="space" unicode=" " 
 />
    <glyph glyph-name="exclam" unicode="!" horiz-adv-x="314" 
d="M104 42q0 22 15.5 37.5t37.5 15.5t37.5 -15.5t15.5 -37.5t-15.5 -37.5t-37.5 -15.5t-37.5 15.5t-15.5 37.5zM116 591q-1 9 -2 23l-2 28t-2 25.5t-1 15.5q0 20 13 33.5t35 13.5t35 -13.5t13 -33.5q0 -4 -1 -15.5t-2 -25.5l-2 -28t-2 -23l-31 -413h-20z" />
    <glyph glyph-name="quotedbl" unicode="&#x22;" horiz-adv-x="444" 
d="M261 661q-1 8 -1 15v16q0 17 5 27.5t20 10.5t20 -10.5t5 -27.5v-16q0 -7 -1 -15l-15 -220h-18zM135 661q-1 8 -1 15v16q0 17 5 27.5t20 10.5t20 -10.5t5 -27.5v-16q0 -7 -1 -15l-15 -220h-18z" />
    <glyph glyph-name="numbersign" unicode="#" horiz-adv-x="556" 
d="M157 255h169l72 198h-169zM64 0h-21l86 237h-133l7 18h133l72 198h-133l7 18h133l87 241h21l-87 -241h169l87 241h21l-87 -241h133l-7 -18h-133l-72 -198h133l-7 -18h-133l-86 -237h-21l86 237h-169z" />
    <glyph glyph-name="dollar" unicode="$" horiz-adv-x="667" 
d="M315 -14q-18 0 -32 1t-26.5 2.5t-25.5 4.5t-28 7q-20 6 -43 14t-40 8q-15 0 -20.5 -6t-9.5 -17h-15v215h11q16 -76 43.5 -119t59.5 -64t65 -26.5t61 -5.5v325l-58 17q-82 24 -123 66t-41 110q0 45 16 83.5t45 66t69.5 43.5t88.5 16h3v61h14v-61q30 -2 50.5 -8t36 -13
t28 -12.5t25.5 -5.5t17.5 3.5t12.5 17.5h14v-180h-12q-6 34 -19 66t-34 57t-50.5 41.5t-68.5 19.5v-283l83 -24q14 -4 42.5 -14.5t57 -31.5t50 -54.5t21.5 -84.5q0 -46 -17.5 -88.5t-50 -75t-79.5 -52t-107 -19.5v-70h-14v70zM315 713h-3q-24 0 -53 -6.5t-54 -22t-41.5 -42
t-16.5 -65.5q0 -32 12.5 -54.5t33 -38.5t46.5 -26t52 -17l24 -7v279zM329 0q53 0 87 16t54 40t28 52.5t8 52.5q0 36 -12 61t-30.5 41.5t-40.5 26.5t-42 16l-52 15v-321z" />
    <glyph glyph-name="percent" unicode="%" horiz-adv-x="778" 
d="M222 397q-35 0 -66.5 14.5t-54.5 38t-36.5 53t-13.5 60.5q0 35 16.5 65t41 52t53.5 34.5t55 12.5q28 0 58 -13t54.5 -35.5t40 -52.5t15.5 -65q0 -32 -15 -62t-38 -52.5t-52.5 -36t-57.5 -13.5zM564 -14q-35 0 -66.5 14.5t-54.5 38t-36.5 53t-13.5 60.5q0 35 16.5 65
t41 52t53.5 34.5t55 12.5q28 0 58 -13t54.5 -35.5t40 -52.5t15.5 -65q0 -32 -15 -62t-38 -52.5t-52.5 -36t-57.5 -13.5zM219 411q50 0 73 36t23 124q0 79 -26.5 110.5t-73.5 31.5q-30 0 -48 -13.5t-28.5 -35t-14 -47t-3.5 -49.5q0 -86 23.5 -121.5t74.5 -35.5zM570 727
l18 -9l-380 -732l-18 9zM561 0q50 0 73 36t23 124q0 79 -26.5 110.5t-73.5 31.5q-30 0 -48 -13.5t-28.5 -35t-14 -47t-3.5 -49.5q0 -86 23.5 -121.5t74.5 -35.5z" />
    <glyph glyph-name="ampersand" unicode="&#x26;" horiz-adv-x="778" 
d="M311 632q0 -26 14.5 -62t32.5 -72q17 10 33.5 21t29 26t20.5 35t8 47q0 34 -16.5 60t-56.5 26q-26 0 -45.5 -23t-19.5 -58zM275 448q-52 -27 -83 -62.5t-31 -93.5q0 -45 16 -94.5t42 -90.5t58.5 -67.5t65.5 -26.5q36 0 67.5 17.5t59.5 43.5zM537 154q29 49 39.5 97
t10.5 96t-4.5 76.5t-15.5 43.5t-29.5 19.5t-46.5 4.5v14h190v-14q-26 0 -42 -7t-24.5 -22t-11 -38.5t-2.5 -56.5q0 -41 -4 -73t-11 -58.5t-18 -50t-24 -46.5q26 -48 46 -75.5t46 -27.5q16 0 25.5 9t14.5 23t7 30.5t2 32.5h14q0 -42 -11 -69.5t-27.5 -44.5t-37.5 -24t-40 -7
q-21 0 -36 4.5t-26.5 14t-21.5 23.5t-22 33q-12 -12 -30 -25t-40.5 -24t-49.5 -18.5t-58 -7.5q-63 0 -106 24.5t-69.5 59t-37.5 73t-11 65.5q0 52 18.5 91t47 68.5t62.5 51.5t66 40q-11 22 -22 51.5t-11 71.5q0 34 12 60.5t31 45.5t43.5 29t49.5 10q38 0 64.5 -24t26.5 -75
q0 -30 -9.5 -52.5t-24 -39.5t-32.5 -29t-34 -21z" />
    <glyph glyph-name="quotesingle" unicode="'" 
d="M115 661q-1 8 -1 15v16q0 17 5 27.5t20 10.5t20 -10.5t5 -27.5v-16q0 -7 -1 -15l-15 -220h-18z" />
    <glyph glyph-name="parenleft" unicode="(" 
d="M235 -286q-7 9 -32 47.5t-52.5 103.5t-49.5 153.5t-22 197.5t22 197.5t49.5 153.5t52.5 103.5t32 47.5l16 -10q-83 -121 -117.5 -242.5t-34.5 -249.5t34.5 -249.5t117.5 -242.5z" />
    <glyph glyph-name="parenright" unicode=")" 
d="M43 718q7 -9 32 -47.5t52.5 -103.5t49.5 -153.5t22 -197.5t-22 -197.5t-49.5 -153.5t-52.5 -103.5t-32 -47.5l-16 10q83 121 117.5 242.5t34.5 249.5t-34.5 249.5t-117.5 242.5z" />
    <glyph glyph-name="asterisk" unicode="*" horiz-adv-x="444" 
d="M222 730q23 0 33 -14.5t10 -28.5q0 -10 -5.5 -21t-12 -27.5t-13 -41t-8.5 -61.5q33 21 52 42t32 37t23 26t26 10q21 0 31.5 -13.5t10.5 -28.5q0 -14 -6 -22.5t-15 -13.5q-7 -4 -18.5 -4.5t-29.5 -3.5t-43.5 -10.5t-60.5 -24.5q35 -17 60.5 -24.5t43.5 -10.5t29.5 -3.5
t18.5 -4.5q9 -5 15 -13.5t6 -22.5q0 -15 -10.5 -28.5t-31.5 -13.5q-16 0 -26 10t-23 26t-32 37t-52 42q2 -37 8.5 -61.5t13.5 -41t12.5 -27.5t5.5 -21q0 -14 -10 -28.5t-33 -14.5t-33 14.5t-10 28.5q0 10 5.5 21t12 27.5t13 41t8.5 61.5q-33 -21 -52 -42t-32 -37t-23 -26
t-26 -10q-21 0 -31.5 13.5t-10.5 28.5q0 14 6 22.5t15 13.5q7 4 18 4.5t29 3.5t44 10.5t61 24.5q-36 17 -61.5 24.5t-43.5 10.5t-29.5 3.5t-18.5 4.5q-9 5 -15 13.5t-6 22.5q0 15 10.5 28.5t31.5 13.5q16 0 26 -10t23 -26t32 -37t52 -42q-2 37 -8 61.5t-13 41t-12.5 27.5
t-5.5 21q0 14 10 28.5t33 14.5z" />
    <glyph glyph-name="plus" unicode="+" horiz-adv-x="593" 
d="M286 231h-230v18h230v231h20v-231h230v-18h-230v-231h-20v231z" />
    <glyph glyph-name="comma" unicode="," 
d="M89 -171q29 21 47.5 40.5t29 37t14 31.5t3.5 24q0 32 -18 52q-17 -25 -43 -25q-19 0 -37 14t-18 40q0 23 17.5 40t43.5 17q19 0 34.5 -9t26.5 -23t16.5 -33t5.5 -38q0 -29 -12 -57.5t-29 -52.5t-37 -42t-35 -28z" />
    <glyph glyph-name="hyphen" unicode="-" horiz-adv-x="370" 
d="M92 251h186v-66h-186v66z" />
    <glyph glyph-name="period" unicode="." 
d="M86 42q0 22 15.5 37.5t37.5 15.5t37.5 -15.5t15.5 -37.5t-15.5 -37.5t-37.5 -15.5t-37.5 15.5t-15.5 37.5z" />
    <glyph glyph-name="slash" unicode="/" horiz-adv-x="296" 
d="M273 718l20 -6l-270 -718l-20 6z" />
    <glyph glyph-name="zero" unicode="0" horiz-adv-x="520" 
d="M126 357q0 -93 5.5 -160.5t20 -111t40.5 -64.5t68 -21t68 21t40.5 64.5t20 111t5.5 160.5t-5.5 160t-20 110.5t-40.5 64.5t-68 21t-68 -21t-40.5 -64.5t-20 -110.5t-5.5 -160zM26 357q0 60 9.5 125.5t35.5 120t71.5 89.5t117.5 35t117.5 -35t71.5 -89.5t35.5 -120
t9.5 -125.5q0 -61 -9.5 -126.5t-35.5 -120t-71.5 -89.5t-117.5 -35t-117.5 35t-71.5 89.5t-35.5 120t-9.5 126.5z" />
    <glyph glyph-name="one" unicode="1" horiz-adv-x="520" 
d="M124 14h111v634q-15 -11 -34 -22l-114 -65l-8 13q66 37 120 71t102 82h20v-713h111v-14h-308v14z" />
    <glyph glyph-name="two" unicode="2" horiz-adv-x="520" 
d="M469 0h-457v14q39 33 71.5 61t61 55t54.5 55t53 60q64 78 87.5 151t23.5 135q0 90 -30.5 136t-96.5 46q-51 0 -84 -22.5t-33 -62.5q0 -14 6.5 -28.5t6.5 -29.5q0 -17 -12 -25.5t-28 -8.5q-21 0 -36 11t-15 40q0 26 15 51.5t41 45t62 31.5t77 12q58 0 99.5 -17t68.5 -44.5
t40 -62.5t13 -72q0 -45 -13 -83.5t-35.5 -72.5t-51.5 -65t-61 -62q-45 -45 -88.5 -86t-95.5 -88h229q59 0 85 28.5t32 78.5h11v-181z" />
    <glyph glyph-name="three" unicode="3" horiz-adv-x="520" 
d="M108 372l16 8t18.5 8t25 8.5t34.5 9.5q44 12 73 30t45.5 42t23 53t6.5 63q0 24 -5 45.5t-17 38t-31.5 26t-49.5 9.5q-33 0 -54 -8.5t-32.5 -20t-15.5 -23t-4 -18.5q0 -27 8.5 -41t8.5 -25q0 -18 -12.5 -25t-29.5 -7q-44 0 -44 43q0 13 8.5 36.5t29.5 46.5t56.5 39.5
t88.5 16.5q48 0 83.5 -15t58.5 -37.5t34 -49t11 -50.5q0 -42 -24.5 -72t-57 -50t-65.5 -31t-50 -14v-2q43 -2 83 -17t71 -41.5t49 -62.5t18 -81q0 -40 -17.5 -79t-49 -70t-76 -50t-98.5 -19q-50 0 -85 13.5t-58 36t-36 50t-18 56.5l14 3q2 -14 10 -38t27.5 -48t54 -41.5
t89.5 -17.5q31 0 58 9t46.5 33t30.5 65.5t11 106.5q0 33 -5 65.5t-20 58t-41 41.5t-68 16q-35 0 -64 -10.5t-54 -28.5z" />
    <glyph glyph-name="four" unicode="4" horiz-adv-x="520" 
d="M227 14h89v161h-285q37 80 70.5 147t61 117.5t47 83.5t27.5 45q36 57 58.5 88.5t38.5 47.5t27.5 19.5t26.5 3.5q26 0 33.5 -7.5t7.5 -16.5q0 -5 -5.5 -12t-27.5 -28q-23 -22 -42.5 -42t-36.5 -39.5t-33.5 -39t-33.5 -39.5q-60 -71 -107.5 -153.5t-89.5 -157.5h263v267h86
v-267h89v-17h-89v-161h89v-14h-264v14z" />
    <glyph glyph-name="five" unicode="5" horiz-adv-x="520" 
d="M120 727h33q15 -15 30.5 -30t34 -27t41.5 -19t53 -7q20 0 37 3.5t33 13t32.5 25.5t36.5 41l11 -7q-27 -37 -49 -65t-43.5 -46.5t-45.5 -27.5t-55 -9q-18 0 -33.5 2.5t-33 8.5t-37.5 14.5t-46 20.5l-38 -243l2 -2q23 33 63 52t94 19t95.5 -18.5t69.5 -48.5t42 -68.5
t14 -78.5q0 -30 -11.5 -71.5t-39 -80t-74.5 -65.5t-118 -27q-53 0 -86.5 13.5t-53.5 32t-27.5 38t-7.5 32.5q0 23 15.5 32.5t35.5 9.5q21 0 33.5 -10t12.5 -30q0 -7 -0.5 -16t-0.5 -15q0 -45 25 -59t67 -14q33 0 57.5 11t41.5 39t25.5 75.5t8.5 120.5q0 42 -6 76t-20.5 58
t-39.5 37t-64 13q-45 0 -75 -13.5t-49 -32.5t-28.5 -40t-13.5 -36l-11 3z" />
    <glyph glyph-name="six" unicode="6" horiz-adv-x="520" 
d="M388 222q0 63 -9.5 103t-22.5 60t-35.5 32.5t-54.5 12.5q-50 0 -80.5 -21.5t-44.5 -46.5q-9 -17 -12 -37t-3 -45q0 -77 5.5 -128.5t25.5 -94.5q11 -25 35.5 -41t70.5 -16q39 0 63 15.5t37 42.5q14 29 19.5 66.5t5.5 97.5zM488 219q0 -45 -18 -87t-48.5 -74.5t-71.5 -52
t-87 -19.5q-45 0 -86.5 17t-73.5 54.5t-51.5 97.5t-19.5 146q0 89 22.5 166.5t62.5 135.5t93.5 91t116.5 33q38 0 63.5 -11.5t41 -29t22 -38t6.5 -38.5q0 -22 -14.5 -37t-39.5 -15q-46 0 -46 34q0 9 3.5 16t8 15t8.5 18t4 25q0 26 -17 36.5t-46 10.5q-38 0 -67 -18
t-50 -47.5t-35 -67t-23 -76t-14.5 -74.5t-9.5 -63l2 -2q20 36 58.5 57.5t85.5 21.5q54 0 95 -20.5t68.5 -53t42 -72.5t14.5 -79z" />
    <glyph glyph-name="seven" unicode="7" horiz-adv-x="520" 
d="M68 712h389q-5 -87 -26 -175t-46 -163t-48 -128.5t-31 -70.5q-32 -69 -54 -107.5t-38.5 -56.5t-30 -21.5t-27.5 -3.5t-30 8t-16 25q0 19 12.5 30.5t30.5 29.5q43 42 72 75.5t50 64t37 60.5t33 65q26 54 43 103t26.5 87.5t13.5 64t5 33.5h-247q-51 0 -76 -28.5t-31 -76.5
h-11v185z" />
    <glyph glyph-name="eight" unicode="8" horiz-adv-x="520" 
d="M139 580q0 -32 9.5 -55t27.5 -40q7 -7 21 -16t31 -18.5t36.5 -19t38.5 -18.5q12 7 24.5 18.5t23.5 29t18 41.5t7 55q0 30 -4 58t-15 50t-32.5 35t-55.5 13q-60 0 -95 -37t-35 -96zM120 167q0 -33 7.5 -63t24 -53.5t43 -37t64.5 -13.5q33 0 59 16.5t45 41t29 54.5t10 57
q0 43 -15.5 71.5t-41 49t-58 36.5t-65.5 33q-33 -16 -53 -36.5t-31 -44.5t-14.5 -52t-3.5 -59zM38 174q0 43 18.5 75t45 55t56 38t50.5 24q-29 13 -54.5 28.5t-44 36t-29 48.5t-10.5 68q0 39 17.5 72t45.5 57t63.5 37.5t72.5 13.5q34 0 67 -10.5t58.5 -30t41 -47t15.5 -61.5
q0 -32 -11 -56.5t-30 -45t-43 -37.5t-50 -33q29 -14 58.5 -31.5t53 -41.5t38.5 -55t15 -70q0 -44 -16 -84t-46.5 -70.5t-74 -49t-98.5 -18.5q-44 0 -82.5 14t-66.5 39t-44 59.5t-16 75.5z" />
    <glyph glyph-name="nine" unicode="9" horiz-adv-x="520" 
d="M124 495q0 -40 3.5 -78t16 -68t37.5 -48.5t68 -18.5q11 0 33.5 4.5t45.5 19.5t40 44.5t17 79.5q0 29 -2 63.5t-6 67t-10.5 60t-16.5 43.5q-9 16 -30 32.5t-67 16.5q-39 0 -64 -15t-39.5 -43t-20 -68.5t-5.5 -91.5zM24 494q0 48 20.5 90.5t53 74t73 50t81.5 18.5t81.5 -15
t73 -52.5t52.5 -101t20 -160.5q0 -92 -14 -158.5t-36.5 -112.5t-51 -73.5t-57.5 -42.5t-55.5 -20t-45.5 -5q-30 0 -60 8.5t-54 23.5t-38.5 37t-14.5 49q0 34 17 46.5t39 12.5q24 0 34 -11.5t10 -23.5q0 -8 -4 -15t-8.5 -15t-8 -18.5t-3.5 -25.5q0 -23 21.5 -38.5t64.5 -15.5
q40 0 71.5 16.5t53.5 56.5t33.5 107t11.5 168h-2q-5 -10 -15.5 -23.5t-27.5 -26t-41 -21.5t-56 -9q-51 0 -91.5 20.5t-68.5 53t-43 73t-15 79.5z" />
    <glyph glyph-name="colon" unicode=":" 
d="M86 387q0 22 15.5 37.5t37.5 15.5t37.5 -15.5t15.5 -37.5t-15.5 -37.5t-37.5 -15.5t-37.5 15.5t-15.5 37.5zM86 42q0 22 15.5 37.5t37.5 15.5t37.5 -15.5t15.5 -37.5t-15.5 -37.5t-37.5 -15.5t-37.5 15.5t-15.5 37.5z" />
    <glyph glyph-name="semicolon" unicode=";" 
d="M86 387q0 22 15.5 37.5t37.5 15.5t37.5 -15.5t15.5 -37.5t-15.5 -37.5t-37.5 -15.5t-37.5 15.5t-15.5 37.5zM67 43q0 23 17.5 40t43.5 17q19 0 34.5 -9t26.5 -23t16.5 -33t5.5 -38q0 -29 -12 -57.5t-29 -52.5t-37 -42t-35 -28l-9 12q29 21 47.5 40.5t29 37t14 31.5
t3.5 24q0 32 -18 52q-17 -25 -43 -25q-19 0 -37 14t-18 40z" />
    <glyph glyph-name="less" unicode="&#x3c;" horiz-adv-x="593" 
d="M580 0l-568 236v8l568 236v-20l-535 -220l535 -220v-20z" />
    <glyph glyph-name="equal" unicode="=" horiz-adv-x="593" 
d="M56 163h480v-18h-480v18zM56 335h480v-18h-480v18z" />
    <glyph glyph-name="greater" unicode="&#x3e;" horiz-adv-x="593" 
d="M12 480l568 -236v-8l-568 -236v20l536 220l-536 220v20z" />
    <glyph glyph-name="question" unicode="?" horiz-adv-x="407" 
d="M84 42q0 22 15.5 37.5t37.5 15.5t37.5 -15.5t15.5 -37.5t-15.5 -37.5t-37.5 -15.5t-37.5 15.5t-15.5 37.5zM130 429h16q11 -23 26 -36t41 -13q18 0 31 8t21.5 27.5t12.5 53t4 84.5q0 49 -4.5 81t-13 50t-20.5 25t-26 7q-8 0 -18.5 -2t-19.5 -6.5t-15.5 -12.5t-6.5 -19
q0 -9 3.5 -16.5t8 -15t8.5 -15.5t4 -18q0 -15 -11.5 -25t-28.5 -10q-18 0 -32 9.5t-14 31.5q0 15 7.5 35t23.5 37t40 29t57 12q57 0 92 -44.5t35 -132.5q0 -37 -7.5 -70.5t-23.5 -59.5t-41.5 -41.5t-61.5 -15.5q-27 0 -44.5 12t-26.5 22v-222h-16v251z" />
    <glyph glyph-name="at" unicode="@" horiz-adv-x="833" 
d="M534 449q0 10 -4 22t-12.5 22t-21.5 16.5t-30 6.5q-30 0 -57 -23t-48 -57.5t-33.5 -75.5t-12.5 -78q0 -15 3.5 -32.5t11.5 -32.5t22.5 -25t36.5 -10q18 0 32.5 7t25.5 17.5t19 24t14 25.5q3 7 12 29.5t18.5 51t16.5 59t7 53.5zM561 297q-6 -22 -8 -36t-2 -22q0 -18 6 -29
t14.5 -17t18 -8t17.5 -2q27 0 56 21t53 56t40 80t16 93q0 54 -20.5 104t-60 88t-97.5 60.5t-132 22.5q-85 0 -155 -32t-120.5 -84t-78.5 -118.5t-28 -135.5q0 -70 26 -130t73 -104.5t112.5 -70t143.5 -25.5q63 0 133.5 21t136.5 73l13 -18q-17 -12 -42.5 -29t-61.5 -32
t-83 -26t-105 -11q-76 0 -145.5 24.5t-123 70.5t-85 111.5t-31.5 147.5q0 80 33 151t90 124t133 84t162 31q75 0 136.5 -23t105 -63t67.5 -94t24 -116q0 -52 -17.5 -101.5t-46 -88.5t-64.5 -62.5t-74 -23.5q-30 0 -47.5 10.5t-26.5 25t-11.5 29.5t-3.5 24q-20 -45 -52 -67
t-71 -22q-30 0 -55 11.5t-43 31t-28 45.5t-10 55q0 48 20 91t50.5 76t68.5 52.5t74 19.5q4 0 18 -1t29.5 -8t29.5 -22t20 -43l19 63h58z" />
    <glyph glyph-name="A" unicode="A" horiz-adv-x="741" 
d="M324 597l-110 -291h220zM-1 14h88l270 716h24l272 -716h89v-14h-308v14h111l-105 278h-232l-105 -278h111v-14h-215v14z" />
    <glyph glyph-name="B" unicode="B" horiz-adv-x="667" 
d="M241 389h92q28 0 51 7t39.5 24.5t25.5 47.5t9 76q0 52 -13.5 83.5t-35 47.5t-48 21t-52.5 5q-18 0 -36.5 -0.5t-31.5 -2.5v-309zM241 14q12 -1 26.5 -2.5t41.5 -1.5q47 0 80.5 9t55 31.5t31.5 59.5t10 93q0 80 -34 126t-101 46h-110v-361zM30 14h111v684h-111v14h175
q15 0 30.5 0.5t31.5 1.5q16 0 31 0.5t29 0.5q73 0 120 -17.5t74 -43t37 -55t10 -53.5q0 -33 -14.5 -61t-39 -49t-56.5 -34t-67 -17v-2q36 -3 73.5 -15.5t68 -35t49.5 -55.5t19 -76q0 -45 -17 -82.5t-51 -64.5t-86 -42.5t-121 -15.5q-14 0 -27.5 0.5t-28.5 1.5t-31 1.5
t-34 0.5h-175v14z" />
    <glyph glyph-name="C" unicode="C" horiz-adv-x="722" 
d="M671 0h-15q-7 8 -16 14.5t-28 6.5q-15 0 -32.5 -5.5t-40 -12.5t-50.5 -12.5t-62 -5.5q-63 0 -122.5 23t-112.5 75q-49 49 -82 116t-33 155q0 75 27 143t75 120t113 82.5t142 30.5q31 0 55 -6t43 -13.5t35 -13.5t31 -6q20 0 28.5 6.5t15.5 14.5h15v-200h-11q-9 38 -23 75
t-39 65.5t-63.5 46t-95.5 17.5q-53 0 -91 -16.5t-64 -44t-41.5 -64t-23.5 -77t-10.5 -82t-2.5 -78.5q0 -105 17 -174t47.5 -109t73.5 -56t95 -16q67 0 108 19t66 49.5t38 69t23 76.5h11v-213z" />
    <glyph glyph-name="D" unicode="D" horiz-adv-x="815" 
d="M241 14q17 -2 39.5 -3t49.5 -1q34 0 67.5 3.5t64 15t57 33t47.5 56.5q32 54 44.5 110.5t12.5 123.5q0 79 -15 143.5t-49.5 110t-91.5 70.5t-141 25q-25 0 -45.5 -1t-39.5 -2v-684zM30 14h111v684h-111v14h186q14 0 28 0.5t28 1.5q14 0 28 0.5t28 0.5q30 0 53.5 -1
t44 -3.5t39 -7t39.5 -11.5q61 -20 105.5 -53.5t73 -77.5t42 -96t13.5 -109q0 -66 -16 -118.5t-44 -93t-65.5 -70t-80.5 -47.5q-24 -11 -45.5 -17t-44 -9t-49.5 -4t-62 -1q-15 0 -32 0.5t-34 1.5t-33.5 1.5t-31.5 0.5h-170v14z" />
    <glyph glyph-name="E" unicode="E" horiz-adv-x="704" 
d="M30 14h111v684h-111v14h572v-173h-11q-13 39 -28 68.5t-36 50t-50 30.5t-70 10h-166v-309h65q33 0 56 6t39.5 22.5t28 45t22.5 73.5h11v-311h-11q-7 29 -14.5 56t-21 48t-36 33.5t-58.5 12.5h-81v-361h189q55 0 91.5 23.5t59.5 56t34 67.5t14 58h11v-219h-610v14z" />
    <glyph glyph-name="F" unicode="F" horiz-adv-x="667" 
d="M30 14h111v684h-111v14h572v-173h-11q-13 39 -28 68.5t-36 50t-50 30.5t-70 10h-166v-324h65q33 0 56 6t39.5 22.5t28 45t22.5 73.5h11v-311h-11q-7 29 -14.5 56t-21 48t-36 33.5t-58.5 12.5h-81v-346h111v-14h-322v14z" />
    <glyph glyph-name="G" unicode="G" horiz-adv-x="796" 
d="M774 255h-80v-227h-12q-11 11 -18 15t-22 4q-18 0 -36.5 -9.5t-43 -21.5t-57.5 -21.5t-80 -9.5q-71 0 -126 23.5t-106 74.5q-50 50 -83 118t-33 153q0 57 13 102.5t31.5 79.5t38 57t32.5 36q45 45 103 73t132 28q38 0 62.5 -6t42.5 -13.5t32.5 -13.5t32.5 -6
q20 0 28.5 5.5t16.5 15.5h15v-200h-11q-4 26 -15.5 61t-36 67t-65 54t-103.5 22q-75 0 -120.5 -31.5t-71 -83t-34 -116.5t-8.5 -131q0 -45 4 -90t13.5 -85t26.5 -74t44 -58q30 -27 62 -37.5t83 -10.5q31 0 62 10.5t55.5 31.5t40 53.5t15.5 76.5v84h-129v14h305v-14z" />
    <glyph glyph-name="H" unicode="H" horiz-adv-x="815" 
d="M30 14h111v684h-111v14h322v-14h-111v-327h333v327h-111v14h322v-14h-111v-684h111v-14h-322v14h111v343h-333v-343h111v-14h-322v14z" />
    <glyph glyph-name="I" unicode="I" horiz-adv-x="388" 
d="M33 14h111v684h-111v14h322v-14h-111v-684h111v-14h-322v14z" />
    <glyph glyph-name="J" unicode="J" horiz-adv-x="463" 
d="M329 183q0 -41 -8.5 -77t-28 -63t-51.5 -42.5t-78 -15.5q-32 0 -59 7.5t-47 22t-31.5 34.5t-11.5 45q0 30 17 48.5t50 18.5q15 0 25 -5t15.5 -11.5t8 -14.5t2.5 -14q0 -11 -3 -19l-6 -16t-6 -17t-3 -23q0 -23 13.5 -32.5t36.5 -9.5q29 0 47 21.5t18 75.5v602h-111v14h322
v-14h-111v-515z" />
    <glyph glyph-name="K" unicode="K" horiz-adv-x="741" 
d="M30 14h111v684h-111v14h314v-14h-103v-318h10l302 318h-104v14h207v-14h-83l-254 -269l363 -415h66v-14h-289v14h90l-300 352h-8v-352h103v-14h-314v14z" />
    <glyph glyph-name="L" unicode="L" horiz-adv-x="685" 
d="M30 14h111v684h-111v14h322v-14h-111v-684h178q88 0 138 55t73 150h11v-219h-611v14z" />
    <glyph glyph-name="M" unicode="M" horiz-adv-x="870" 
d="M26 14h111v684h-111v14h225l185 -538h2l185 538h221v-14h-111v-684h111v-14h-322v14h111v678h-2l-239 -693l-238 686h-2v-671h111v-14h-237v14z" />
    <glyph glyph-name="N" unicode="N" horiz-adv-x="722" 
d="M21 14h111v684h-111v14h214l338 -545h2v531h-111v14h237v-14h-111v-712h-20l-421 671h-2v-643h111v-14h-237v14z" />
    <glyph glyph-name="O" unicode="O" horiz-adv-x="832" 
d="M183 357q0 -90 12 -157t40 -112t72 -67t109 -22q64 0 108.5 22t72.5 67t40 112t12 157q0 69 -9 133.5t-34.5 115t-71 80.5t-118.5 30t-118.5 -30t-71 -80.5t-34.5 -115t-9 -133.5zM68 357q0 80 31.5 148t81 118t111.5 78.5t124 28.5q66 0 128.5 -28.5t111.5 -78.5
t78.5 -118t29.5 -148q0 -70 -27 -137t-74 -119t-110.5 -84t-136.5 -32q-75 0 -139 31t-110.5 82.5t-72.5 119t-26 139.5z" />
    <glyph glyph-name="P" unicode="P" horiz-adv-x="648" 
d="M241 358q20 -4 42 -6t39 -2q74 0 115.5 43.5t41.5 131.5q0 51 -10 85t-31.5 54.5t-56 28.5t-82.5 8q-19 0 -34.5 -1t-23.5 -2v-340zM30 14h111v684h-111v14h188q14 0 28 0.5t28 1.5q14 0 27.5 0.5t27.5 0.5q57 0 105.5 -13.5t84 -38.5t55.5 -60t20 -78q0 -45 -23 -80
t-61 -59t-88.5 -37t-105.5 -13q-14 0 -36 2.5t-39 5.5v-330h111v-14h-322v14z" />
    <glyph glyph-name="Q" unicode="Q" horiz-adv-x="832" 
d="M183 357q0 -90 12 -157t40 -112t72 -67t109 -22q64 0 108.5 22t72.5 67t40 112t12 157q0 69 -9 133.5t-34.5 115t-71 80.5t-118.5 30t-118.5 -30t-71 -80.5t-34.5 -115t-9 -133.5zM736 -190q-87 1 -138.5 7t-83 19t-52 35t-45.5 56q-22 29 -47 47.5t-46 24.5
q-57 15 -104 50t-81 83t-52.5 106t-18.5 119q0 78 30.5 146t80 118.5t111.5 79.5t126 29q66 0 128.5 -28.5t111.5 -78.5t78.5 -118t29.5 -148q0 -70 -27 -137t-74 -119t-110.5 -84t-136.5 -32q-19 0 -38 3l-1 -3q15 -8 28.5 -15t29.5 -12.5t35.5 -9.5t46.5 -7
q29 -3 54.5 -21t45.5 -41q13 -15 23.5 -25.5t23 -17t29.5 -9.5t43 -3v-14z" />
    <glyph glyph-name="R" unicode="R" horiz-adv-x="722" 
d="M241 389h92q28 0 51 7t39.5 24.5t25.5 47.5t9 76q0 52 -13.5 83.5t-35 47.5t-48 21t-52.5 5q-18 0 -36.5 -0.5t-31.5 -2.5v-309zM30 14h111v684h-111v14h190q12 0 24 0.5t24 1.5q12 0 24 0.5t24 0.5q59 0 104 -6.5t84 -37.5q35 -27 49.5 -61t14.5 -64q0 -15 -5.5 -38.5
t-24 -48t-53.5 -45t-93 -27.5v-2q16 -2 43.5 -7.5t56 -18.5t52.5 -34.5t34 -55.5q6 -20 8.5 -45.5t4 -52.5t3 -52t5.5 -42q6 -26 19 -47t42 -21q13 0 27 5t25 16l9 -11q-5 -4 -11.5 -8.5t-16.5 -8.5t-24.5 -6.5t-35.5 -2.5q-40 0 -66.5 10t-42.5 29.5t-23.5 48t-10.5 66.5
l-7 91q-4 50 -20 78t-37.5 41t-44.5 15.5t-40 2.5h-100v-361h111v-14h-322v14z" />
    <glyph glyph-name="S" unicode="S" horiz-adv-x="667" 
d="M75 215h11q11 -54 28.5 -91t38.5 -61t44 -37t46.5 -19t45 -7t40.5 -1q53 0 87 16t54 40.5t28 53t8 52.5q0 35 -13 60t-33 42.5t-43.5 28.5t-44.5 17l-115 35q-81 25 -122.5 66t-41.5 110q0 45 16 83.5t45 66.5t69.5 44t88.5 16q35 0 58.5 -6t40.5 -13.5t30.5 -13.5
t27.5 -6q13 0 17.5 3.5t12.5 17.5h14v-181h-12q-6 36 -20.5 69.5t-37.5 59t-55.5 41t-75.5 15.5q-24 0 -53 -6.5t-54 -22.5t-41.5 -42t-16.5 -66q0 -32 13 -54.5t33.5 -38t46 -26t51.5 -18.5l121 -38q19 -6 48 -16t56.5 -30t47 -53t19.5 -84q0 -47 -17.5 -89.5t-50.5 -75
t-80 -52t-106 -19.5q-21 0 -37 0.5t-30 2.5t-28 4.5t-31 7.5q-20 6 -43 14t-40 8q-15 0 -20.5 -6t-9.5 -16h-15v215z" />
    <glyph glyph-name="T" unicode="T" horiz-adv-x="684" 
d="M181 14h111v684h-58q-20 0 -45 -3.5t-50.5 -19.5t-49 -50.5t-40.5 -95.5h-11v183h608v-183h-11q-17 61 -40.5 95.5t-49 50.5t-50.5 19.5t-45 3.5h-58v-684h111v-14h-322v14z" />
    <glyph glyph-name="U" unicode="U" horiz-adv-x="759" 
d="M21 712h322v-14h-111v-483q0 -60 10.5 -101.5t31.5 -67t52 -36.5t71 -11q56 0 99 16.5t74 58.5q10 13 17.5 26t13 30.5t8.5 42t3 60.5v465h-111v14h237v-14h-111v-485q0 -42 -9 -76.5t-37 -71.5q-27 -36 -75 -58t-127 -22q-120 0 -183.5 59t-63.5 181v473h-111v14z" />
    <glyph glyph-name="V" unicode="V" horiz-adv-x="722" 
d="M-12 712h309v-14h-111l222 -580l219 580h-109v14h216v-14h-90l-269 -713h-25l-272 713h-90v14z" />
    <glyph glyph-name="W" unicode="W" horiz-adv-x="1074" 
d="M-10 712h301v-14h-104l206 -580h2l133 369l-76 211h-84v14h300v-14h-109l206 -580h2l210 580h-107v14h214v-14h-90l-259 -713h-25l-172 480h-2l-174 -480h-27l-255 713h-90v14z" />
    <glyph glyph-name="X" unicode="X" horiz-adv-x="759" 
d="M28 14h96l200 334l-213 350h-83v14h298v-14h-96l160 -263l160 263h-96v14h208v-14h-96l-167 -277l249 -407h83v-14h-300v14h96l-195 320l-191 -320h96v-14h-209v14z" />
    <glyph glyph-name="Y" unicode="Y" horiz-adv-x="704" 
d="M203 14h111v287l-225 397h-91v14h306v-14h-100l200 -352l189 352h-101v14h214v-14h-97l-195 -365v-319h111v-14h-322v14z" />
    <glyph glyph-name="Z" unicode="Z" horiz-adv-x="648" 
d="M105 712h477l-419 -698h220q50 0 77 14.5t48 34.5q22 20 45 61t34 95h11v-219h-553l417 698h-155q-81 0 -126 -42.5t-65 -117.5h-11v174z" />
    <glyph glyph-name="bracketleft" unicode="[" 
d="M122 712h125v-20h-105v-952h105v-20h-125v992z" />
    <glyph glyph-name="backslash" unicode="\" horiz-adv-x="296" 
d="M293 0l-20 -6l-270 718l20 6z" />
    <glyph glyph-name="bracketright" unicode="]" 
d="M156 -280h-125v20h105v952h-105v20h125v-992z" />
    <glyph glyph-name="asciicircum" unicode="^" horiz-adv-x="593" 
d="M292 712h9l172 -407h-21l-156 369l-155 -369h-22z" />
    <glyph glyph-name="underscore" unicode="_" horiz-adv-x="500" 
d="M0 -75h500v-31h-500v31z" />
    <glyph glyph-name="grave" unicode="`" 
d="M20 674q-5 4 -11.5 10t-6.5 17q0 14 10 24.5t24 10.5t22.5 -8t28.5 -32l118 -144h-14z" />
    <glyph glyph-name="a" unicode="a" horiz-adv-x="481" 
d="M303 245h-2q-2 -13 -33 -26l-75 -30q-32 -13 -49 -36.5t-17 -58.5q0 -15 3 -31t11 -28.5t22.5 -20.5t37.5 -8q33 0 53.5 14t31 35t14 45.5t3.5 44.5v100zM478 11q-13 -10 -31 -17.5t-44 -7.5q-48 0 -69.5 20.5t-29.5 57.5h-2q-4 -9 -11 -22.5t-21.5 -26t-38.5 -21
t-61 -8.5q-42 0 -67 9.5t-39 23.5t-18.5 31.5t-4.5 32.5q0 35 14 56t36.5 33.5t50 20.5t55.5 17q33 11 54.5 19t33.5 19.5t16.5 29t4.5 47.5q0 24 -3 43t-11 32.5t-23 20.5t-40 7q-33 0 -54.5 -11.5t-21.5 -37.5q0 -17 3 -33.5t3 -24.5q0 -14 -10 -23.5t-29 -9.5
q-33 0 -41 12t-8 31q0 22 10 42t29.5 35.5t49 24.5t67.5 9q46 0 77 -11.5t50 -31t27 -44t8 -51.5v-249q0 -29 9 -39t26 -10q11 0 23 4t23 12z" />
    <glyph glyph-name="b" unicode="b" horiz-adv-x="593" 
d="M441 229q0 46 -5 82.5t-17.5 62.5t-35 40t-57.5 14q-37 0 -61 -13t-39 -33q-11 -14 -17.5 -30t-10.5 -38t-5.5 -50.5t-1.5 -67.5q0 -33 5 -68t19 -63.5t39.5 -46.5t67.5 -18q41 0 65 16t36 46t15 72.5t3 94.5zM28 14h77v693h-77v14h163v-372h2q14 39 48 66t89 27
q43 0 81 -18.5t67 -49t46 -71.5t17 -86q0 -46 -17.5 -87.5t-47.5 -73.5t-69.5 -51t-83.5 -19q-34 0 -57.5 11.5t-39 27.5t-23.5 33t-12 29h-2v-87h-161v14z" />
    <glyph glyph-name="c" unicode="c" horiz-adv-x="481" 
d="M446 110q-3 -11 -11.5 -31.5t-27 -41t-50 -36t-81.5 -15.5q-38 0 -79 12t-75 38.5t-55.5 69.5t-21.5 106q0 49 18.5 91t50 73t74 48.5t90.5 17.5q27 0 55.5 -6.5t52 -20t39 -35t15.5 -52.5q0 -21 -13.5 -34.5t-38.5 -13.5q-17 0 -32.5 7.5t-15.5 25.5q0 14 7 34t7 33
q0 23 -23 35.5t-53 12.5q-22 0 -45.5 -5.5t-43 -27.5t-32 -66t-12.5 -120q0 -43 5.5 -81t20 -66.5t40 -45t66.5 -16.5q44 0 72.5 13t45 31.5t24.5 37.5t12 31z" />
    <glyph glyph-name="d" unicode="d" horiz-adv-x="593" 
d="M152 229q0 -52 3 -94.5t15 -72.5t36 -46t65 -16q42 0 67.5 18t39.5 46.5t19 63.5t5 68q0 39 -1.5 67.5t-5.5 50.5t-11 38t-17 30q-15 20 -39 33t-61 13q-35 0 -57.5 -14t-35 -40t-17.5 -62.5t-5 -82.5zM325 721h163v-707h77v-14h-161v87h-2q-4 -12 -12 -29t-23.5 -33
t-39 -27.5t-57.5 -11.5q-44 0 -83.5 19t-69.5 51t-47.5 73.5t-17.5 87.5q0 45 17 86t46 71.5t67 49t81 18.5q55 0 89 -27t48 -66h2v358h-77v14z" />
    <glyph glyph-name="e" unicode="e" horiz-adv-x="500" 
d="M352 262q2 14 2 26v25q0 34 -6.5 56t-18 35t-28 18.5t-35.5 5.5q-34 0 -56 -13.5t-35 -36.5t-19.5 -53t-8.5 -63h205zM146 248q0 -10 -0.5 -20.5t-0.5 -26.5q0 -33 4 -69t17.5 -65t40 -48t70.5 -19t72.5 13t45 31.5t24.5 37.5t12 31l15 -3q-3 -11 -11.5 -31.5t-27 -41
t-50 -36t-81.5 -15.5t-92.5 16t-73.5 46t-48 71.5t-17 92.5q0 44 17.5 85.5t48 73.5t71.5 51.5t88 19.5q28 0 60 -10t59.5 -32.5t46 -59.5t18.5 -92h-308z" />
    <glyph glyph-name="f" unicode="f" horiz-adv-x="333" 
d="M28 14h77v401h-77v14h77v53q0 35 3.5 60.5t9.5 45t14 34t18 26.5q26 33 65 57.5t83 24.5q33 0 56.5 -9.5t38.5 -23.5t22 -30.5t7 -29.5q0 -19 -11 -35t-37 -16q-13 0 -29.5 6t-16.5 26q0 17 9.5 30.5t9.5 30.5q0 22 -18 29.5t-37 7.5q-41 0 -71 -36t-30 -112v-139h124
v-14h-124v-401h91v-14h-254v14z" />
    <glyph glyph-name="g" unicode="g" horiz-adv-x="519" 
d="M194 -30q-13 -8 -26.5 -16.5t-24 -21.5t-17 -30.5t-6.5 -43.5q0 -36 12.5 -59.5t32 -38t43.5 -20.5t47 -6q36 0 65.5 11t51 29.5t33 42.5t11.5 50q0 56 -30.5 79.5t-83.5 23.5h-108zM356 295q0 23 -3 46.5t-12.5 43t-29 31.5t-52.5 12q-51 0 -77 -31t-26 -102
q0 -30 4.5 -54t16.5 -41.5t32 -26.5t51 -9q52 0 74 32.5t22 98.5zM44 65q0 27 10 46.5t24.5 34t31 23.5t29.5 15q-58 40 -58 108q0 35 17 63t43 47.5t57.5 29.5t60.5 10q45 0 77.5 -18t47.5 -33q11 19 32.5 35t53.5 16q20 0 37 -8.5t17 -36.5q0 -18 -11.5 -27t-23.5 -9
q-14 0 -20 8t-10.5 17t-9.5 17t-15 8t-20.5 -8.5t-18.5 -19.5q9 -10 23 -34t14 -60q0 -30 -15 -55t-39.5 -44t-57 -29.5t-66.5 -10.5q-35 0 -61 9.5t-40 16.5q-11 -5 -23.5 -11t-23 -15t-17.5 -21.5t-7 -28.5q0 -15 6 -25t15.5 -15t21.5 -7t25 -2h158q70 0 111.5 -33.5
t41.5 -105.5q0 -44 -19 -80t-50.5 -62.5t-72.5 -41t-84 -14.5q-39 0 -71.5 9t-56.5 24.5t-37.5 37.5t-13.5 49q0 26 10.5 47.5t27 38t37.5 28.5t42 20v2q-66 0 -97.5 21.5t-31.5 73.5z" />
    <glyph glyph-name="h" unicode="h" horiz-adv-x="611" 
d="M25 14h77v693h-77v14h163v-393h2q5 13 17 32.5t32.5 37t50 30t70.5 12.5q66 0 107.5 -32t41.5 -102v-292h77v-14h-240v14h77v323q0 39 -18.5 64t-57.5 25q-32 0 -61 -14t-51 -39t-34.5 -59t-12.5 -74v-226h77v-14h-240v14z" />
    <glyph glyph-name="i" unicode="i" horiz-adv-x="296" 
d="M93 662q0 22 15.5 37.5t37.5 15.5t37.5 -15.5t15.5 -37.5t-15.5 -37.5t-37.5 -15.5t-37.5 15.5t-15.5 37.5zM28 14h77v401h-77v14h163v-415h77v-14h-240v14z" />
    <glyph glyph-name="j" unicode="j" horiz-adv-x="296" 
d="M93 662q0 22 15.5 37.5t37.5 15.5t37.5 -15.5t15.5 -37.5t-15.5 -37.5t-37.5 -15.5t-37.5 15.5t-15.5 37.5zM28 429h163v-449q0 -48 -2.5 -79.5t-6.5 -51.5t-9 -31.5t-10 -21.5q-12 -24 -27.5 -40t-32 -25.5t-33.5 -13t-31 -3.5q-16 0 -35 5.5t-35.5 16.5t-28 28.5
t-11.5 40.5q0 24 13 36t32 12q18 0 27 -9.5t9 -25.5q0 -12 -3.5 -23t-3.5 -28q0 -20 13 -29.5t29 -9.5q29 0 44.5 23.5t15.5 75.5v588h-77v14z" />
    <glyph glyph-name="k" unicode="k" horiz-adv-x="537" 
d="M28 14h77v693h-77v14h163v-478h11l199 172h-71v14h155v-14h-60l-156 -134l221 -267h43v-14h-225v14h71l-177 215h-11v-215h55v-14h-218v14z" />
    <glyph glyph-name="l" unicode="l" horiz-adv-x="296" 
d="M28 14h77v693h-77v14h163v-707h77v-14h-240v14z" />
    <glyph glyph-name="m" unicode="m" horiz-adv-x="870" 
d="M20 14h77v401h-77v14h161v-105h2q21 60 60.5 88t95.5 28q50 0 88.5 -22t50.5 -73h2q7 18 19 35t30 30.5t42.5 21.5t55.5 8q146 0 146 -149v-277h77v-14h-240v14h77v340q0 34 -18.5 53t-50.5 19q-25 0 -50 -9.5t-45 -28.5t-32.5 -49t-12.5 -70v-255h77v-14h-240v14h77v326
q0 44 -18 65t-48 21q-21 0 -46 -10.5t-46.5 -33t-36 -58.5t-14.5 -88v-222h77v-14h-240v14z" />
    <glyph glyph-name="n" unicode="n" horiz-adv-x="611" 
d="M25 14h77v401h-77v14h161v-107h2q6 13 17.5 33t31.5 39t50 32.5t73 13.5q66 0 107.5 -32t41.5 -102v-292h77v-14h-240v14h77v323q0 39 -18.5 64t-57.5 25q-32 0 -61 -14t-51 -39t-34.5 -59t-12.5 -74v-226h77v-14h-240v14z" />
    <glyph glyph-name="o" unicode="o" horiz-adv-x="556" 
d="M145 214q0 -71 11 -113t29 -64.5t42 -29.5t51 -7t51 7t42 29.5t29 64.5t11 113q0 60 -8 100.5t-24.5 66t-41.5 36.5t-59 11t-59 -11t-41.5 -36.5t-24.5 -66t-8 -100.5zM45 214q0 49 21.5 91t55 72.5t75 47.5t81.5 17t81.5 -17t75 -47.5t55 -72.5t21.5 -91
q0 -47 -20 -88.5t-52.5 -72.5t-74.5 -49t-86 -18t-86 18t-74.5 49t-52.5 72.5t-20 88.5z" />
    <glyph glyph-name="p" unicode="p" horiz-adv-x="593" 
d="M441 229q0 46 -5 82.5t-17.5 62.5t-35 40t-57.5 14q-37 0 -61 -13t-39 -33q-11 -14 -17.5 -30t-10.5 -38t-5.5 -50.5t-1.5 -67.5q0 -33 5 -68t19 -63.5t39.5 -46.5t67.5 -18q41 0 65 16t36 46t15 72.5t3 94.5zM28 -266h77v681h-77v14h161v-84h2q15 42 49.5 69.5
t89.5 27.5q43 0 81 -18.5t67 -49t46 -71.5t17 -86q0 -46 -17.5 -87.5t-47.5 -73.5t-69.5 -51t-83.5 -19q-34 0 -57.5 11.5t-38.5 27t-23 32t-11 26.5h-2v-349h77v-14h-240v14z" />
    <glyph glyph-name="q" unicode="q" horiz-adv-x="593" 
d="M152 229q0 -52 3 -94.5t15 -72.5t36 -46t65 -16q42 0 67.5 18t39.5 46.5t19 63.5t5 68q0 39 -1.5 67.5t-5.5 50.5t-11 38t-17 30q-15 20 -39 33t-61 13q-35 0 -57.5 -14t-35 -40t-17.5 -62.5t-5 -82.5zM325 -266h77v349h-2q-3 -10 -11 -26.5t-23 -32t-38.5 -27
t-57.5 -11.5q-44 0 -83.5 19t-69.5 51t-47.5 73.5t-17.5 87.5q0 45 17 86t46 71.5t67 49t81 18.5q55 0 89.5 -27t49.5 -70h2v84h161v-14h-77v-681h77v-14h-240v14z" />
    <glyph glyph-name="r" unicode="r" horiz-adv-x="407" 
d="M27 14h77v401h-77v14h161v-101h2q4 15 13 34t25 36.5t38.5 29.5t54.5 12q23 0 40 -7.5t28 -19t16 -26.5t5 -30q0 -33 -15 -44t-35 -11q-44 0 -44 28q0 9 2 14.5t4.5 11t4.5 12.5t2 20q0 32 -35 32q-16 0 -34 -12t-33.5 -35t-26 -55.5t-10.5 -74.5v-229h87v-14h-250v14z
" />
    <glyph glyph-name="s" unicode="s" horiz-adv-x="426" 
d="M56 140h11q7 -24 18 -48.5t29.5 -45t45.5 -33.5t65 -13q32 0 57 19.5t25 63.5q0 38 -19.5 53.5t-45.5 24.5l-78 27q-15 5 -32.5 12.5t-32.5 21t-24.5 34.5t-9.5 54q0 28 11 52t30 42t45.5 28t57.5 10q22 0 35.5 -3.5t23.5 -7t18 -7t19 -3.5t16 8h11v-114h-11
q-7 22 -16 42.5t-21.5 36.5t-31 25t-43.5 9q-48 0 -74.5 -21.5t-26.5 -57.5q0 -32 22.5 -48.5t66.5 -30.5l73 -24q47 -16 77 -44t30 -74q0 -27 -10.5 -53t-31 -45.5t-50 -31.5t-67.5 -12q-22 0 -40.5 4.5t-34 9.5t-28.5 9.5t-24 4.5t-16 -4.5t-8 -9.5h-11v140z" />
    <glyph glyph-name="t" unicode="t" horiz-adv-x="333" 
d="M17 429h77v129q8 -3 15 -5t24 -2q15 0 26 3.5t21 11.5v-137h142v-14h-142v-327q0 -28 5.5 -45.5t14.5 -27t19.5 -12.5t20.5 -3q35 0 56.5 25.5t27.5 58.5l14 -5q-3 -13 -9 -29t-18.5 -30.5t-32.5 -24t-50 -9.5q-75 0 -104.5 29t-29.5 82v318h-77v14z" />
    <glyph glyph-name="u" unicode="u" horiz-adv-x="593" 
d="M569 0h-161v101h-2q-9 -20 -21.5 -40.5t-31 -37t-43 -27t-57.5 -10.5q-40 0 -65 9t-39 19q-7 5 -15.5 12.5t-15.5 20.5t-12 33.5t-5 50.5v284h-77v14h163v-307q0 -26 3.5 -48t13.5 -38.5t26 -26t42 -9.5q22 0 45.5 13t43 37t32.5 57.5t13 75.5v232h-76v14h162v-415h77
v-14z" />
    <glyph glyph-name="v" unicode="v" horiz-adv-x="481" 
d="M-18 429h242v-14h-82l129 -314l134 314h-82v14h152v-14h-54l-189 -448l-182 448h-68v14z" />
    <glyph glyph-name="w" unicode="w" horiz-adv-x="741" 
d="M-4 429h241v-14h-83l112 -312l104 247l-25 65h-42v14h199v-14h-67l116 -310l125 310h-94v14h163v-14h-53l-179 -448l-136 363l-152 -363l-161 448h-68v14z" />
    <glyph glyph-name="x" unicode="x" horiz-adv-x="481" 
d="M15 14h53l137 184l-149 217h-56v14h235v-14h-79l103 -150l108 150h-74v14h147v-14h-53l-119 -164l163 -237h55v-14h-234v14h79l-117 170l-126 -170h74v-14h-147v14z" />
    <glyph glyph-name="y" unicode="y" horiz-adv-x="481" 
d="M-5 429h245v-14h-84l129 -314l135 314h-83v14h153v-14h-54l-165 -386q-19 -43 -36 -86.5t-34 -87.5q-14 -36 -28 -63t-29.5 -44t-33.5 -25.5t-42 -8.5q-29 0 -46.5 9t-27.5 21t-13 25t-3 22q0 25 14 37.5t34 12.5q7 0 15 -1.5t15 -5.5t12 -11t5 -17q0 -14 -8.5 -26.5
t-8.5 -27.5q0 -13 7 -17t19 -4q16 0 29.5 7.5t26.5 24.5t26 44.5t29 67.5l44 112l-173 428h-69v14z" />
    <glyph glyph-name="z" unicode="z" horiz-adv-x="426" 
d="M72 429h317l-249 -415h141q29 0 47.5 11.5t30 29t18 37.5t12.5 38h8l-13 -130h-348l249 415h-86q-25 0 -43.5 -1.5t-33.5 -10.5t-28 -29t-28 -57h-8z" />
    <glyph glyph-name="braceleft" unicode="{" horiz-adv-x="333" 
d="M337 694q-55 -3 -84.5 -21t-43.5 -44.5t-16.5 -57.5t-2.5 -60v-78q0 -42 -1 -71t-4.5 -49.5t-10.5 -34t-18 -24.5q-12 -12 -25.5 -19t-26.5 -11t-24.5 -5.5t-17.5 -2.5q6 -1 17.5 -2.5t24.5 -5.5t26.5 -11t25.5 -19q11 -11 18 -24.5t10.5 -34t4.5 -49.5t1 -71v-78
q0 -29 2.5 -60t16.5 -57.5t43.5 -44.5t84.5 -21v-18q-9 1 -22 2t-27.5 4.5t-30 9.5t-28.5 17q-22 17 -34 37t-17.5 44t-6.5 53t-1 63v107q0 36 -5 61.5t-19.5 43.5t-41 30t-70.5 21v6q44 9 70.5 21t41 30t19.5 43.5t5 61.5v107q0 34 1 63t6.5 53t17.5 44t34 37
q13 11 28.5 17t30 9.5t27.5 4.5t22 2v-18z" />
    <glyph glyph-name="bar" unicode="|" horiz-adv-x="222" 
d="M101 750h20v-1000h-20v1000z" />
    <glyph glyph-name="braceright" unicode="}" horiz-adv-x="333" 
d="M-4 -262q55 3 84.5 21t43.5 44.5t16.5 57.5t2.5 60v78q0 42 1 71t4.5 49.5t10.5 34t18 24.5q12 12 25.5 19t26.5 11t24.5 5.5t17.5 2.5q-6 1 -17.5 2.5t-24.5 5.5t-26.5 11t-25.5 19q-11 11 -18 24.5t-10.5 34t-4.5 49.5t-1 71v78q0 29 -2.5 60t-16.5 57.5t-43.5 44.5
t-84.5 21v18q9 -1 22 -2t27.5 -4.5t29.5 -9.5t29 -17q22 -17 34 -37t17.5 -44t6.5 -53t1 -63v-107q0 -36 5 -61.5t19.5 -43.5t41 -30t70.5 -21v-6q-44 -9 -70.5 -21t-41 -30t-19.5 -43.5t-5 -61.5v-107q0 -34 -1 -63t-6.5 -53t-17.5 -44t-34 -37q-14 -11 -29 -17t-29.5 -9.5
t-27.5 -4.5t-22 -2v18z" />
    <glyph glyph-name="asciitilde" unicode="~" horiz-adv-x="593" 
d="M577 320q-5 -16 -13.5 -39t-24 -44.5t-39 -36.5t-58.5 -15q-11 0 -28 3t-58 19l-122 47q-17 7 -40.5 14.5t-46.5 7.5q-29 0 -48.5 -12.5t-32 -30.5t-20 -37.5t-12.5 -33.5h-18q5 17 13.5 40t23.5 44t39.5 35.5t60.5 14.5q12 0 25 -2.5t25 -6t22 -7t15 -5.5l124 -47
q33 -13 50 -18t32 -5q44 0 70.5 33.5t42.5 81.5h18z" />
    <glyph glyph-name="nonbreakingspace" unicode="&#xa0;" 
 />
    <glyph glyph-name="exclamdown" unicode="&#xa1;" horiz-adv-x="314" 
d="M210 389q0 -22 -15.5 -37.5t-37.5 -15.5t-37.5 15.5t-15.5 37.5t15.5 37.5t37.5 15.5t37.5 -15.5t15.5 -37.5zM198 -160q1 -9 2 -23l2 -28t2 -25.5t1 -15.5q0 -20 -13 -33.5t-35 -13.5t-35 13.5t-13 33.5q0 4 1 15.5t2 25.5l2 28t2 23l31 413h20z" />
    <glyph glyph-name="cent" unicode="&#xa2;" horiz-adv-x="520" 
d="M170 15q-47 24 -79 72t-32 125q0 49 18.5 91t50 73t74 48.5t90.5 17.5q11 0 23.5 -1t23.5 -4l32 80l13 -4l-32 -79q20 -5 38.5 -13.5t32.5 -21.5t22.5 -31t8.5 -40q0 -21 -13.5 -34.5t-38.5 -13.5q-17 0 -32.5 7.5t-15.5 25.5q0 14 7 34t7 33q0 21 -23 36l-149 -372
q15 -21 38 -32.5t57 -11.5q44 0 72.5 13t45 31.5t24.5 37.5t12 31l15 -3q-3 -11 -11.5 -31.5t-27 -41t-50 -36t-81.5 -15.5q-26 0 -54 5.5t-54 18.5l-36 -92l-13 4zM332 421q-9 3 -20 5t-23 2q-23 0 -46.5 -5.5t-42 -27.5t-30 -66t-11.5 -120q0 -45 6 -83t23 -67z" />
    <glyph glyph-name="sterling" unicode="&#xa3;" horiz-adv-x="630" 
d="M96 55q0 -13 5 -21.5t13.5 -13.5t18.5 -7t19 -2q20 0 42 10.5t44 45.5q-39 30 -87 30q-18 0 -36.5 -10.5t-18.5 -31.5zM73 390h98q-11 29 -19.5 57t-8.5 61q0 39 15 78t43 70.5t68 51t91 19.5q31 0 58.5 -8.5t48.5 -23.5t33 -35t12 -43q0 -60 -56 -60q-17 0 -27.5 9.5
t-10.5 24.5q0 12 3.5 21t7 17l7 16t3.5 19q0 13 -7.5 22.5t-18.5 15.5t-25 8.5t-26 2.5q-27 0 -49 -9t-37.5 -30.5t-24 -57.5t-8.5 -90v-17t1 -21.5t2.5 -36.5t3.5 -61h174v-14h-173q3 -27 6 -59.5t6 -63.5t5 -55.5t2 -36.5q0 -20 -1.5 -35.5t-6.5 -31.5q42 -7 84.5 -12.5
t77.5 -5.5q29 0 49.5 3t34 10t22.5 19.5t15 31.5l12 -5q-10 -28 -22 -54.5t-29.5 -47.5t-40.5 -34t-55 -13q-21 0 -38 4t-31 10t-23.5 12.5t-15.5 10.5l-53 37q-22 -32 -43.5 -46t-55.5 -14q-30 0 -49 15t-19 40q0 6 3 15.5t11.5 18.5t23.5 15.5t39 6.5q10 0 22.5 -1.5
t24.5 -4t23.5 -5t19.5 -4.5q2 13 3 25t1 21q0 26 -8.5 55.5t-20.5 60t-25 61t-22 57.5h-104v14z" />
    <glyph glyph-name="currency" unicode="&#xa4;" horiz-adv-x="556" 
d="M95 357q0 -38 14.5 -71.5t39 -58t58 -39t71.5 -14.5t71.5 14.5t58 39t39 58t14.5 71.5t-14.5 71.5t-39 58t-58 39t-71.5 14.5t-71.5 -14.5t-58 -39t-39 -58t-14.5 -71.5zM127 220q-33 38 -42.5 75.5t-9.5 61.5q0 36 13.5 72.5t39.5 64.5l-64 64l13 13l64 -64
q29 26 63.5 39.5t73.5 13.5q38 0 72.5 -14t63.5 -39l65 64l13 -13l-64 -64q19 -21 29.5 -42.5t15.5 -39.5t6.5 -32.5t1.5 -22.5t-1.5 -23t-6.5 -33.5t-15.5 -39t-29.5 -41.5l64 -64l-13 -13l-65 64q-30 -29 -67 -41t-70 -12q-27 0 -49 6t-39 14.5t-29 17.5t-19 15l-64 -64
l-13 13z" />
    <glyph glyph-name="yen" unicode="&#xa5;" horiz-adv-x="556" 
d="M152 14h88v288h-184v14h182l-51 110h-131v14h125l-117 258h-69v14h257v-14h-88l161 -366l143 366h-77v14h170v-14h-75l-100 -258h127v-14h-133l-42 -110h175v-14h-177v-288h88v-14h-272v14z" />
    <glyph glyph-name="brokenbar" unicode="&#xa6;" horiz-adv-x="222" 
d="M101 675h20v-350h-20v350zM101 175h20v-350h-20v350z" />
    <glyph glyph-name="section" unicode="&#xa7;" horiz-adv-x="520" 
d="M351 75q35 26 53 53.5t18 62.5q0 37 -15 59.5t-47 42.5l-166 101q-7 4 -13 8.5t-12 9.5q-30 -17 -54.5 -44.5t-24.5 -64.5q0 -35 25.5 -68t60.5 -54zM144 101q-48 29 -68 63t-20 87q0 40 13 69.5t30 50.5t33.5 33t24.5 17q-9 9 -20.5 21t-21 28t-16 36t-6.5 46
q0 33 13.5 64.5t39 57t61 41t80.5 15.5q72 0 111.5 -33t39.5 -78q0 -26 -10.5 -40.5t-37.5 -14.5q-22 0 -30 9.5t-8 24.5q0 23 7.5 36.5t7.5 31.5q0 22 -20 36t-60 14q-33 0 -58 -10.5t-41.5 -27.5t-24.5 -39.5t-8 -47.5q0 -45 25 -74t62 -52l135 -82q26 -16 43 -31.5
t26.5 -32t13.5 -35.5t4 -43q0 -33 -11 -60.5t-26.5 -49t-33.5 -37.5t-32 -28q14 -11 28.5 -25t26.5 -32t20 -40.5t8 -49.5q0 -31 -13 -66t-38 -64.5t-62 -49t-86 -19.5q-47 0 -80.5 12t-55.5 30.5t-32 40.5t-10 42t10.5 37t36.5 17q17 0 31.5 -7t14.5 -29q0 -10 -3 -18
t-7 -15.5t-7 -15t-3 -16.5q0 -6 5 -16.5t17 -21t32.5 -18.5t52.5 -8q30 0 54.5 10.5t42 30t27.5 45.5t10 58q0 37 -18 69t-62 59z" />
    <glyph glyph-name="dieresis" unicode="&#xa8;" 
d="M186 662q0 19 13.5 32.5t32.5 13.5t32.5 -13.5t13.5 -32.5t-13.5 -32.5t-32.5 -13.5t-32.5 13.5t-13.5 32.5zM0 662q0 19 13.5 32.5t32.5 13.5t32.5 -13.5t13.5 -32.5t-13.5 -32.5t-32.5 -13.5t-32.5 13.5t-13.5 32.5z" />
    <glyph glyph-name="copyright" unicode="&#xa9;" horiz-adv-x="833" 
d="M65 358q0 -73 27.5 -137t75.5 -112t112 -75.5t137 -27.5t137 27.5t112 75.5t75.5 112t27.5 137t-27.5 137t-75.5 112t-112 75.5t-137 27.5t-137 -27.5t-112 -75.5t-75.5 -112t-27.5 -137zM45 358q0 77 29.5 144.5t80 118t118 80t144.5 29.5t144.5 -29.5t118 -80t80 -118
t29.5 -144.5t-29.5 -144.5t-80 -118t-118 -80t-144.5 -29.5t-144.5 29.5t-118 80t-80 118t-29.5 144.5zM570 148h-9q-4 5 -9.5 9t-16.5 4q-9 0 -19.5 -3.5t-24 -7.5t-30 -7.5t-37.5 -3.5q-38 0 -73.5 14t-67.5 45q-29 29 -49 69t-20 94q0 45 16 86t44.5 71.5t68 49
t85.5 18.5q19 0 33 -3.5t25.5 -8t21 -8t18.5 -3.5q12 0 17 3.5t10 8.5h9v-120h-7q-5 23 -13.5 45t-23.5 39.5t-38.5 28t-57.5 10.5q-48 0 -75.5 -21.5t-41.5 -53.5t-18 -70t-4 -72q0 -63 10 -104.5t28.5 -65.5t44 -33.5t56.5 -9.5q40 0 65 11.5t40 29.5t22.5 41t13.5 46h7
v-128z" />
    <glyph glyph-name="ordfeminine" unicode="&#xaa;" horiz-adv-x="313" 
d="M198 611h-2q-2 -3 -6 -7.5t-15 -8.5l-48 -17q-20 -8 -30.5 -21t-10.5 -36q0 -18 8.5 -32.5t38.5 -14.5q21 0 34 7.5t20 19.5t9 25.5t2 25.5v59zM313 472q-8 -6 -20 -10.5t-29 -4.5q-32 0 -45.5 12t-18.5 34h-2q-1 -5 -5 -12.5t-13.5 -15t-25.5 -13t-41 -5.5
q-27 0 -43.5 5.5t-25.5 14t-12 19t-3 19.5q0 31 18.5 43.5t48.5 22.5l70 23q34 12 34 56q0 26 -8.5 41t-40.5 15q-22 0 -36 -6.5t-14 -20.5q0 -8 2 -15.5t2 -15.5t-6.5 -14t-18.5 -6q-22 0 -27 7.5t-5 18.5q0 26 25.5 46t76.5 20q30 0 50 -7t32.5 -18.5t17.5 -26.5t5 -31
v-147q0 -17 6 -23t17 -6q15 0 30 9z" />
    <glyph glyph-name="guillemotleft" unicode="&#xab;" horiz-adv-x="407" 
d="M347 348q-42 -11 -67 -40t-25 -90t25 -90t67 -40l-3 -11q-30 4 -57.5 14t-48 27t-33 42t-12.5 58t12.5 58t33 42t48 27t57.5 14zM214 348q-42 -11 -67 -40t-25 -90t25 -90t67 -40l-3 -11q-30 4 -57.5 14t-48 27t-33 42t-12.5 58t12.5 58t33 42t48 27t57.5 14z" />
    <glyph glyph-name="logicalnot" unicode="&#xac;" horiz-adv-x="593" 
d="M516 317h-460v18h480v-190h-20v172z" />
    <glyph glyph-name="FL00ADh" unicode="&#xad;" horiz-adv-x="370" 
d="M92 251h186v-66h-186v66z" />
    <glyph glyph-name="registered" unicode="&#xae;" horiz-adv-x="490" 
d="M69 544q0 -36 14 -68t38 -56t56 -38t68 -14t68 14t56 38t38 56t14 68t-14 68t-38 56t-56 38t-68 14t-68 -14t-56 -38t-38 -56t-14 -68zM220 555h25q15 0 24.5 8.5t9.5 34.5q0 28 -13 35.5t-28 7.5h-10t-8 -1v-85zM193 640h-31v4h52q7 0 13.5 0.5t13.5 0.5q16 0 28 -2
t23 -10q10 -8 14 -17.5t4 -17.5q0 -4 -1.5 -10.5t-6.5 -13t-14.5 -12t-25.5 -7.5v-1q4 -1 11.5 -2.5t15.5 -5t14.5 -9.5t9.5 -15q3 -11 3.5 -27t2.5 -26q2 -7 5 -13t11 -6q9 0 15 6l2 -3q-3 -2 -8 -4.5t-16 -2.5q-22 0 -29.5 11t-9.5 31l-2 26q-1 13 -5.5 20.5t-10.5 11.5
t-12.5 4.5t-10.5 0.5h-28v-99h31v-4h-89v4h31v188zM59 544q0 38 14.5 72t40 59.5t59 40t72.5 14.5q38 0 72 -14.5t59.5 -40t40 -59.5t14.5 -72q0 -39 -14.5 -72.5t-40 -59t-59.5 -40t-72 -14.5q-39 0 -72.5 14.5t-59 40t-40 59t-14.5 72.5z" />
    <glyph glyph-name="macron" unicode="&#xaf;" 
d="M-1 633h280v-31h-280v31z" />
    <glyph glyph-name="degree" unicode="&#xb0;" horiz-adv-x="400" 
d="M85 592q0 -24 9 -45t24.5 -36.5t36.5 -24.5t45 -9t45 9t36.5 24.5t24.5 36.5t9 45t-9 45t-24.5 36.5t-36.5 24.5t-45 9t-45 -9t-36.5 -24.5t-24.5 -36.5t-9 -45zM65 592q0 28 10.5 52.5t29 43t43 29t52.5 10.5t52.5 -10.5t43 -29t29 -43t10.5 -52.5t-10.5 -52.5t-29 -43
t-43 -29t-52.5 -10.5t-52.5 10.5t-43 29t-29 43t-10.5 52.5z" />
    <glyph glyph-name="plusminus" unicode="&#xb1;" horiz-adv-x="593" 
d="M56 18h480v-18h-480v18zM286 263h-230v18h230v199h20v-199h230v-18h-230v-197h-20v197z" />
    <glyph glyph-name="twosuperior" unicode="&#xb2;" horiz-adv-x="333" 
d="M10 302q42 34 81 68t69 71t48 79t18 91q0 20 -4 38.5t-13 32.5t-24 22.5t-36 8.5q-31 0 -49 -12.5t-18 -32.5q0 -8 4 -17t4 -21q0 -22 -25 -22q-16 0 -26.5 7.5t-10.5 26.5q0 17 10.5 32.5t28 27t40 18.5t46.5 7q31 0 56.5 -10.5t44 -28t28.5 -40t10 -46.5
q0 -21 -9.5 -44t-24.5 -44.5t-32.5 -40.5t-33.5 -34l-106 -95h147q18 0 28 7t15.5 16.5t7.5 19.5t3 16h12v-112h-289v11z" />
    <glyph glyph-name="threesuperior" unicode="&#xb3;" horiz-adv-x="333" 
d="M35 382q10 -48 39.5 -67.5t64.5 -19.5q28 0 46 9t28.5 25t14 38.5t3.5 49.5q0 57 -18.5 82.5t-60.5 25.5q-25 0 -44.5 -9.5t-29.5 -14.5l-9 13q9 4 21 10t31 11q18 4 35.5 10t32 17.5t23 30.5t8.5 50q0 37 -15 53.5t-47 16.5q-35 0 -48.5 -15t-13.5 -26q0 -8 6 -18.5
t6 -18.5q0 -12 -8 -16.5t-22 -4.5q-29 0 -29 29q0 15 7.5 30t22.5 27t36.5 19.5t48.5 7.5q30 0 52.5 -9t37 -22.5t21.5 -30t7 -31.5q0 -22 -10.5 -38t-26.5 -27.5t-35 -19.5t-35 -13v-2q63 -11 93.5 -45t30.5 -71q0 -27 -12 -51.5t-33 -43.5t-49 -30.5t-61 -11.5
q-39 0 -62.5 13t-36.5 30t-18.5 33t-6.5 23z" />
    <glyph glyph-name="acute" unicode="&#xb4;" 
d="M215 696q20 24 28.5 32t22.5 8t24 -10.5t10 -24.5q0 -11 -6.5 -17t-11.5 -10l-171 -122h-14z" />
    <glyph glyph-name="mu" unicode="&#xb5;" horiz-adv-x="593" 
d="M101 415h-77v14h163v-307q0 -26 3.5 -48t13.5 -38.5t26 -26t42 -9.5q22 0 45.5 13t43 37t32.5 57.5t13 75.5v232h-77v14h163v-415h77v-14h-161v101h-2q-9 -23 -23.5 -43.5t-32.5 -36.5t-40.5 -25.5t-47.5 -9.5q-27 0 -44.5 13t-28.5 31h-2v-310h-86v695z" />
    <glyph glyph-name="paragraph" unicode="&#xb6;" horiz-adv-x="593" 
d="M405 698h-91v-550q0 -72 -3 -127.5t-14.5 -94.5t-34.5 -62.5t-62 -33.5q75 3 116.5 35t61 78.5t23.5 101t4 103.5v550zM491 148q0 -94 -23 -161t-81 -111q-27 -20 -55 -32t-53 -18t-46 -8t-34 -2q-41 0 -64.5 11t-35.5 26t-15 29.5t-3 21.5q0 25 15 38t38 13q20 0 31 -8
t11 -22q0 -3 -2 -11l-4 -16t-4 -15t-2 -10q0 -8 6.5 -18.5t25.5 -10.5q6 0 16.5 3t22 11.5t23 23t20.5 37.5q7 19 11 45.5t6.5 57t3 63t0.5 63.5v142q-32 1 -69.5 4.5t-79.5 19.5q-26 10 -48.5 28.5t-39.5 43t-26.5 55t-9.5 63.5q0 60 30 108t82 71q22 10 43.5 16t42.5 9
t43 3.5t47 0.5h255v-14h-78v-550z" />
    <glyph glyph-name="periodcentered" unicode="&#xb7;" 
d="M86 264q0 22 15.5 37.5t37.5 15.5t37.5 -15.5t15.5 -37.5t-15.5 -37.5t-37.5 -15.5t-37.5 15.5t-15.5 37.5z" />
    <glyph glyph-name="cedilla" unicode="&#xb8;" 
d="M186 0h20l-69 -72l2 -2q8 6 20 10t29 4q8 0 21.5 -3.5t27 -13t23.5 -26.5t10 -44q0 -45 -31.5 -70t-73.5 -25q-23 0 -43 9t-34 21l8 12q11 -8 27 -16.5t39 -8.5q16 0 26 7.5t15.5 18.5t7.5 25t2 28q0 26 -9.5 46t-37.5 20q-15 0 -24 -4t-16 -9l-14 15z" />
    <glyph glyph-name="onesuperior" unicode="&#xb9;" horiz-adv-x="333" 
d="M79 305h70v368q-14 -9 -23.5 -15t-19.5 -11l-21 -10.5l-27 -13.5l-7 11q41 20 75 41t65 52h16v-422h70v-14h-198v14z" />
    <glyph glyph-name="ordmasculine" unicode="&#xba;" horiz-adv-x="361" 
d="M101 596q0 -66 18.5 -95.5t60.5 -29.5q43 0 61.5 29.5t18.5 95.5q0 57 -16.5 88.5t-63.5 31.5q-46 0 -62.5 -31.5t-16.5 -88.5zM34 595q0 30 14 55t35 43t47 27.5t50 9.5t50 -9.5t47.5 -27.5t35.5 -43t14 -55q0 -31 -14 -56.5t-35.5 -43.5t-47.5 -28t-50 -10t-50 10
t-47 28t-35 43.5t-14 56.5z" />
    <glyph glyph-name="guillemotright" unicode="&#xbb;" horiz-adv-x="407" 
d="M60 88q42 11 67 40t25 90t-25 90t-67 40l3 11q30 -4 57.5 -14t48 -27t33 -42t12.5 -58t-12.5 -58t-33 -42t-48 -27t-57.5 -14zM193 88q42 11 67 40t25 90t-25 90t-67 40l3 11q30 -4 57.5 -14t48 -27t33 -42t12.5 -58t-12.5 -58t-33 -42t-48 -27t-57.5 -14z" />
    <glyph glyph-name="onequarter" unicode="&#xbc;" horiz-adv-x="834" 
d="M565 14h54v89h-179q18 34 37 71.5t38.5 73.5t38.5 68t37 57q16 23 26.5 35.5t18 18.5t14.5 7.5t17 1.5q27 0 27 -16q0 -5 -6 -11.5t-18 -18t-31 -30t-45 -46.5q-20 -21 -38.5 -46t-35.5 -51t-31.5 -51t-25.5 -47h156v159h58v-159h54v-16h-54v-89h54v-14h-166v14zM581 727
l18 -9l-380 -732l-18 9zM109 305h70v368q-14 -9 -23.5 -15t-19.5 -11l-21 -10.5l-27 -13.5l-7 11q41 20 75 41t65 52h16v-422h70v-14h-198v14z" />
    <glyph glyph-name="onehalf" unicode="&#xbd;" horiz-adv-x="834" 
d="M448 11q42 34 81 68t69 71t48 79t18 91q0 20 -4 38.5t-13 32.5t-24 22.5t-36 8.5q-31 0 -49 -12.5t-18 -32.5q0 -8 4 -17t4 -21q0 -22 -25 -22q-16 0 -26.5 7.5t-10.5 26.5q0 17 10.5 32.5t28 27t40 18.5t46.5 7q31 0 56.5 -10.5t44 -28t28.5 -40t10 -46.5
q0 -21 -9.5 -44t-24.5 -44.5t-32.5 -40.5t-33.5 -34l-106 -95h147q18 0 28 7t15.5 16.5t7.5 19.5t3 16h12v-112h-289v11zM581 727l18 -9l-380 -732l-18 9zM109 305h70v368q-14 -9 -23.5 -15t-19.5 -11l-21 -10.5l-27 -13.5l-7 11q41 20 75 41t65 52h16v-422h70v-14h-198v14z
" />
    <glyph glyph-name="threequarters" unicode="&#xbe;" horiz-adv-x="834" 
d="M565 14h54v89h-179q18 34 37 71.5t38.5 73.5t38.5 68t37 57q16 23 26.5 35.5t18 18.5t14.5 7.5t17 1.5q27 0 27 -16q0 -5 -6 -11.5t-18 -18t-31 -30t-45 -46.5q-20 -21 -38.5 -46t-35.5 -51t-31.5 -51t-25.5 -47h156v159h58v-159h54v-16h-54v-89h54v-14h-166v14zM581 727
l18 -9l-380 -732l-18 9zM65 382q10 -48 39.5 -67.5t64.5 -19.5q28 0 46 9t28.5 25t14 38.5t3.5 49.5q0 57 -18.5 82.5t-60.5 25.5q-25 0 -44.5 -9.5t-29.5 -14.5l-9 13q9 4 21 10t31 11q18 4 35.5 10t32 17.5t23 30.5t8.5 50q0 37 -15 53.5t-47 16.5q-35 0 -48.5 -15
t-13.5 -26q0 -8 6 -18.5t6 -18.5q0 -12 -8 -16.5t-22 -4.5q-29 0 -29 29q0 15 7.5 30t22.5 27t36.5 19.5t48.5 7.5q30 0 52.5 -9t37 -22.5t21.5 -30t7 -31.5q0 -22 -10.5 -38t-26.5 -27.5t-35 -19.5t-35 -13v-2q63 -11 93.5 -45t30.5 -71q0 -27 -12 -51.5t-33 -43.5
t-49 -30.5t-61 -11.5q-39 0 -62.5 13t-36.5 30t-18.5 33t-6.5 23z" />
    <glyph glyph-name="questiondown" unicode="&#xbf;" horiz-adv-x="407" 
d="M323 389q0 -22 -15.5 -37.5t-37.5 -15.5t-37.5 15.5t-15.5 37.5t15.5 37.5t37.5 15.5t37.5 -15.5t15.5 -37.5zM277 2h-16q-11 23 -26 36t-41 13q-18 0 -31 -8t-21.5 -27.5t-12.5 -53t-4 -84.5q0 -50 4.5 -81.5t13 -49.5t20.5 -25t26 -7q8 0 18.5 2t19.5 6.5t15.5 12.5
t6.5 19q0 9 -4 16.5t-8.5 15t-8 15t-3.5 18.5q0 15 11.5 25t28.5 10q18 0 32 -9.5t14 -31.5q0 -15 -7.5 -35t-23.5 -37t-40 -29t-57 -12q-57 0 -92 44.5t-35 132.5q0 37 7.5 70.5t23.5 59.5t41.5 41.5t61.5 15.5q27 0 44.5 -12t26.5 -22v222h16v-251z" />
    <glyph glyph-name="Agrave" unicode="&#xc0;" horiz-adv-x="741" 
d="M252 879q-5 4 -11.5 10t-6.5 17q0 14 10 24.5t24 10.5t22.5 -8t28.5 -32l118 -144h-14zM324 597l-110 -291h220zM-1 14h88l270 716h24l272 -716h89v-14h-308v14h111l-105 278h-232l-105 -278h111v-14h-215v14z" />
    <glyph glyph-name="Aacute" unicode="&#xc1;" horiz-adv-x="741" 
d="M447 901q20 24 28.5 32t22.5 8t24 -10.5t10 -24.5q0 -11 -6.5 -17t-11.5 -10l-171 -122h-14zM324 597l-110 -291h220zM-1 14h88l270 716h24l272 -716h89v-14h-308v14h111l-105 278h-232l-105 -278h111v-14h-215v14z" />
    <glyph glyph-name="Acircumflex" unicode="&#xc2;" horiz-adv-x="741" 
d="M343 924h56l113 -167h-14l-127 105l-127 -105h-14zM324 597l-110 -291h220zM-1 14h88l270 716h24l272 -716h89v-14h-308v14h111l-105 278h-232l-105 -278h111v-14h-215v14z" />
    <glyph glyph-name="Atilde" unicode="&#xc3;" horiz-adv-x="741" 
d="M527 883q-1 -5 -6 -21.5t-17 -34.5t-31 -32t-47 -14q-21 0 -38 7.5t-34 16.5l-31 15.5t-32 7.5t-28 -5.5t-18 -13.5t-11 -16t-5 -12h-14q4 23 14 41.5t23.5 31t28.5 19.5t30 7q17 0 34 -7.5t35 -15.5q17 -9 34 -16.5t34 -7.5q16 0 28 6.5t19.5 15.5t12 17t5.5 11h14z
M324 597l-110 -291h220zM-1 14h88l270 716h24l272 -716h89v-14h-308v14h111l-105 278h-232l-105 -278h111v-14h-215v14z" />
    <glyph glyph-name="Adieresis" unicode="&#xc4;" horiz-adv-x="741" 
d="M418 847q0 19 13.5 32.5t32.5 13.5t32.5 -13.5t13.5 -32.5t-13.5 -32.5t-32.5 -13.5t-32.5 13.5t-13.5 32.5zM232 847q0 19 13.5 32.5t32.5 13.5t32.5 -13.5t13.5 -32.5t-13.5 -32.5t-32.5 -13.5t-32.5 13.5t-13.5 32.5zM324 597l-110 -291h220zM-1 14h88l270 716h24
l272 -716h89v-14h-308v14h111l-105 278h-232l-105 -278h111v-14h-215v14z" />
    <glyph glyph-name="Aring" unicode="&#xc5;" horiz-adv-x="741" 
d="M371 923q-16 0 -25.5 -6.5t-14.5 -18t-6.5 -26t-1.5 -29.5q0 -45 12 -62t36 -17t36 17t12 62q0 15 -1.5 29.5t-6.5 26t-14.5 18t-25.5 6.5zM371 934q10 0 26 -5t30.5 -15.5t25 -28t10.5 -42.5q0 -18 -7.5 -34.5t-20.5 -28.5t-29.5 -19.5t-34.5 -7.5t-34.5 7.5t-29.5 19.5
t-20.5 28.5t-7.5 34.5q0 25 10.5 42.5t25 28t30 15.5t26.5 5zM324 597l-110 -291h220zM-1 14h88l270 716h24l272 -716h89v-14h-308v14h111l-105 278h-232l-105 -278h111v-14h-215v14z" />
    <glyph glyph-name="AE" unicode="&#xc6;" horiz-adv-x="944" 
d="M466 698h-2l-225 -389h227v389zM-9 14h60l399 684h-98v14h493v-165h-11q-10 35 -23.5 60t-27.5 42q-19 24 -41.5 36.5t-65.5 12.5h-110v-309h40q27 0 46.5 11t32.5 29t20.5 42t12.5 50h11v-278h-11q-5 26 -12.5 50t-20.5 42t-32.5 29t-46.5 11h-40v-361h105
q28 0 46.5 2.5t32 7.5t23.5 12.5t19 17.5q26 28 45 69t29 77h11v-200h-522v14h111v281h-235l-163 -281h111v-14h-188v14z" />
    <glyph glyph-name="Ccedilla" unicode="&#xc7;" horiz-adv-x="722" 
d="M671 0h-15q-7 8 -16 14.5t-28 6.5q-15 0 -32.5 -5.5t-40 -12.5t-50.5 -12.5t-62 -5.5q-4 0 -7 1l-54 -58l2 -2q8 6 20 10t29 4q8 0 21.5 -3.5t27 -13t23.5 -26.5t10 -44q0 -45 -31.5 -70t-73.5 -25q-23 0 -43 9t-34 21l8 12q11 -8 27 -16.5t39 -8.5q16 0 26 7.5
t15.5 18.5t7.5 25t2 28q0 26 -9.5 46t-37.5 20q-15 0 -24 -4t-16 -9l-14 15l61 64q-57 4 -109.5 27t-100.5 70q-49 49 -82 116t-33 155q0 99 38.5 172t103.5 127q46 38 95 57.5t120 19.5q31 0 55 -6t43 -13.5t35 -13.5t31 -6q20 0 28.5 6.5t15.5 14.5h15v-200h-11
q-9 38 -23 75t-39 65.5t-63.5 46t-95.5 17.5q-53 0 -91 -16.5t-64 -44t-41.5 -64t-23.5 -77t-10.5 -82t-2.5 -78.5q0 -105 17 -174t47.5 -109t73.5 -56t95 -16q67 0 108 19t66 49.5t38 69t23 76.5h11v-213z" />
    <glyph glyph-name="Egrave" unicode="&#xc8;" horiz-adv-x="704" 
d="M233 879q-5 4 -11.5 10t-6.5 17q0 14 10 24.5t24 10.5t22.5 -8t28.5 -32l118 -144h-14zM30 14h111v684h-111v14h572v-173h-11q-13 39 -28 68.5t-36 50t-50 30.5t-70 10h-166v-309h65q33 0 56 6t39.5 22.5t28 45t22.5 73.5h11v-311h-11q-7 29 -14.5 56t-21 48t-36 33.5
t-58.5 12.5h-81v-361h189q55 0 91.5 23.5t59.5 56t34 67.5t14 58h11v-219h-610v14z" />
    <glyph glyph-name="Eacute" unicode="&#xc9;" horiz-adv-x="704" 
d="M428 901q20 24 28.5 32t22.5 8t24 -10.5t10 -24.5q0 -11 -6.5 -17t-11.5 -10l-171 -122h-14zM30 14h111v684h-111v14h572v-173h-11q-13 39 -28 68.5t-36 50t-50 30.5t-70 10h-166v-309h65q33 0 56 6t39.5 22.5t28 45t22.5 73.5h11v-311h-11q-7 29 -14.5 56t-21 48
t-36 33.5t-58.5 12.5h-81v-361h189q55 0 91.5 23.5t59.5 56t34 67.5t14 58h11v-219h-610v14z" />
    <glyph glyph-name="Ecircumflex" unicode="&#xca;" horiz-adv-x="704" 
d="M324 924h56l113 -167h-14l-127 105l-127 -105h-14zM30 14h111v684h-111v14h572v-173h-11q-13 39 -28 68.5t-36 50t-50 30.5t-70 10h-166v-309h65q33 0 56 6t39.5 22.5t28 45t22.5 73.5h11v-311h-11q-7 29 -14.5 56t-21 48t-36 33.5t-58.5 12.5h-81v-361h189
q55 0 91.5 23.5t59.5 56t34 67.5t14 58h11v-219h-610v14z" />
    <glyph glyph-name="Edieresis" unicode="&#xcb;" horiz-adv-x="704" 
d="M399 847q0 19 13.5 32.5t32.5 13.5t32.5 -13.5t13.5 -32.5t-13.5 -32.5t-32.5 -13.5t-32.5 13.5t-13.5 32.5zM213 847q0 19 13.5 32.5t32.5 13.5t32.5 -13.5t13.5 -32.5t-13.5 -32.5t-32.5 -13.5t-32.5 13.5t-13.5 32.5zM30 14h111v684h-111v14h572v-173h-11
q-13 39 -28 68.5t-36 50t-50 30.5t-70 10h-166v-309h65q33 0 56 6t39.5 22.5t28 45t22.5 73.5h11v-311h-11q-7 29 -14.5 56t-21 48t-36 33.5t-58.5 12.5h-81v-361h189q55 0 91.5 23.5t59.5 56t34 67.5t14 58h11v-219h-610v14z" />
    <glyph glyph-name="Igrave" unicode="&#xcc;" horiz-adv-x="388" 
d="M75 879q-5 4 -11.5 10t-6.5 17q0 14 10 24.5t24 10.5t22.5 -8t28.5 -32l118 -144h-14zM33 14h111v684h-111v14h322v-14h-111v-684h111v-14h-322v14z" />
    <glyph glyph-name="Iacute" unicode="&#xcd;" horiz-adv-x="388" 
d="M270 901q20 24 28.5 32t22.5 8t24 -10.5t10 -24.5q0 -11 -6.5 -17t-11.5 -10l-171 -122h-14zM33 14h111v684h-111v14h322v-14h-111v-684h111v-14h-322v14z" />
    <glyph glyph-name="Icircumflex" unicode="&#xce;" horiz-adv-x="388" 
d="M166 924h56l113 -167h-14l-127 105l-127 -105h-14zM33 14h111v684h-111v14h322v-14h-111v-684h111v-14h-322v14z" />
    <glyph glyph-name="Idieresis" unicode="&#xcf;" horiz-adv-x="388" 
d="M241 847q0 19 13.5 32.5t32.5 13.5t32.5 -13.5t13.5 -32.5t-13.5 -32.5t-32.5 -13.5t-32.5 13.5t-13.5 32.5zM55 847q0 19 13.5 32.5t32.5 13.5t32.5 -13.5t13.5 -32.5t-13.5 -32.5t-32.5 -13.5t-32.5 13.5t-13.5 32.5zM33 14h111v684h-111v14h322v-14h-111v-684h111v-14
h-322v14z" />
    <glyph glyph-name="Eth" unicode="&#xd0;" horiz-adv-x="815" 
d="M241 389h148v-14h-148v-361q17 -2 39.5 -3t49.5 -1q34 0 67.5 3.5t64 15t57 33t47.5 56.5q32 54 44.5 110.5t12.5 123.5q0 79 -15 143.5t-49.5 110t-91.5 70.5t-141 25q-25 0 -45.5 -1t-39.5 -2v-309zM30 14h111v361h-111v14h111v309h-111v14h186q14 0 28 0.5t28 1.5
q14 0 28 0.5t28 0.5q30 0 53.5 -1t44 -3.5t39 -7t39.5 -11.5q61 -20 105.5 -53.5t73 -77.5t42 -96t13.5 -109q0 -66 -16 -118.5t-44 -93t-65.5 -70t-80.5 -47.5q-24 -11 -45.5 -17t-44 -9t-49.5 -4t-62 -1q-15 0 -32 0.5t-34 1.5t-33.5 1.5t-31.5 0.5h-170v14z" />
    <glyph glyph-name="Ntilde" unicode="&#xd1;" horiz-adv-x="722" 
d="M517 883q-1 -5 -6 -21.5t-17 -34.5t-31 -32t-47 -14q-21 0 -38 7.5t-34 16.5l-31 15.5t-32 7.5t-28 -5.5t-18 -13.5t-11 -16t-5 -12h-14q4 23 14 41.5t23.5 31t28.5 19.5t30 7q17 0 34 -7.5t35 -15.5q17 -9 34 -16.5t34 -7.5q16 0 28 6.5t19.5 15.5t12 17t5.5 11h14z
M21 14h111v684h-111v14h214l338 -545h2v531h-111v14h237v-14h-111v-712h-20l-421 671h-2v-643h111v-14h-237v14z" />
    <glyph glyph-name="Ograve" unicode="&#xd2;" horiz-adv-x="832" 
d="M297 879q-5 4 -11.5 10t-6.5 17q0 14 10 24.5t24 10.5t22.5 -8t28.5 -32l118 -144h-14zM183 357q0 -90 12 -157t40 -112t72 -67t109 -22q64 0 108.5 22t72.5 67t40 112t12 157q0 69 -9 133.5t-34.5 115t-71 80.5t-118.5 30t-118.5 -30t-71 -80.5t-34.5 -115t-9 -133.5z
M68 357q0 80 31.5 148t81 118t111.5 78.5t124 28.5q66 0 128.5 -28.5t111.5 -78.5t78.5 -118t29.5 -148q0 -70 -27 -137t-74 -119t-110.5 -84t-136.5 -32q-75 0 -139 31t-110.5 82.5t-72.5 119t-26 139.5z" />
    <glyph glyph-name="Oacute" unicode="&#xd3;" horiz-adv-x="832" 
d="M492 901q20 24 28.5 32t22.5 8t24 -10.5t10 -24.5q0 -11 -6.5 -17t-11.5 -10l-171 -122h-14zM183 357q0 -90 12 -157t40 -112t72 -67t109 -22q64 0 108.5 22t72.5 67t40 112t12 157q0 69 -9 133.5t-34.5 115t-71 80.5t-118.5 30t-118.5 -30t-71 -80.5t-34.5 -115
t-9 -133.5zM68 357q0 80 31.5 148t81 118t111.5 78.5t124 28.5q66 0 128.5 -28.5t111.5 -78.5t78.5 -118t29.5 -148q0 -70 -27 -137t-74 -119t-110.5 -84t-136.5 -32q-75 0 -139 31t-110.5 82.5t-72.5 119t-26 139.5z" />
    <glyph glyph-name="Ocircumflex" unicode="&#xd4;" horiz-adv-x="832" 
d="M388 924h56l113 -167h-14l-127 105l-127 -105h-14zM183 357q0 -90 12 -157t40 -112t72 -67t109 -22q64 0 108.5 22t72.5 67t40 112t12 157q0 69 -9 133.5t-34.5 115t-71 80.5t-118.5 30t-118.5 -30t-71 -80.5t-34.5 -115t-9 -133.5zM68 357q0 80 31.5 148t81 118
t111.5 78.5t124 28.5q66 0 128.5 -28.5t111.5 -78.5t78.5 -118t29.5 -148q0 -70 -27 -137t-74 -119t-110.5 -84t-136.5 -32q-75 0 -139 31t-110.5 82.5t-72.5 119t-26 139.5z" />
    <glyph glyph-name="Otilde" unicode="&#xd5;" horiz-adv-x="832" 
d="M572 883q-1 -5 -6 -21.5t-17 -34.5t-31 -32t-47 -14q-21 0 -38 7.5t-34 16.5l-31 15.5t-32 7.5t-28 -5.5t-18 -13.5t-11 -16t-5 -12h-14q4 23 14 41.5t23.5 31t28.5 19.5t30 7q17 0 34 -7.5t35 -15.5q17 -9 34 -16.5t34 -7.5q16 0 28 6.5t19.5 15.5t12 17t5.5 11h14z
M183 357q0 -90 12 -157t40 -112t72 -67t109 -22q64 0 108.5 22t72.5 67t40 112t12 157q0 69 -9 133.5t-34.5 115t-71 80.5t-118.5 30t-118.5 -30t-71 -80.5t-34.5 -115t-9 -133.5zM68 357q0 80 31.5 148t81 118t111.5 78.5t124 28.5q66 0 128.5 -28.5t111.5 -78.5t78.5 -118
t29.5 -148q0 -70 -27 -137t-74 -119t-110.5 -84t-136.5 -32q-75 0 -139 31t-110.5 82.5t-72.5 119t-26 139.5z" />
    <glyph glyph-name="Odieresis" unicode="&#xd6;" horiz-adv-x="832" 
d="M463 847q0 19 13.5 32.5t32.5 13.5t32.5 -13.5t13.5 -32.5t-13.5 -32.5t-32.5 -13.5t-32.5 13.5t-13.5 32.5zM277 847q0 19 13.5 32.5t32.5 13.5t32.5 -13.5t13.5 -32.5t-13.5 -32.5t-32.5 -13.5t-32.5 13.5t-13.5 32.5zM183 357q0 -90 12 -157t40 -112t72 -67t109 -22
q64 0 108.5 22t72.5 67t40 112t12 157q0 69 -9 133.5t-34.5 115t-71 80.5t-118.5 30t-118.5 -30t-71 -80.5t-34.5 -115t-9 -133.5zM68 357q0 80 31.5 148t81 118t111.5 78.5t124 28.5q66 0 128.5 -28.5t111.5 -78.5t78.5 -118t29.5 -148q0 -70 -27 -137t-74 -119t-110.5 -84
t-136.5 -32q-75 0 -139 31t-110.5 82.5t-72.5 119t-26 139.5z" />
    <glyph glyph-name="multiply" unicode="&#xd7;" horiz-adv-x="593" 
d="M296 227l-208 -208l-13 14l207 207l-207 207l13 14l208 -208l208 208l13 -14l-207 -207l207 -207l-13 -14z" />
    <glyph glyph-name="Oslash" unicode="&#xd8;" horiz-adv-x="832" 
d="M246 34q-41 24 -73.5 59t-56 77t-36 89.5t-12.5 97.5q0 78 30.5 146t80 118.5t111.5 79.5t126 29q82 0 156 -43l53 105l13 -6l-53 -106q39 -24 71.5 -57.5t56.5 -74.5t37.5 -89.5t13.5 -101.5q0 -70 -27 -137t-74 -119t-110.5 -84t-136.5 -32q-44 0 -83.5 10.5
t-74.5 30.5l-51 -103l-13 6zM269 48q52 -49 147 -49q64 0 108.5 22t72.5 67t40 112t12 157q0 43 -3.5 85.5t-12 81t-23.5 71.5t-38 59zM561 664q-26 25 -61.5 38.5t-83.5 13.5q-73 0 -118.5 -30t-71 -80.5t-34.5 -115t-9 -133.5q0 -108 17.5 -182.5t57.5 -116.5z" />
    <glyph glyph-name="Ugrave" unicode="&#xd9;" horiz-adv-x="759" 
d="M277 879q-5 4 -11.5 10t-6.5 17q0 14 10 24.5t24 10.5t22.5 -8t28.5 -32l118 -144h-14zM21 712h322v-14h-111v-483q0 -60 10.5 -101.5t31.5 -67t52 -36.5t71 -11q56 0 99 16.5t74 58.5q10 13 17.5 26t13 30.5t8.5 42t3 60.5v465h-111v14h237v-14h-111v-485
q0 -42 -9 -76.5t-37 -71.5q-27 -36 -75 -58t-127 -22q-120 0 -183.5 59t-63.5 181v473h-111v14z" />
    <glyph glyph-name="Uacute" unicode="&#xda;" horiz-adv-x="759" 
d="M472 901q20 24 28.5 32t22.5 8t24 -10.5t10 -24.5q0 -11 -6.5 -17t-11.5 -10l-171 -122h-14zM21 712h322v-14h-111v-483q0 -60 10.5 -101.5t31.5 -67t52 -36.5t71 -11q56 0 99 16.5t74 58.5q10 13 17.5 26t13 30.5t8.5 42t3 60.5v465h-111v14h237v-14h-111v-485
q0 -42 -9 -76.5t-37 -71.5q-27 -36 -75 -58t-127 -22q-120 0 -183.5 59t-63.5 181v473h-111v14z" />
    <glyph glyph-name="Ucircumflex" unicode="&#xdb;" horiz-adv-x="759" 
d="M368 924h56l113 -167h-14l-127 105l-127 -105h-14zM21 712h322v-14h-111v-483q0 -60 10.5 -101.5t31.5 -67t52 -36.5t71 -11q56 0 99 16.5t74 58.5q10 13 17.5 26t13 30.5t8.5 42t3 60.5v465h-111v14h237v-14h-111v-485q0 -42 -9 -76.5t-37 -71.5q-27 -36 -75 -58
t-127 -22q-120 0 -183.5 59t-63.5 181v473h-111v14z" />
    <glyph glyph-name="Udieresis" unicode="&#xdc;" horiz-adv-x="759" 
d="M443 847q0 19 13.5 32.5t32.5 13.5t32.5 -13.5t13.5 -32.5t-13.5 -32.5t-32.5 -13.5t-32.5 13.5t-13.5 32.5zM257 847q0 19 13.5 32.5t32.5 13.5t32.5 -13.5t13.5 -32.5t-13.5 -32.5t-32.5 -13.5t-32.5 13.5t-13.5 32.5zM21 712h322v-14h-111v-483q0 -60 10.5 -101.5
t31.5 -67t52 -36.5t71 -11q56 0 99 16.5t74 58.5q10 13 17.5 26t13 30.5t8.5 42t3 60.5v465h-111v14h237v-14h-111v-485q0 -42 -9 -76.5t-37 -71.5q-27 -36 -75 -58t-127 -22q-120 0 -183.5 59t-63.5 181v473h-111v14z" />
    <glyph glyph-name="Yacute" unicode="&#xdd;" horiz-adv-x="704" 
d="M448 901q20 24 28.5 32t22.5 8t24 -10.5t10 -24.5q0 -11 -6.5 -17t-11.5 -10l-171 -122h-14zM203 14h111v287l-225 397h-91v14h306v-14h-100l200 -352l189 352h-101v14h214v-14h-97l-195 -365v-319h111v-14h-322v14z" />
    <glyph glyph-name="Thorn" unicode="&#xde;" horiz-adv-x="648" 
d="M241 236q20 -4 42 -6t39 -2q74 0 115.5 43.5t41.5 131.5q0 51 -10 85t-31.5 54.5t-56 28.5t-82.5 8q-19 0 -34.5 -1t-23.5 -2v-340zM30 14h111v684h-111v14h322v-14h-111v-108q11 0 35.5 1.5t52.5 1.5q57 0 105.5 -13.5t84 -38.5t55.5 -60t20 -78q0 -45 -23 -80t-61 -59
t-88.5 -37t-105.5 -13q-14 0 -36 2.5t-39 5.5v-208h111v-14h-322v14z" />
    <glyph glyph-name="germandbls" unicode="&#xdf;" horiz-adv-x="611" 
d="M33 14h77v465q0 49 7 87t30 73q18 28 40.5 45.5t46.5 27.5t48 14t44 4q29 0 55 -7.5t46 -24t32 -42t12 -60.5q0 -37 -12 -59t-27 -36l-40 -39q-8 -8 -16 -18.5t-8 -27.5q0 -34 39 -67l87 -75q66 -57 66 -128q0 -42 -16.5 -72t-42 -49t-56.5 -27.5t-59 -8.5q-21 0 -46 4
t-46.5 14t-35.5 26.5t-14 42.5q0 29 13.5 41.5t35.5 12.5q18 0 29 -9.5t11 -24.5q0 -13 -8.5 -27t-8.5 -28q0 -18 15.5 -28t60.5 -10q49 0 75 23.5t26 74.5q0 22 -5.5 38.5t-15.5 30.5t-22.5 26.5t-27.5 25.5l-80 71q-22 19 -34.5 39t-12.5 43q0 25 12.5 42t34.5 34l42 33
q34 26 52 50.5t18 66.5q0 30 -10.5 51.5t-27 35t-37 19.5t-41.5 6q-39 0 -66.5 -14.5t-44 -39.5t-24 -58t-7.5 -70v-531h-163v14z" />
    <glyph glyph-name="agrave" unicode="&#xe0;" horiz-adv-x="481" 
d="M122 674q-5 4 -11.5 10t-6.5 17q0 14 10 24.5t24 10.5t22.5 -8t28.5 -32l118 -144h-14zM303 245h-2q-2 -13 -33 -26l-75 -30q-32 -13 -49 -36.5t-17 -58.5q0 -15 3 -31t11 -28.5t22.5 -20.5t37.5 -8q33 0 53.5 14t31 35t14 45.5t3.5 44.5v100zM478 11q-13 -10 -31 -17.5
t-44 -7.5q-48 0 -69.5 20.5t-29.5 57.5h-2q-4 -9 -11 -22.5t-21.5 -26t-38.5 -21t-61 -8.5q-42 0 -67 9.5t-39 23.5t-18.5 31.5t-4.5 32.5q0 35 14 56t36.5 33.5t50 20.5t55.5 17q33 11 54.5 19t33.5 19.5t16.5 29t4.5 47.5q0 24 -3 43t-11 32.5t-23 20.5t-40 7
q-33 0 -54.5 -11.5t-21.5 -37.5q0 -17 3 -33.5t3 -24.5q0 -14 -10 -23.5t-29 -9.5q-33 0 -41 12t-8 31q0 22 10 42t29.5 35.5t49 24.5t67.5 9q46 0 77 -11.5t50 -31t27 -44t8 -51.5v-249q0 -29 9 -39t26 -10q11 0 23 4t23 12z" />
    <glyph glyph-name="aacute" unicode="&#xe1;" horiz-adv-x="481" 
d="M317 696q20 24 28.5 32t22.5 8t24 -10.5t10 -24.5q0 -11 -6.5 -17t-11.5 -10l-171 -122h-14zM303 245h-2q-2 -13 -33 -26l-75 -30q-32 -13 -49 -36.5t-17 -58.5q0 -15 3 -31t11 -28.5t22.5 -20.5t37.5 -8q33 0 53.5 14t31 35t14 45.5t3.5 44.5v100zM478 11
q-13 -10 -31 -17.5t-44 -7.5q-48 0 -69.5 20.5t-29.5 57.5h-2q-4 -9 -11 -22.5t-21.5 -26t-38.5 -21t-61 -8.5q-42 0 -67 9.5t-39 23.5t-18.5 31.5t-4.5 32.5q0 35 14 56t36.5 33.5t50 20.5t55.5 17q33 11 54.5 19t33.5 19.5t16.5 29t4.5 47.5q0 24 -3 43t-11 32.5t-23 20.5
t-40 7q-33 0 -54.5 -11.5t-21.5 -37.5q0 -17 3 -33.5t3 -24.5q0 -14 -10 -23.5t-29 -9.5q-33 0 -41 12t-8 31q0 22 10 42t29.5 35.5t49 24.5t67.5 9q46 0 77 -11.5t50 -31t27 -44t8 -51.5v-249q0 -29 9 -39t26 -10q11 0 23 4t23 12z" />
    <glyph glyph-name="acircumflex" unicode="&#xe2;" horiz-adv-x="481" 
d="M213 719h56l113 -167h-14l-127 105l-127 -105h-14zM303 245h-2q-2 -13 -33 -26l-75 -30q-32 -13 -49 -36.5t-17 -58.5q0 -15 3 -31t11 -28.5t22.5 -20.5t37.5 -8q33 0 53.5 14t31 35t14 45.5t3.5 44.5v100zM478 11q-13 -10 -31 -17.5t-44 -7.5q-48 0 -69.5 20.5
t-29.5 57.5h-2q-4 -9 -11 -22.5t-21.5 -26t-38.5 -21t-61 -8.5q-42 0 -67 9.5t-39 23.5t-18.5 31.5t-4.5 32.5q0 35 14 56t36.5 33.5t50 20.5t55.5 17q33 11 54.5 19t33.5 19.5t16.5 29t4.5 47.5q0 24 -3 43t-11 32.5t-23 20.5t-40 7q-33 0 -54.5 -11.5t-21.5 -37.5
q0 -17 3 -33.5t3 -24.5q0 -14 -10 -23.5t-29 -9.5q-33 0 -41 12t-8 31q0 22 10 42t29.5 35.5t49 24.5t67.5 9q46 0 77 -11.5t50 -31t27 -44t8 -51.5v-249q0 -29 9 -39t26 -10q11 0 23 4t23 12z" />
    <glyph glyph-name="atilde" unicode="&#xe3;" horiz-adv-x="481" 
d="M397 678q-1 -5 -6 -21.5t-17 -34.5t-31 -32t-47 -14q-21 0 -38 7.5t-34 16.5l-31 15.5t-32 7.5t-28 -5.5t-18 -13.5t-11 -16t-5 -12h-14q4 23 14 41.5t23.5 31t28.5 19.5t30 7q17 0 34 -7.5t35 -15.5q17 -9 34 -16.5t34 -7.5q16 0 28 6.5t19.5 15.5t12 17t5.5 11h14z
M303 245h-2q-2 -13 -33 -26l-75 -30q-32 -13 -49 -36.5t-17 -58.5q0 -15 3 -31t11 -28.5t22.5 -20.5t37.5 -8q33 0 53.5 14t31 35t14 45.5t3.5 44.5v100zM478 11q-13 -10 -31 -17.5t-44 -7.5q-48 0 -69.5 20.5t-29.5 57.5h-2q-4 -9 -11 -22.5t-21.5 -26t-38.5 -21t-61 -8.5
q-42 0 -67 9.5t-39 23.5t-18.5 31.5t-4.5 32.5q0 35 14 56t36.5 33.5t50 20.5t55.5 17q33 11 54.5 19t33.5 19.5t16.5 29t4.5 47.5q0 24 -3 43t-11 32.5t-23 20.5t-40 7q-33 0 -54.5 -11.5t-21.5 -37.5q0 -17 3 -33.5t3 -24.5q0 -14 -10 -23.5t-29 -9.5q-33 0 -41 12t-8 31
q0 22 10 42t29.5 35.5t49 24.5t67.5 9q46 0 77 -11.5t50 -31t27 -44t8 -51.5v-249q0 -29 9 -39t26 -10q11 0 23 4t23 12z" />
    <glyph glyph-name="adieresis" unicode="&#xe4;" horiz-adv-x="481" 
d="M288 662q0 19 13.5 32.5t32.5 13.5t32.5 -13.5t13.5 -32.5t-13.5 -32.5t-32.5 -13.5t-32.5 13.5t-13.5 32.5zM102 662q0 19 13.5 32.5t32.5 13.5t32.5 -13.5t13.5 -32.5t-13.5 -32.5t-32.5 -13.5t-32.5 13.5t-13.5 32.5zM303 245h-2q-2 -13 -33 -26l-75 -30
q-32 -13 -49 -36.5t-17 -58.5q0 -15 3 -31t11 -28.5t22.5 -20.5t37.5 -8q33 0 53.5 14t31 35t14 45.5t3.5 44.5v100zM478 11q-13 -10 -31 -17.5t-44 -7.5q-48 0 -69.5 20.5t-29.5 57.5h-2q-4 -9 -11 -22.5t-21.5 -26t-38.5 -21t-61 -8.5q-42 0 -67 9.5t-39 23.5t-18.5 31.5
t-4.5 32.5q0 35 14 56t36.5 33.5t50 20.5t55.5 17q33 11 54.5 19t33.5 19.5t16.5 29t4.5 47.5q0 24 -3 43t-11 32.5t-23 20.5t-40 7q-33 0 -54.5 -11.5t-21.5 -37.5q0 -17 3 -33.5t3 -24.5q0 -14 -10 -23.5t-29 -9.5q-33 0 -41 12t-8 31q0 22 10 42t29.5 35.5t49 24.5
t67.5 9q46 0 77 -11.5t50 -31t27 -44t8 -51.5v-249q0 -29 9 -39t26 -10q11 0 23 4t23 12z" />
    <glyph glyph-name="aring" unicode="&#xe5;" horiz-adv-x="481" 
d="M241 730q-16 0 -25.5 -6.5t-14.5 -18t-6.5 -26t-1.5 -29.5q0 -45 12 -62t36 -17t36 17t12 62q0 15 -1.5 29.5t-6.5 26t-14.5 18t-25.5 6.5zM241 741q10 0 26 -5t30.5 -15.5t25 -28t10.5 -42.5q0 -18 -7.5 -34.5t-20.5 -28.5t-29.5 -19.5t-34.5 -7.5t-34.5 7.5t-29.5 19.5
t-20.5 28.5t-7.5 34.5q0 25 10.5 42.5t25 28t30 15.5t26.5 5zM303 245h-2q-2 -13 -33 -26l-75 -30q-32 -13 -49 -36.5t-17 -58.5q0 -15 3 -31t11 -28.5t22.5 -20.5t37.5 -8q33 0 53.5 14t31 35t14 45.5t3.5 44.5v100zM478 11q-13 -10 -31 -17.5t-44 -7.5q-48 0 -69.5 20.5
t-29.5 57.5h-2q-4 -9 -11 -22.5t-21.5 -26t-38.5 -21t-61 -8.5q-42 0 -67 9.5t-39 23.5t-18.5 31.5t-4.5 32.5q0 35 14 56t36.5 33.5t50 20.5t55.5 17q33 11 54.5 19t33.5 19.5t16.5 29t4.5 47.5q0 24 -3 43t-11 32.5t-23 20.5t-40 7q-33 0 -54.5 -11.5t-21.5 -37.5
q0 -17 3 -33.5t3 -24.5q0 -14 -10 -23.5t-29 -9.5q-33 0 -41 12t-8 31q0 22 10 42t29.5 35.5t49 24.5t67.5 9q46 0 77 -11.5t50 -31t27 -44t8 -51.5v-249q0 -29 9 -39t26 -10q11 0 23 4t23 12z" />
    <glyph glyph-name="ae" unicode="&#xe6;" horiz-adv-x="722" 
d="M309 257h-2q-7 -12 -16 -20.5t-29 -16.5l-75 -31q-32 -13 -49 -36.5t-17 -58.5q0 -15 3 -31t11 -28.5t22.5 -20.5t37.5 -8q39 0 62 19.5t34.5 48.5t14.5 62.5t3 62.5v58zM579 262q1 16 2 33.5t1 34.5q0 48 -19 73t-54 25q-53 0 -79 -40.5t-33 -125.5h182zM396 248
q0 -11 -0.5 -20.5t-0.5 -20.5q0 -43 3.5 -80.5t16 -65.5t36 -44.5t63.5 -16.5q19 0 41.5 6t42.5 18.5t36 33.5t22 51l15 -4q-3 -10 -10 -30t-25 -39.5t-49.5 -34.5t-82.5 -15q-69 0 -116.5 28.5t-68.5 88.5h-2q-2 -15 -9.5 -35t-25 -38t-46 -31t-72.5 -13q-42 0 -67 9.5
t-39 23.5t-18.5 31.5t-4.5 32.5q0 26 7 43.5t20.5 30t33 21t43.5 16.5l98 31q37 11 56.5 33.5t19.5 68.5q0 20 -4 38t-14.5 32t-27.5 22.5t-44 8.5q-33 0 -54.5 -11.5t-21.5 -37.5q0 -17 3 -33.5t3 -24.5q0 -14 -10 -23.5t-29 -9.5q-33 0 -41 12t-8 31q0 22 10 42t29.5 35.5
t49 24.5t67.5 9q37 0 62 -7t41.5 -16.5t25 -19.5t12.5 -16q6 5 17.5 15t29.5 19.5t42.5 17t54.5 7.5q18 0 47 -8t56 -29t47 -59t20 -98h-280z" />
    <glyph glyph-name="ccedilla" unicode="&#xe7;" horiz-adv-x="481" 
d="M446 110q-3 -11 -11 -30.5t-25 -39.5t-46 -35.5t-75 -18.5l-56 -58l2 -2q8 6 20 10t29 4q8 0 21.5 -3.5t27 -13t23.5 -26.5t10 -44q0 -45 -31.5 -70t-73.5 -25q-23 0 -43 9t-34 21l8 12q11 -8 27 -16.5t39 -8.5q16 0 26 7.5t15.5 18.5t7.5 25t2 28q0 26 -9.5 46t-37.5 20
q-15 0 -24 -4t-16 -9l-14 15l60 64q-38 1 -77.5 13.5t-71.5 39.5t-53 69.5t-21 103.5q0 49 18.5 91t50 73t74 48.5t90.5 17.5q27 0 55.5 -6.5t52 -20t39 -35t15.5 -52.5q0 -21 -13.5 -34.5t-38.5 -13.5q-17 0 -32.5 7.5t-15.5 25.5q0 14 7 34t7 33q0 23 -23.5 35.5
t-55.5 12.5q-23 0 -46.5 -5.5t-42 -27.5t-30 -66t-11.5 -120q0 -43 5.5 -81t20 -66.5t40 -45t66.5 -16.5q44 0 72.5 13t45 31.5t24.5 37.5t12 31z" />
    <glyph glyph-name="egrave" unicode="&#xe8;" horiz-adv-x="500" 
d="M131 674q-5 4 -11.5 10t-6.5 17q0 14 10 24.5t24 10.5t22.5 -8t28.5 -32l118 -144h-14zM352 262q2 14 2 26v25q0 34 -6.5 56t-18 35t-28 18.5t-35.5 5.5q-34 0 -56 -13.5t-35 -36.5t-19.5 -53t-8.5 -63h205zM146 248q0 -10 -0.5 -20.5t-0.5 -26.5q0 -33 4 -69t17.5 -65
t40 -48t70.5 -19t72.5 13t45 31.5t24.5 37.5t12 31l15 -3q-3 -11 -11.5 -31.5t-27 -41t-50 -36t-81.5 -15.5t-92.5 16t-73.5 46t-48 71.5t-17 92.5q0 44 17.5 85.5t48 73.5t71.5 51.5t88 19.5q28 0 60 -10t59.5 -32.5t46 -59.5t18.5 -92h-308z" />
    <glyph glyph-name="eacute" unicode="&#xe9;" horiz-adv-x="500" 
d="M326 696q20 24 28.5 32t22.5 8t24 -10.5t10 -24.5q0 -11 -6.5 -17t-11.5 -10l-171 -122h-14zM352 262q2 14 2 26v25q0 34 -6.5 56t-18 35t-28 18.5t-35.5 5.5q-34 0 -56 -13.5t-35 -36.5t-19.5 -53t-8.5 -63h205zM146 248q0 -10 -0.5 -20.5t-0.5 -26.5q0 -33 4 -69
t17.5 -65t40 -48t70.5 -19t72.5 13t45 31.5t24.5 37.5t12 31l15 -3q-3 -11 -11.5 -31.5t-27 -41t-50 -36t-81.5 -15.5t-92.5 16t-73.5 46t-48 71.5t-17 92.5q0 44 17.5 85.5t48 73.5t71.5 51.5t88 19.5q28 0 60 -10t59.5 -32.5t46 -59.5t18.5 -92h-308z" />
    <glyph glyph-name="ecircumflex" unicode="&#xea;" horiz-adv-x="500" 
d="M222 719h56l113 -167h-14l-127 105l-127 -105h-14zM352 262q2 14 2 26v25q0 34 -6.5 56t-18 35t-28 18.5t-35.5 5.5q-34 0 -56 -13.5t-35 -36.5t-19.5 -53t-8.5 -63h205zM146 248q0 -10 -0.5 -20.5t-0.5 -26.5q0 -33 4 -69t17.5 -65t40 -48t70.5 -19t72.5 13t45 31.5
t24.5 37.5t12 31l15 -3q-3 -11 -11.5 -31.5t-27 -41t-50 -36t-81.5 -15.5t-92.5 16t-73.5 46t-48 71.5t-17 92.5q0 44 17.5 85.5t48 73.5t71.5 51.5t88 19.5q28 0 60 -10t59.5 -32.5t46 -59.5t18.5 -92h-308z" />
    <glyph glyph-name="edieresis" unicode="&#xeb;" horiz-adv-x="500" 
d="M297 662q0 19 13.5 32.5t32.5 13.5t32.5 -13.5t13.5 -32.5t-13.5 -32.5t-32.5 -13.5t-32.5 13.5t-13.5 32.5zM111 662q0 19 13.5 32.5t32.5 13.5t32.5 -13.5t13.5 -32.5t-13.5 -32.5t-32.5 -13.5t-32.5 13.5t-13.5 32.5zM352 262q2 14 2 26v25q0 34 -6.5 56t-18 35
t-28 18.5t-35.5 5.5q-34 0 -56 -13.5t-35 -36.5t-19.5 -53t-8.5 -63h205zM146 248q0 -10 -0.5 -20.5t-0.5 -26.5q0 -33 4 -69t17.5 -65t40 -48t70.5 -19t72.5 13t45 31.5t24.5 37.5t12 31l15 -3q-3 -11 -11.5 -31.5t-27 -41t-50 -36t-81.5 -15.5t-92.5 16t-73.5 46t-48 71.5
t-17 92.5q0 44 17.5 85.5t48 73.5t71.5 51.5t88 19.5q28 0 60 -10t59.5 -32.5t46 -59.5t18.5 -92h-308z" />
    <glyph glyph-name="igrave" unicode="&#xec;" horiz-adv-x="296" 
d="M29 674q-5 4 -11.5 10t-6.5 17q0 14 10 24.5t24 10.5t22.5 -8t28.5 -32l118 -144h-14zM28 14h77v401h-77v14h163v-415h77v-14h-240v14z" />
    <glyph glyph-name="iacute" unicode="&#xed;" horiz-adv-x="296" 
d="M224 696q20 24 28.5 32t22.5 8t24 -10.5t10 -24.5q0 -11 -6.5 -17t-11.5 -10l-171 -122h-14zM28 14h77v401h-77v14h163v-415h77v-14h-240v14z" />
    <glyph glyph-name="icircumflex" unicode="&#xee;" horiz-adv-x="296" 
d="M120 719h56l113 -167h-14l-127 105l-127 -105h-14zM28 14h77v401h-77v14h163v-415h77v-14h-240v14z" />
    <glyph glyph-name="idieresis" unicode="&#xef;" horiz-adv-x="296" 
d="M195 662q0 19 13.5 32.5t32.5 13.5t32.5 -13.5t13.5 -32.5t-13.5 -32.5t-32.5 -13.5t-32.5 13.5t-13.5 32.5zM9 662q0 19 13.5 32.5t32.5 13.5t32.5 -13.5t13.5 -32.5t-13.5 -32.5t-32.5 -13.5t-32.5 13.5t-13.5 32.5zM28 14h77v401h-77v14h163v-415h77v-14h-240v14z" />
    <glyph glyph-name="eth" unicode="&#xf0;" horiz-adv-x="556" 
d="M145 214q0 -71 11 -113t29 -64.5t42 -29.5t51 -7t51 7t42 29.5t29 64.5t11 113q0 60 -8 100.5t-24.5 66t-41.5 36.5t-59 11t-59 -11t-41.5 -36.5t-24.5 -66t-8 -100.5zM243 620q-23 20 -53 42.5t-72 41.5l7 11q37 -15 74.5 -34.5t72.5 -43.5l119 70l6 -11l-114 -67
q46 -32 87.5 -73.5t72.5 -92t49.5 -108.5t18.5 -123q0 -63 -22 -109t-56 -76.5t-75 -45.5t-80 -15q-44 0 -86 18t-74.5 49t-52.5 72.5t-20 88.5q0 49 21.5 91t55 72.5t75 47.5t81.5 17q38 0 62 -10.5t39 -29.5l2 2q-11 36 -27 68.5t-34 59.5t-36 47t-31 32l-120 -71l-6 11z
" />
    <glyph glyph-name="ntilde" unicode="&#xf1;" horiz-adv-x="611" 
d="M462 678q-1 -5 -6 -21.5t-17 -34.5t-31 -32t-47 -14q-21 0 -38 7.5t-34 16.5l-31 15.5t-32 7.5t-28 -5.5t-18 -13.5t-11 -16t-5 -12h-14q4 23 14 41.5t23.5 31t28.5 19.5t30 7q17 0 34 -7.5t35 -15.5q17 -9 34 -16.5t34 -7.5q16 0 28 6.5t19.5 15.5t12 17t5.5 11h14z
M25 14h77v401h-77v14h161v-107h2q6 13 17.5 33t31.5 39t50 32.5t73 13.5q66 0 107.5 -32t41.5 -102v-292h77v-14h-240v14h77v323q0 39 -18.5 64t-57.5 25q-32 0 -61 -14t-51 -39t-34.5 -59t-12.5 -74v-226h77v-14h-240v14z" />
    <glyph glyph-name="ograve" unicode="&#xf2;" horiz-adv-x="556" 
d="M159 674q-5 4 -11.5 10t-6.5 17q0 14 10 24.5t24 10.5t22.5 -8t28.5 -32l118 -144h-14zM145 214q0 -71 11 -113t29 -64.5t42 -29.5t51 -7t51 7t42 29.5t29 64.5t11 113q0 60 -8 100.5t-24.5 66t-41.5 36.5t-59 11t-59 -11t-41.5 -36.5t-24.5 -66t-8 -100.5zM45 214
q0 49 21.5 91t55 72.5t75 47.5t81.5 17t81.5 -17t75 -47.5t55 -72.5t21.5 -91q0 -47 -20 -88.5t-52.5 -72.5t-74.5 -49t-86 -18t-86 18t-74.5 49t-52.5 72.5t-20 88.5z" />
    <glyph glyph-name="oacute" unicode="&#xf3;" horiz-adv-x="556" 
d="M354 696q20 24 28.5 32t22.5 8t24 -10.5t10 -24.5q0 -11 -6.5 -17t-11.5 -10l-171 -122h-14zM145 214q0 -71 11 -113t29 -64.5t42 -29.5t51 -7t51 7t42 29.5t29 64.5t11 113q0 60 -8 100.5t-24.5 66t-41.5 36.5t-59 11t-59 -11t-41.5 -36.5t-24.5 -66t-8 -100.5zM45 214
q0 49 21.5 91t55 72.5t75 47.5t81.5 17t81.5 -17t75 -47.5t55 -72.5t21.5 -91q0 -47 -20 -88.5t-52.5 -72.5t-74.5 -49t-86 -18t-86 18t-74.5 49t-52.5 72.5t-20 88.5z" />
    <glyph glyph-name="ocircumflex" unicode="&#xf4;" horiz-adv-x="556" 
d="M250 719h56l113 -167h-14l-127 105l-127 -105h-14zM145 214q0 -71 11 -113t29 -64.5t42 -29.5t51 -7t51 7t42 29.5t29 64.5t11 113q0 60 -8 100.5t-24.5 66t-41.5 36.5t-59 11t-59 -11t-41.5 -36.5t-24.5 -66t-8 -100.5zM45 214q0 49 21.5 91t55 72.5t75 47.5t81.5 17
t81.5 -17t75 -47.5t55 -72.5t21.5 -91q0 -47 -20 -88.5t-52.5 -72.5t-74.5 -49t-86 -18t-86 18t-74.5 49t-52.5 72.5t-20 88.5z" />
    <glyph glyph-name="otilde" unicode="&#xf5;" horiz-adv-x="556" 
d="M434 678q-1 -5 -6 -21.5t-17 -34.5t-31 -32t-47 -14q-21 0 -38 7.5t-34 16.5l-31 15.5t-32 7.5t-28 -5.5t-18 -13.5t-11 -16t-5 -12h-14q4 23 14 41.5t23.5 31t28.5 19.5t30 7q17 0 34 -7.5t35 -15.5q17 -9 34 -16.5t34 -7.5q16 0 28 6.5t19.5 15.5t12 17t5.5 11h14z
M145 214q0 -71 11 -113t29 -64.5t42 -29.5t51 -7t51 7t42 29.5t29 64.5t11 113q0 60 -8 100.5t-24.5 66t-41.5 36.5t-59 11t-59 -11t-41.5 -36.5t-24.5 -66t-8 -100.5zM45 214q0 49 21.5 91t55 72.5t75 47.5t81.5 17t81.5 -17t75 -47.5t55 -72.5t21.5 -91q0 -47 -20 -88.5
t-52.5 -72.5t-74.5 -49t-86 -18t-86 18t-74.5 49t-52.5 72.5t-20 88.5z" />
    <glyph glyph-name="odieresis" unicode="&#xf6;" horiz-adv-x="556" 
d="M325 662q0 19 13.5 32.5t32.5 13.5t32.5 -13.5t13.5 -32.5t-13.5 -32.5t-32.5 -13.5t-32.5 13.5t-13.5 32.5zM139 662q0 19 13.5 32.5t32.5 13.5t32.5 -13.5t13.5 -32.5t-13.5 -32.5t-32.5 -13.5t-32.5 13.5t-13.5 32.5zM145 214q0 -71 11 -113t29 -64.5t42 -29.5t51 -7
t51 7t42 29.5t29 64.5t11 113q0 60 -8 100.5t-24.5 66t-41.5 36.5t-59 11t-59 -11t-41.5 -36.5t-24.5 -66t-8 -100.5zM45 214q0 49 21.5 91t55 72.5t75 47.5t81.5 17t81.5 -17t75 -47.5t55 -72.5t21.5 -91q0 -47 -20 -88.5t-52.5 -72.5t-74.5 -49t-86 -18t-86 18t-74.5 49
t-52.5 72.5t-20 88.5z" />
    <glyph glyph-name="divide" unicode="&#xf7;" horiz-adv-x="593" 
d="M243 399q0 22 15.5 37.5t37.5 15.5t37.5 -15.5t15.5 -37.5t-15.5 -37.5t-37.5 -15.5t-37.5 15.5t-15.5 37.5zM243 81q0 22 15.5 37.5t37.5 15.5t37.5 -15.5t15.5 -37.5t-15.5 -37.5t-37.5 -15.5t-37.5 15.5t-15.5 37.5zM56 249h480v-18h-480v18z" />
    <glyph glyph-name="oslash" unicode="&#xf8;" horiz-adv-x="556" 
d="M171 16q-54 28 -90 80.5t-36 117.5q0 49 21.5 91t55 72.5t75 47.5t81.5 17q23 0 47 -6.5t47 -17.5l44 88l13 -6l-44 -88q26 -14 49 -34.5t40 -46t27 -55t10 -62.5q0 -47 -20 -88.5t-52.5 -72.5t-74.5 -49t-86 -18q-51 0 -95 23l-43 -87l-13 6zM193 29q17 -18 39 -23.5
t46 -5.5q27 0 51 7t42 29.5t29 64.5t11 113q0 66 -9.5 108t-28.5 65zM362 398q-16 17 -37 23.5t-47 6.5q-34 0 -59 -11t-41.5 -36.5t-24.5 -66t-8 -100.5q0 -69 10 -110t28 -64z" />
    <glyph glyph-name="ugrave" unicode="&#xf9;" horiz-adv-x="593" 
d="M178 674q-5 4 -11.5 10t-6.5 17q0 14 10 24.5t24 10.5t22.5 -8t28.5 -32l118 -144h-14zM569 0h-161v101h-2q-9 -20 -21.5 -40.5t-31 -37t-43 -27t-57.5 -10.5q-40 0 -65 9t-39 19q-7 5 -15.5 12.5t-15.5 20.5t-12 33.5t-5 50.5v284h-77v14h163v-307q0 -26 3.5 -48
t13.5 -38.5t26 -26t42 -9.5q22 0 45.5 13t43 37t32.5 57.5t13 75.5v232h-76v14h162v-415h77v-14z" />
    <glyph glyph-name="uacute" unicode="&#xfa;" horiz-adv-x="593" 
d="M373 696q20 24 28.5 32t22.5 8t24 -10.5t10 -24.5q0 -11 -6.5 -17t-11.5 -10l-171 -122h-14zM569 0h-161v101h-2q-9 -20 -21.5 -40.5t-31 -37t-43 -27t-57.5 -10.5q-40 0 -65 9t-39 19q-7 5 -15.5 12.5t-15.5 20.5t-12 33.5t-5 50.5v284h-77v14h163v-307q0 -26 3.5 -48
t13.5 -38.5t26 -26t42 -9.5q22 0 45.5 13t43 37t32.5 57.5t13 75.5v232h-76v14h162v-415h77v-14z" />
    <glyph glyph-name="ucircumflex" unicode="&#xfb;" horiz-adv-x="593" 
d="M269 719h56l113 -167h-14l-127 105l-127 -105h-14zM569 0h-161v101h-2q-9 -20 -21.5 -40.5t-31 -37t-43 -27t-57.5 -10.5q-40 0 -65 9t-39 19q-7 5 -15.5 12.5t-15.5 20.5t-12 33.5t-5 50.5v284h-77v14h163v-307q0 -26 3.5 -48t13.5 -38.5t26 -26t42 -9.5q22 0 45.5 13
t43 37t32.5 57.5t13 75.5v232h-76v14h162v-415h77v-14z" />
    <glyph glyph-name="udieresis" unicode="&#xfc;" horiz-adv-x="593" 
d="M344 662q0 19 13.5 32.5t32.5 13.5t32.5 -13.5t13.5 -32.5t-13.5 -32.5t-32.5 -13.5t-32.5 13.5t-13.5 32.5zM158 662q0 19 13.5 32.5t32.5 13.5t32.5 -13.5t13.5 -32.5t-13.5 -32.5t-32.5 -13.5t-32.5 13.5t-13.5 32.5zM569 0h-161v101h-2q-9 -20 -21.5 -40.5t-31 -37
t-43 -27t-57.5 -10.5q-40 0 -65 9t-39 19q-7 5 -15.5 12.5t-15.5 20.5t-12 33.5t-5 50.5v284h-77v14h163v-307q0 -26 3.5 -48t13.5 -38.5t26 -26t42 -9.5q22 0 45.5 13t43 37t32.5 57.5t13 75.5v232h-76v14h162v-415h77v-14z" />
    <glyph glyph-name="yacute" unicode="&#xfd;" horiz-adv-x="481" 
d="M317 696q20 24 28.5 32t22.5 8t24 -10.5t10 -24.5q0 -11 -6.5 -17t-11.5 -10l-171 -122h-14zM-5 429h245v-14h-84l129 -314l135 314h-83v14h153v-14h-54l-165 -386q-19 -43 -36 -86.5t-34 -87.5q-14 -36 -28 -63t-29.5 -44t-33.5 -25.5t-42 -8.5q-29 0 -46.5 9t-27.5 21
t-13 25t-3 22q0 25 14 37.5t34 12.5q7 0 15 -1.5t15 -5.5t12 -11t5 -17q0 -14 -8.5 -26.5t-8.5 -27.5q0 -13 7 -17t19 -4q16 0 29.5 7.5t26.5 24.5t26 44.5t29 67.5l44 112l-173 428h-69v14z" />
    <glyph glyph-name="thorn" unicode="&#xfe;" horiz-adv-x="593" 
d="M441 229q0 46 -5 82.5t-17.5 62.5t-35 40t-57.5 14q-37 0 -61 -13t-39 -33q-11 -14 -17.5 -30t-10.5 -38t-5.5 -50.5t-1.5 -67.5q0 -33 5 -68t19 -63.5t39.5 -46.5t67.5 -18q41 0 65 16t36 46t15 72.5t3 94.5zM28 -266h77v973h-77v14h163v-373h2q4 12 13.5 28.5t25.5 31
t40 24.5t58 10q43 0 81 -18.5t67 -49t46 -71.5t17 -86q0 -46 -17.5 -87.5t-47.5 -73.5t-69.5 -51t-83.5 -19q-34 0 -57.5 11.5t-38.5 27t-23 32t-11 26.5h-2v-349h77v-14h-240v14z" />
    <glyph glyph-name="ydieresis" unicode="&#xff;" horiz-adv-x="481" 
d="M304 662q0 19 13.5 32.5t32.5 13.5t32.5 -13.5t13.5 -32.5t-13.5 -32.5t-32.5 -13.5t-32.5 13.5t-13.5 32.5zM118 662q0 19 13.5 32.5t32.5 13.5t32.5 -13.5t13.5 -32.5t-13.5 -32.5t-32.5 -13.5t-32.5 13.5t-13.5 32.5zM-5 429h245v-14h-84l129 -314l135 314h-83v14h153
v-14h-54l-165 -386q-19 -43 -36 -86.5t-34 -87.5q-14 -36 -28 -63t-29.5 -44t-33.5 -25.5t-42 -8.5q-29 0 -46.5 9t-27.5 21t-13 25t-3 22q0 25 14 37.5t34 12.5q7 0 15 -1.5t15 -5.5t12 -11t5 -17q0 -14 -8.5 -26.5t-8.5 -27.5q0 -13 7 -17t19 -4q16 0 29.5 7.5t26.5 24.5
t26 44.5t29 67.5l44 112l-173 428h-69v14z" />
    <glyph glyph-name="Amacron" unicode="&#x100;" horiz-adv-x="741" 
d="M324 597l-110 -291h220zM-1 14h88l270 716h24l272 -716h89v-14h-308v14h111l-105 278h-232l-105 -278h111v-14h-215v14zM223 838h280v-31h-280v31z" />
    <glyph glyph-name="amacron" unicode="&#x101;" horiz-adv-x="481" 
d="M303 245h-2q-2 -13 -33 -26l-75 -30q-32 -13 -49 -36.5t-17 -58.5q0 -15 3 -31t11 -28.5t22.5 -20.5t37.5 -8q33 0 53.5 14t31 35t14 45.5t3.5 44.5v100zM478 11q-13 -10 -31 -17.5t-44 -7.5q-48 0 -69.5 20.5t-29.5 57.5h-2q-4 -9 -11 -22.5t-21.5 -26t-38.5 -21
t-61 -8.5q-42 0 -67 9.5t-39 23.5t-18.5 31.5t-4.5 32.5q0 35 14 56t36.5 33.5t50 20.5t55.5 17q33 11 54.5 19t33.5 19.5t16.5 29t4.5 47.5q0 24 -3 43t-11 32.5t-23 20.5t-40 7q-33 0 -54.5 -11.5t-21.5 -37.5q0 -17 3 -33.5t3 -24.5q0 -14 -10 -23.5t-29 -9.5
q-33 0 -41 12t-8 31q0 22 10 42t29.5 35.5t49 24.5t67.5 9q46 0 77 -11.5t50 -31t27 -44t8 -51.5v-249q0 -29 9 -39t26 -10q11 0 23 4t23 12zM101 633h280v-31h-280v31z" />
    <glyph glyph-name="Abreve" unicode="&#x102;" horiz-adv-x="741" 
d="M324 597l-110 -291h220zM-1 14h88l270 716h24l272 -716h89v-14h-308v14h111l-105 278h-232l-105 -278h111v-14h-215v14zM245 912q2 -15 9 -32t20.5 -32t35 -25t53.5 -10t53.5 10t35 25t20.5 32t9 32h14q-1 -28 -7 -55.5t-21 -49.5t-40 -36t-64 -14t-64 14t-40 36
t-21 49.5t-7 55.5h14z" />
    <glyph glyph-name="abreve" unicode="&#x103;" horiz-adv-x="481" 
d="M303 245h-2q-2 -13 -33 -26l-75 -30q-32 -13 -49 -36.5t-17 -58.5q0 -15 3 -31t11 -28.5t22.5 -20.5t37.5 -8q33 0 53.5 14t31 35t14 45.5t3.5 44.5v100zM478 11q-13 -10 -31 -17.5t-44 -7.5q-48 0 -69.5 20.5t-29.5 57.5h-2q-4 -9 -11 -22.5t-21.5 -26t-38.5 -21
t-61 -8.5q-42 0 -67 9.5t-39 23.5t-18.5 31.5t-4.5 32.5q0 35 14 56t36.5 33.5t50 20.5t55.5 17q33 11 54.5 19t33.5 19.5t16.5 29t4.5 47.5q0 24 -3 43t-11 32.5t-23 20.5t-40 7q-33 0 -54.5 -11.5t-21.5 -37.5q0 -17 3 -33.5t3 -24.5q0 -14 -10 -23.5t-29 -9.5
q-33 0 -41 12t-8 31q0 22 10 42t29.5 35.5t49 24.5t67.5 9q46 0 77 -11.5t50 -31t27 -44t8 -51.5v-249q0 -29 9 -39t26 -10q11 0 23 4t23 12zM123 707q2 -15 9 -32t20.5 -32t35 -25t53.5 -10t53.5 10t35 25t20.5 32t9 32h14q-1 -28 -7 -55.5t-21 -49.5t-40 -36t-64 -14
t-64 14t-40 36t-21 49.5t-7 55.5h14z" />
    <glyph glyph-name="Aogonek" unicode="&#x104;" horiz-adv-x="741" 
d="M324 597l-110 -291h220zM-1 14h88l270 716h24l272 -716h89v-14h-308v14h111l-105 278h-232l-105 -278h111v-14h-215v14zM577 -168q-19 -15 -40 -23.5t-47 -8.5q-17 0 -33 4t-28.5 12t-20.5 20.5t-8 29.5q0 21 13.5 39.5t35.5 35t50 31t58 28.5h20q-32 -23 -53 -41
t-33 -32t-16.5 -25.5t-4.5 -22.5q0 -18 13.5 -35t41.5 -17q16 0 27.5 6.5t16.5 10.5z" />
    <glyph glyph-name="aogonek" unicode="&#x105;" horiz-adv-x="481" 
d="M303 245h-2q-2 -13 -33 -26l-75 -30q-32 -13 -49 -36.5t-17 -58.5q0 -15 3 -31t11 -28.5t22.5 -20.5t37.5 -8q33 0 53.5 14t31 35t14 45.5t3.5 44.5v100zM478 11q-13 -10 -31 -17.5t-44 -7.5q-48 0 -69.5 20.5t-29.5 57.5h-2q-4 -9 -11 -22.5t-21.5 -26t-38.5 -21
t-61 -8.5q-42 0 -67 9.5t-39 23.5t-18.5 31.5t-4.5 32.5q0 35 14 56t36.5 33.5t50 20.5t55.5 17q33 11 54.5 19t33.5 19.5t16.5 29t4.5 47.5q0 24 -3 43t-11 32.5t-23 20.5t-40 7q-33 0 -54.5 -11.5t-21.5 -37.5q0 -17 3 -33.5t3 -24.5q0 -14 -10 -23.5t-29 -9.5
q-33 0 -41 12t-8 31q0 22 10 42t29.5 35.5t49 24.5t67.5 9q46 0 77 -11.5t50 -31t27 -44t8 -51.5v-249q0 -29 9 -39t26 -10q11 0 23 4t23 12zM459 -168q-19 -15 -40 -23.5t-47 -8.5q-17 0 -33 4t-28.5 12t-20.5 20.5t-8 29.5q0 21 13.5 39.5t35.5 35t50 31t58 28.5h20
q-32 -23 -53 -41t-33 -32t-16.5 -25.5t-4.5 -22.5q0 -18 13.5 -35t41.5 -17q16 0 27.5 6.5t16.5 10.5z" />
    <glyph glyph-name="Cacute" unicode="&#x106;" horiz-adv-x="722" 
d="M671 0h-15q-7 8 -16 14.5t-28 6.5q-15 0 -32.5 -5.5t-40 -12.5t-50.5 -12.5t-62 -5.5q-63 0 -122.5 23t-112.5 75q-49 49 -82 116t-33 155q0 75 27 143t75 120t113 82.5t142 30.5q31 0 55 -6t43 -13.5t35 -13.5t31 -6q20 0 28.5 6.5t15.5 14.5h15v-200h-11q-9 38 -23 75
t-39 65.5t-63.5 46t-95.5 17.5q-53 0 -91 -16.5t-64 -44t-41.5 -64t-23.5 -77t-10.5 -82t-2.5 -78.5q0 -105 17 -174t47.5 -109t73.5 -56t95 -16q67 0 108 19t66 49.5t38 69t23 76.5h11v-213zM443 901q20 24 28.5 32t22.5 8t24 -10.5t10 -24.5q0 -11 -6.5 -17t-11.5 -10
l-171 -122h-14z" />
    <glyph glyph-name="cacute" unicode="&#x107;" horiz-adv-x="481" 
d="M446 110q-3 -11 -11.5 -31.5t-27 -41t-50 -36t-81.5 -15.5q-38 0 -79 12t-75 38.5t-55.5 69.5t-21.5 106q0 49 18.5 91t50 73t74 48.5t90.5 17.5q27 0 55.5 -6.5t52 -20t39 -35t15.5 -52.5q0 -21 -13.5 -34.5t-38.5 -13.5q-17 0 -32.5 7.5t-15.5 25.5q0 14 7 34t7 33
q0 23 -23 35.5t-53 12.5q-22 0 -45.5 -5.5t-43 -27.5t-32 -66t-12.5 -120q0 -43 5.5 -81t20 -66.5t40 -45t66.5 -16.5q44 0 72.5 13t45 31.5t24.5 37.5t12 31zM287 696q20 24 28.5 32t22.5 8t24 -10.5t10 -24.5q0 -11 -6.5 -17t-11.5 -10l-171 -122h-14z" />
    <glyph glyph-name="Ccircumflex" unicode="&#x108;" horiz-adv-x="722" 
d="M671 0h-15q-7 8 -16 14.5t-28 6.5q-15 0 -32.5 -5.5t-40 -12.5t-50.5 -12.5t-62 -5.5q-63 0 -122.5 23t-112.5 75q-49 49 -82 116t-33 155q0 75 27 143t75 120t113 82.5t142 30.5q31 0 55 -6t43 -13.5t35 -13.5t31 -6q20 0 28.5 6.5t15.5 14.5h15v-200h-11q-9 38 -23 75
t-39 65.5t-63.5 46t-95.5 17.5q-53 0 -91 -16.5t-64 -44t-41.5 -64t-23.5 -77t-10.5 -82t-2.5 -78.5q0 -105 17 -174t47.5 -109t73.5 -56t95 -16q67 0 108 19t66 49.5t38 69t23 76.5h11v-213zM399 924h56l113 -167h-14l-127 105l-127 -105h-14z" />
    <glyph glyph-name="ccircumflex" unicode="&#x109;" horiz-adv-x="481" 
d="M446 110q-3 -11 -11.5 -31.5t-27 -41t-50 -36t-81.5 -15.5q-38 0 -79 12t-75 38.5t-55.5 69.5t-21.5 106q0 49 18.5 91t50 73t74 48.5t90.5 17.5q27 0 55.5 -6.5t52 -20t39 -35t15.5 -52.5q0 -21 -13.5 -34.5t-38.5 -13.5q-17 0 -32.5 7.5t-15.5 25.5q0 14 7 34t7 33
q0 23 -23 35.5t-53 12.5q-22 0 -45.5 -5.5t-43 -27.5t-32 -66t-12.5 -120q0 -43 5.5 -81t20 -66.5t40 -45t66.5 -16.5q44 0 72.5 13t45 31.5t24.5 37.5t12 31zM243 719h56l113 -167h-14l-127 105l-127 -105h-14z" />
    <glyph glyph-name="Cdotaccent" unicode="&#x10a;" horiz-adv-x="722" 
d="M671 0h-15q-7 8 -16 14.5t-28 6.5q-15 0 -32.5 -5.5t-40 -12.5t-50.5 -12.5t-62 -5.5q-63 0 -122.5 23t-112.5 75q-49 49 -82 116t-33 155q0 75 27 143t75 120t113 82.5t142 30.5q31 0 55 -6t43 -13.5t35 -13.5t31 -6q20 0 28.5 6.5t15.5 14.5h15v-200h-11q-9 38 -23 75
t-39 65.5t-63.5 46t-95.5 17.5q-53 0 -91 -16.5t-64 -44t-41.5 -64t-23.5 -77t-10.5 -82t-2.5 -78.5q0 -105 17 -174t47.5 -109t73.5 -56t95 -16q67 0 108 19t66 49.5t38 69t23 76.5h11v-213zM365 867q0 19 13.5 32.5t32.5 13.5t32.5 -13.5t13.5 -32.5t-13.5 -32.5
t-32.5 -13.5t-32.5 13.5t-13.5 32.5z" />
    <glyph glyph-name="cdotaccent" unicode="&#x10b;" horiz-adv-x="481" 
d="M446 110q-3 -11 -11.5 -31.5t-27 -41t-50 -36t-81.5 -15.5q-38 0 -79 12t-75 38.5t-55.5 69.5t-21.5 106q0 49 18.5 91t50 73t74 48.5t90.5 17.5q27 0 55.5 -6.5t52 -20t39 -35t15.5 -52.5q0 -21 -13.5 -34.5t-38.5 -13.5q-17 0 -32.5 7.5t-15.5 25.5q0 14 7 34t7 33
q0 23 -23 35.5t-53 12.5q-22 0 -45.5 -5.5t-43 -27.5t-32 -66t-12.5 -120q0 -43 5.5 -81t20 -66.5t40 -45t66.5 -16.5q44 0 72.5 13t45 31.5t24.5 37.5t12 31zM215 662q0 19 13.5 32.5t32.5 13.5t32.5 -13.5t13.5 -32.5t-13.5 -32.5t-32.5 -13.5t-32.5 13.5t-13.5 32.5z" />
    <glyph glyph-name="Ccaron" unicode="&#x10c;" horiz-adv-x="722" 
d="M671 0h-15q-7 8 -16 14.5t-28 6.5q-15 0 -32.5 -5.5t-40 -12.5t-50.5 -12.5t-62 -5.5q-63 0 -122.5 23t-112.5 75q-49 49 -82 116t-33 155q0 75 27 143t75 120t113 82.5t142 30.5q31 0 55 -6t43 -13.5t35 -13.5t31 -6q20 0 28.5 6.5t15.5 14.5h15v-200h-11q-9 38 -23 75
t-39 65.5t-63.5 46t-95.5 17.5q-53 0 -91 -16.5t-64 -44t-41.5 -64t-23.5 -77t-10.5 -82t-2.5 -78.5q0 -105 17 -174t47.5 -109t73.5 -56t95 -16q67 0 108 19t66 49.5t38 69t23 76.5h11v-213zM459 757h-56l-113 167h14l127 -105l127 105h14z" />
    <glyph glyph-name="ccaron" unicode="&#x10d;" horiz-adv-x="481" 
d="M446 110q-3 -11 -11.5 -31.5t-27 -41t-50 -36t-81.5 -15.5q-38 0 -79 12t-75 38.5t-55.5 69.5t-21.5 106q0 49 18.5 91t50 73t74 48.5t90.5 17.5q27 0 55.5 -6.5t52 -20t39 -35t15.5 -52.5q0 -21 -13.5 -34.5t-38.5 -13.5q-17 0 -32.5 7.5t-15.5 25.5q0 14 7 34t7 33
q0 23 -23 35.5t-53 12.5q-22 0 -45.5 -5.5t-43 -27.5t-32 -66t-12.5 -120q0 -43 5.5 -81t20 -66.5t40 -45t66.5 -16.5q44 0 72.5 13t45 31.5t24.5 37.5t12 31zM306 552h-56l-113 167h14l127 -105l127 105h14z" />
    <glyph glyph-name="Dcaron" unicode="&#x10e;" horiz-adv-x="815" 
d="M241 14q17 -2 39.5 -3t49.5 -1q34 0 67.5 3.5t64 15t57 33t47.5 56.5q32 54 44.5 110.5t12.5 123.5q0 79 -15 143.5t-49.5 110t-91.5 70.5t-141 25q-25 0 -45.5 -1t-39.5 -2v-684zM30 14h111v684h-111v14h186q14 0 28 0.5t28 1.5q14 0 28 0.5t28 0.5q30 0 53.5 -1
t44 -3.5t39 -7t39.5 -11.5q61 -20 105.5 -53.5t73 -77.5t42 -96t13.5 -109q0 -66 -16 -118.5t-44 -93t-65.5 -70t-80.5 -47.5q-24 -11 -45.5 -17t-44 -9t-49.5 -4t-62 -1q-15 0 -32 0.5t-34 1.5t-33.5 1.5t-31.5 0.5h-170v14zM394 757h-56l-113 167h14l127 -105l127 105h14z
" />
    <glyph glyph-name="dcaron" unicode="&#x10f;" horiz-adv-x="767" 
d="M152 229q0 -52 3 -94.5t15 -72.5t36 -46t65 -16q42 0 67.5 18t39.5 46.5t19 63.5t5 68q0 39 -1.5 67.5t-5.5 50.5t-11 38t-17 30q-15 20 -39 33t-61 13q-35 0 -57.5 -14t-35 -40t-17.5 -62.5t-5 -82.5zM325 721h163v-707h77v-14h-161v87h-2q-4 -12 -12 -29t-23.5 -33
t-39 -27.5t-57.5 -11.5q-44 0 -83.5 19t-69.5 51t-47.5 73.5t-17.5 87.5q0 45 17 86t46 71.5t67 49t81 18.5q55 0 89 -27t48 -66h2v358h-77v14zM619 459q29 21 47.5 40.5t29 37t14 31.5t3.5 24q0 32 -18 52q-17 -25 -43 -25q-19 0 -37 14t-18 40q0 23 17.5 40t43.5 17
q19 0 34.5 -9t26.5 -23t16.5 -33t5.5 -38q0 -29 -12 -57.5t-29 -52.5t-37 -42t-35 -28z" />
    <glyph glyph-name="Dcroat" unicode="&#x110;" horiz-adv-x="815" 
d="M241 389h148v-14h-148v-361q17 -2 39.5 -3t49.5 -1q34 0 67.5 3.5t64 15t57 33t47.5 56.5q32 54 44.5 110.5t12.5 123.5q0 79 -15 143.5t-49.5 110t-91.5 70.5t-141 25q-25 0 -45.5 -1t-39.5 -2v-309zM30 14h111v361h-111v14h111v309h-111v14h186q14 0 28 0.5t28 1.5
q14 0 28 0.5t28 0.5q30 0 53.5 -1t44 -3.5t39 -7t39.5 -11.5q61 -20 105.5 -53.5t73 -77.5t42 -96t13.5 -109q0 -66 -16 -118.5t-44 -93t-65.5 -70t-80.5 -47.5q-24 -11 -45.5 -17t-44 -9t-49.5 -4t-62 -1q-15 0 -32 0.5t-34 1.5t-33.5 1.5t-31.5 0.5h-170v14z" />
    <glyph glyph-name="dcroat" unicode="&#x111;" horiz-adv-x="652" 
d="M152 229q0 -52 3 -94.5t15 -72.5t36 -46t65 -16q42 0 67.5 18t39.5 46.5t19 63.5t5 68q0 39 -1.5 67.5t-5.5 50.5t-11 38t-17 30q-15 20 -39 33t-61 13q-35 0 -57.5 -14t-35 -40t-17.5 -62.5t-5 -82.5zM325 721h163v-707h77v-14h-161v87h-2q-4 -12 -12 -29t-23.5 -33
t-39 -27.5t-57.5 -11.5q-44 0 -83.5 19t-69.5 51t-47.5 73.5t-17.5 87.5q0 45 17 86t46 71.5t67 49t81 18.5q55 0 89 -27t48 -66h2v358h-77v14zM242 615h375v-31h-375v31z" />
    <glyph glyph-name="Emacron" unicode="&#x112;" horiz-adv-x="704" 
d="M30 14h111v684h-111v14h572v-173h-11q-13 39 -28 68.5t-36 50t-50 30.5t-70 10h-166v-309h65q33 0 56 6t39.5 22.5t28 45t22.5 73.5h11v-311h-11q-7 29 -14.5 56t-21 48t-36 33.5t-58.5 12.5h-81v-361h189q55 0 91.5 23.5t59.5 56t34 67.5t14 58h11v-219h-610v14z
M246 838h280v-31h-280v31z" />
    <glyph glyph-name="emacron" unicode="&#x113;" horiz-adv-x="500" 
d="M352 262q2 14 2 26v25q0 34 -6.5 56t-18 35t-28 18.5t-35.5 5.5q-34 0 -56 -13.5t-35 -36.5t-19.5 -53t-8.5 -63h205zM146 248q0 -10 -0.5 -20.5t-0.5 -26.5q0 -33 4 -69t17.5 -65t40 -48t70.5 -19t72.5 13t45 31.5t24.5 37.5t12 31l15 -3q-3 -11 -11.5 -31.5t-27 -41
t-50 -36t-81.5 -15.5t-92.5 16t-73.5 46t-48 71.5t-17 92.5q0 44 17.5 85.5t48 73.5t71.5 51.5t88 19.5q28 0 60 -10t59.5 -32.5t46 -59.5t18.5 -92h-308zM125 633h280v-31h-280v31z" />
    <glyph glyph-name="Ebreve" unicode="&#x114;" horiz-adv-x="704" 
d="M30 14h111v684h-111v14h572v-173h-11q-13 39 -28 68.5t-36 50t-50 30.5t-70 10h-166v-309h65q33 0 56 6t39.5 22.5t28 45t22.5 73.5h11v-311h-11q-7 29 -14.5 56t-21 48t-36 33.5t-58.5 12.5h-81v-361h189q55 0 91.5 23.5t59.5 56t34 67.5t14 58h11v-219h-610v14z
M238 912q2 -15 9 -32t20.5 -32t35 -25t53.5 -10t53.5 10t35 25t20.5 32t9 32h14q-1 -28 -7 -55.5t-21 -49.5t-40 -36t-64 -14t-64 14t-40 36t-21 49.5t-7 55.5h14z" />
    <glyph glyph-name="ebreve" unicode="&#x115;" horiz-adv-x="500" 
d="M352 262q2 14 2 26v25q0 34 -6.5 56t-18 35t-28 18.5t-35.5 5.5q-34 0 -56 -13.5t-35 -36.5t-19.5 -53t-8.5 -63h205zM146 248q0 -10 -0.5 -20.5t-0.5 -26.5q0 -33 4 -69t17.5 -65t40 -48t70.5 -19t72.5 13t45 31.5t24.5 37.5t12 31l15 -3q-3 -11 -11.5 -31.5t-27 -41
t-50 -36t-81.5 -15.5t-92.5 16t-73.5 46t-48 71.5t-17 92.5q0 44 17.5 85.5t48 73.5t71.5 51.5t88 19.5q28 0 60 -10t59.5 -32.5t46 -59.5t18.5 -92h-308zM153 707q2 -15 9 -32t20.5 -32t35 -25t53.5 -10t53.5 10t35 25t20.5 32t9 32h14q-1 -28 -7 -55.5t-21 -49.5t-40 -36
t-64 -14t-64 14t-40 36t-21 49.5t-7 55.5h14z" />
    <glyph glyph-name="Edotaccent" unicode="&#x116;" horiz-adv-x="704" 
d="M30 14h111v684h-111v14h572v-173h-11q-13 39 -28 68.5t-36 50t-50 30.5t-70 10h-166v-309h65q33 0 56 6t39.5 22.5t28 45t22.5 73.5h11v-311h-11q-7 29 -14.5 56t-21 48t-36 33.5t-58.5 12.5h-81v-361h189q55 0 91.5 23.5t59.5 56t34 67.5t14 58h11v-219h-610v14z
M310 867q0 19 13.5 32.5t32.5 13.5t32.5 -13.5t13.5 -32.5t-13.5 -32.5t-32.5 -13.5t-32.5 13.5t-13.5 32.5z" />
    <glyph glyph-name="edotaccent" unicode="&#x117;" horiz-adv-x="500" 
d="M352 262q2 14 2 26v25q0 34 -6.5 56t-18 35t-28 18.5t-35.5 5.5q-34 0 -56 -13.5t-35 -36.5t-19.5 -53t-8.5 -63h205zM146 248q0 -10 -0.5 -20.5t-0.5 -26.5q0 -33 4 -69t17.5 -65t40 -48t70.5 -19t72.5 13t45 31.5t24.5 37.5t12 31l15 -3q-3 -11 -11.5 -31.5t-27 -41
t-50 -36t-81.5 -15.5t-92.5 16t-73.5 46t-48 71.5t-17 92.5q0 44 17.5 85.5t48 73.5t71.5 51.5t88 19.5q28 0 60 -10t59.5 -32.5t46 -59.5t18.5 -92h-308zM222 662q0 19 13.5 32.5t32.5 13.5t32.5 -13.5t13.5 -32.5t-13.5 -32.5t-32.5 -13.5t-32.5 13.5t-13.5 32.5z" />
    <glyph glyph-name="Eogonek" unicode="&#x118;" horiz-adv-x="704" 
d="M30 14h111v684h-111v14h572v-173h-11q-13 39 -28 68.5t-36 50t-50 30.5t-70 10h-166v-309h65q33 0 56 6t39.5 22.5t28 45t22.5 73.5h11v-311h-11q-7 29 -14.5 56t-21 48t-36 33.5t-58.5 12.5h-81v-361h189q55 0 91.5 23.5t59.5 56t34 67.5t14 58h11v-219h-610v14z
M534 -168q-19 -15 -40 -23.5t-47 -8.5q-17 0 -33 4t-28.5 12t-20.5 20.5t-8 29.5q0 21 13.5 39.5t35.5 35t50 31t58 28.5h20q-32 -23 -53 -41t-33 -32t-16.5 -25.5t-4.5 -22.5q0 -18 13.5 -35t41.5 -17q16 0 27.5 6.5t16.5 10.5z" />
    <glyph glyph-name="eogonek" unicode="&#x119;" horiz-adv-x="500" 
d="M352 262q2 14 2 26v25q0 34 -6.5 56t-18 35t-28 18.5t-35.5 5.5q-34 0 -56 -13.5t-35 -36.5t-19.5 -53t-8.5 -63h205zM146 248q0 -10 -0.5 -20.5t-0.5 -26.5q0 -33 4 -69t17.5 -65t40 -48t70.5 -19t72.5 13t45 31.5t24.5 37.5t12 31l15 -3q-3 -11 -11.5 -31.5t-27 -41
t-50 -36t-81.5 -15.5t-92.5 16t-73.5 46t-48 71.5t-17 92.5q0 44 17.5 85.5t48 73.5t71.5 51.5t88 19.5q28 0 60 -10t59.5 -32.5t46 -59.5t18.5 -92h-308zM347 -168q-19 -15 -40 -23.5t-47 -8.5q-17 0 -33 4t-28.5 12t-20.5 20.5t-8 29.5q0 21 13.5 39.5t35.5 35t50 31
t58 28.5h20q-32 -23 -53 -41t-33 -32t-16.5 -25.5t-4.5 -22.5q0 -18 13.5 -35t41.5 -17q16 0 27.5 6.5t16.5 10.5z" />
    <glyph glyph-name="Ecaron" unicode="&#x11a;" horiz-adv-x="704" 
d="M30 14h111v684h-111v14h572v-173h-11q-13 39 -28 68.5t-36 50t-50 30.5t-70 10h-166v-309h65q33 0 56 6t39.5 22.5t28 45t22.5 73.5h11v-311h-11q-7 29 -14.5 56t-21 48t-36 33.5t-58.5 12.5h-81v-361h189q55 0 91.5 23.5t59.5 56t34 67.5t14 58h11v-219h-610v14z
M401 757h-56l-113 167h14l127 -105l127 105h14z" />
    <glyph glyph-name="ecaron" unicode="&#x11b;" horiz-adv-x="500" 
d="M352 262q2 14 2 26v25q0 34 -6.5 56t-18 35t-28 18.5t-35.5 5.5q-34 0 -56 -13.5t-35 -36.5t-19.5 -53t-8.5 -63h205zM146 248q0 -10 -0.5 -20.5t-0.5 -26.5q0 -33 4 -69t17.5 -65t40 -48t70.5 -19t72.5 13t45 31.5t24.5 37.5t12 31l15 -3q-3 -11 -11.5 -31.5t-27 -41
t-50 -36t-81.5 -15.5t-92.5 16t-73.5 46t-48 71.5t-17 92.5q0 44 17.5 85.5t48 73.5t71.5 51.5t88 19.5q28 0 60 -10t59.5 -32.5t46 -59.5t18.5 -92h-308zM296 552h-56l-113 167h14l127 -105l127 105h14z" />
    <glyph glyph-name="Gcircumflex" unicode="&#x11c;" horiz-adv-x="796" 
d="M774 255h-80v-227h-12q-11 11 -18 15t-22 4q-18 0 -36.5 -9.5t-43 -21.5t-57.5 -21.5t-80 -9.5q-71 0 -126 23.5t-106 74.5q-50 50 -83 118t-33 153q0 57 13 102.5t31.5 79.5t38 57t32.5 36q45 45 103 73t132 28q38 0 62.5 -6t42.5 -13.5t32.5 -13.5t32.5 -6
q20 0 28.5 5.5t16.5 15.5h15v-200h-11q-4 26 -15.5 61t-36 67t-65 54t-103.5 22q-75 0 -120.5 -31.5t-71 -83t-34 -116.5t-8.5 -131q0 -45 4 -90t13.5 -85t26.5 -74t44 -58q30 -27 62 -37.5t83 -10.5q31 0 62 10.5t55.5 31.5t40 53.5t15.5 76.5v84h-129v14h305v-14zM389 924
h56l113 -167h-14l-127 105l-127 -105h-14z" />
    <glyph glyph-name="gcircumflex" unicode="&#x11d;" horiz-adv-x="519" 
d="M194 -30q-13 -8 -26.5 -16.5t-24 -21.5t-17 -30.5t-6.5 -43.5q0 -36 12.5 -59.5t32 -38t43.5 -20.5t47 -6q36 0 65.5 11t51 29.5t33 42.5t11.5 50q0 56 -30.5 79.5t-83.5 23.5h-108zM356 295q0 23 -3 46.5t-12.5 43t-29 31.5t-52.5 12q-51 0 -77 -31t-26 -102
q0 -30 4.5 -54t16.5 -41.5t32 -26.5t51 -9q52 0 74 32.5t22 98.5zM44 65q0 27 10 46.5t24.5 34t31 23.5t29.5 15q-58 40 -58 108q0 35 17 63t43 47.5t57.5 29.5t60.5 10q45 0 77.5 -18t47.5 -33q11 19 32.5 35t53.5 16q20 0 37 -8.5t17 -36.5q0 -18 -11.5 -27t-23.5 -9
q-14 0 -20 8t-10.5 17t-9.5 17t-15 8t-20.5 -8.5t-18.5 -19.5q9 -10 23 -34t14 -60q0 -30 -15 -55t-39.5 -44t-57 -29.5t-66.5 -10.5q-35 0 -61 9.5t-40 16.5q-11 -5 -23.5 -11t-23 -15t-17.5 -21.5t-7 -28.5q0 -15 6 -25t15.5 -15t21.5 -7t25 -2h158q70 0 111.5 -33.5
t41.5 -105.5q0 -44 -19 -80t-50.5 -62.5t-72.5 -41t-84 -14.5q-39 0 -71.5 9t-56.5 24.5t-37.5 37.5t-13.5 49q0 26 10.5 47.5t27 38t37.5 28.5t42 20v2q-66 0 -97.5 21.5t-31.5 73.5zM236 719h56l113 -167h-14l-127 105l-127 -105h-14z" />
    <glyph glyph-name="Gbreve" unicode="&#x11e;" horiz-adv-x="796" 
d="M774 255h-80v-227h-12q-11 11 -18 15t-22 4q-18 0 -36.5 -9.5t-43 -21.5t-57.5 -21.5t-80 -9.5q-71 0 -126 23.5t-106 74.5q-50 50 -83 118t-33 153q0 57 13 102.5t31.5 79.5t38 57t32.5 36q45 45 103 73t132 28q38 0 62.5 -6t42.5 -13.5t32.5 -13.5t32.5 -6
q20 0 28.5 5.5t16.5 15.5h15v-200h-11q-4 26 -15.5 61t-36 67t-65 54t-103.5 22q-75 0 -120.5 -31.5t-71 -83t-34 -116.5t-8.5 -131q0 -45 4 -90t13.5 -85t26.5 -74t44 -58q30 -27 62 -37.5t83 -10.5q31 0 62 10.5t55.5 31.5t40 53.5t15.5 76.5v84h-129v14h305v-14zM306 911
q2 -15 9 -32t20.5 -32t35 -25t53.5 -10t53.5 10t35 25t20.5 32t9 32h14q-1 -28 -7 -55.5t-21 -49.5t-40 -36t-64 -14t-64 14t-40 36t-21 49.5t-7 55.5h14z" />
    <glyph glyph-name="gbreve" unicode="&#x11f;" horiz-adv-x="519" 
d="M194 -30q-13 -8 -26.5 -16.5t-24 -21.5t-17 -30.5t-6.5 -43.5q0 -36 12.5 -59.5t32 -38t43.5 -20.5t47 -6q36 0 65.5 11t51 29.5t33 42.5t11.5 50q0 56 -30.5 79.5t-83.5 23.5h-108zM356 295q0 23 -3 46.5t-12.5 43t-29 31.5t-52.5 12q-51 0 -77 -31t-26 -102
q0 -30 4.5 -54t16.5 -41.5t32 -26.5t51 -9q52 0 74 32.5t22 98.5zM44 65q0 27 10 46.5t24.5 34t31 23.5t29.5 15q-58 40 -58 108q0 35 17 63t43 47.5t57.5 29.5t60.5 10q45 0 77.5 -18t47.5 -33q11 19 32.5 35t53.5 16q20 0 37 -8.5t17 -36.5q0 -18 -11.5 -27t-23.5 -9
q-14 0 -20 8t-10.5 17t-9.5 17t-15 8t-20.5 -8.5t-18.5 -19.5q9 -10 23 -34t14 -60q0 -30 -15 -55t-39.5 -44t-57 -29.5t-66.5 -10.5q-35 0 -61 9.5t-40 16.5q-11 -5 -23.5 -11t-23 -15t-17.5 -21.5t-7 -28.5q0 -15 6 -25t15.5 -15t21.5 -7t25 -2h158q70 0 111.5 -33.5
t41.5 -105.5q0 -44 -19 -80t-50.5 -62.5t-72.5 -41t-84 -14.5q-39 0 -71.5 9t-56.5 24.5t-37.5 37.5t-13.5 49q0 26 10.5 47.5t27 38t37.5 28.5t42 20v2q-66 0 -97.5 21.5t-31.5 73.5zM139 707q2 -15 9 -32t20.5 -32t35 -25t53.5 -10t53.5 10t35 25t20.5 32t9 32h14
q-1 -28 -7 -55.5t-21 -49.5t-40 -36t-64 -14t-64 14t-40 36t-21 49.5t-7 55.5h14z" />
    <glyph glyph-name="Gdotaccent" unicode="&#x120;" horiz-adv-x="796" 
d="M774 255h-80v-227h-12q-11 11 -18 15t-22 4q-18 0 -36.5 -9.5t-43 -21.5t-57.5 -21.5t-80 -9.5q-71 0 -126 23.5t-106 74.5q-50 50 -83 118t-33 153q0 57 13 102.5t31.5 79.5t38 57t32.5 36q45 45 103 73t132 28q38 0 62.5 -6t42.5 -13.5t32.5 -13.5t32.5 -6
q20 0 28.5 5.5t16.5 15.5h15v-200h-11q-4 26 -15.5 61t-36 67t-65 54t-103.5 22q-75 0 -120.5 -31.5t-71 -83t-34 -116.5t-8.5 -131q0 -45 4 -90t13.5 -85t26.5 -74t44 -58q30 -27 62 -37.5t83 -10.5q31 0 62 10.5t55.5 31.5t40 53.5t15.5 76.5v84h-129v14h305v-14zM378 867
q0 19 13.5 32.5t32.5 13.5t32.5 -13.5t13.5 -32.5t-13.5 -32.5t-32.5 -13.5t-32.5 13.5t-13.5 32.5z" />
    <glyph glyph-name="gdotaccent" unicode="&#x121;" horiz-adv-x="519" 
d="M194 -30q-13 -8 -26.5 -16.5t-24 -21.5t-17 -30.5t-6.5 -43.5q0 -36 12.5 -59.5t32 -38t43.5 -20.5t47 -6q36 0 65.5 11t51 29.5t33 42.5t11.5 50q0 56 -30.5 79.5t-83.5 23.5h-108zM356 295q0 23 -3 46.5t-12.5 43t-29 31.5t-52.5 12q-51 0 -77 -31t-26 -102
q0 -30 4.5 -54t16.5 -41.5t32 -26.5t51 -9q52 0 74 32.5t22 98.5zM44 65q0 27 10 46.5t24.5 34t31 23.5t29.5 15q-58 40 -58 108q0 35 17 63t43 47.5t57.5 29.5t60.5 10q45 0 77.5 -18t47.5 -33q11 19 32.5 35t53.5 16q20 0 37 -8.5t17 -36.5q0 -18 -11.5 -27t-23.5 -9
q-14 0 -20 8t-10.5 17t-9.5 17t-15 8t-20.5 -8.5t-18.5 -19.5q9 -10 23 -34t14 -60q0 -30 -15 -55t-39.5 -44t-57 -29.5t-66.5 -10.5q-35 0 -61 9.5t-40 16.5q-11 -5 -23.5 -11t-23 -15t-17.5 -21.5t-7 -28.5q0 -15 6 -25t15.5 -15t21.5 -7t25 -2h158q70 0 111.5 -33.5
t41.5 -105.5q0 -44 -19 -80t-50.5 -62.5t-72.5 -41t-84 -14.5q-39 0 -71.5 9t-56.5 24.5t-37.5 37.5t-13.5 49q0 26 10.5 47.5t27 38t37.5 28.5t42 20v2q-66 0 -97.5 21.5t-31.5 73.5zM216 702q0 19 13.5 32.5t32.5 13.5t32.5 -13.5t13.5 -32.5t-13.5 -32.5t-32.5 -13.5
t-32.5 13.5t-13.5 32.5z" />
    <glyph glyph-name="Gcedilla" unicode="&#x122;" horiz-adv-x="796" 
d="M774 255h-80v-227h-12q-11 11 -18 15t-22 4q-18 0 -36.5 -9.5t-43 -21.5t-57.5 -21.5t-80 -9.5q-71 0 -126 23.5t-106 74.5q-50 50 -83 118t-33 153q0 57 13 102.5t31.5 79.5t38 57t32.5 36q45 45 103 73t132 28q38 0 62.5 -6t42.5 -13.5t32.5 -13.5t32.5 -6
q20 0 28.5 5.5t16.5 15.5h15v-200h-11q-4 26 -15.5 61t-36 67t-65 54t-103.5 22q-75 0 -120.5 -31.5t-71 -83t-34 -116.5t-8.5 -131q0 -45 4 -90t13.5 -85t26.5 -74t44 -58q30 -27 62 -37.5t83 -10.5q31 0 62 10.5t55.5 31.5t40 53.5t15.5 76.5v84h-129v14h305v-14zM441 0
h20l-69 -72l2 -2q8 6 20 10t29 4q8 0 21.5 -3.5t27 -13t23.5 -26.5t10 -44q0 -45 -31.5 -70t-73.5 -25q-23 0 -43 9t-34 21l8 12q11 -8 27 -16.5t39 -8.5q16 0 26 7.5t15.5 18.5t7.5 25t2 28q0 26 -9.5 46t-37.5 20q-15 0 -24 -4t-16 -9l-14 15z" />
    <glyph glyph-name="gcedilla" unicode="&#x123;" horiz-adv-x="519" 
d="M194 -30q-13 -8 -26.5 -16.5t-24 -21.5t-17 -30.5t-6.5 -43.5q0 -36 12.5 -59.5t32 -38t43.5 -20.5t47 -6q36 0 65.5 11t51 29.5t33 42.5t11.5 50q0 56 -30.5 79.5t-83.5 23.5h-108zM356 295q0 23 -3 46.5t-12.5 43t-29 31.5t-52.5 12q-51 0 -77 -31t-26 -102
q0 -30 4.5 -54t16.5 -41.5t32 -26.5t51 -9q52 0 74 32.5t22 98.5zM44 65q0 27 10 46.5t24.5 34t31 23.5t29.5 15q-58 40 -58 108q0 35 17 63t43 47.5t57.5 29.5t60.5 10q45 0 77.5 -18t47.5 -33q11 19 32.5 35t53.5 16q20 0 37 -8.5t17 -36.5q0 -18 -11.5 -27t-23.5 -9
q-14 0 -20 8t-10.5 17t-9.5 17t-15 8t-20.5 -8.5t-18.5 -19.5q9 -10 23 -34t14 -60q0 -30 -15 -55t-39.5 -44t-57 -29.5t-66.5 -10.5q-35 0 -61 9.5t-40 16.5q-11 -5 -23.5 -11t-23 -15t-17.5 -21.5t-7 -28.5q0 -15 6 -25t15.5 -15t21.5 -7t25 -2h158q70 0 111.5 -33.5
t41.5 -105.5q0 -44 -19 -80t-50.5 -62.5t-72.5 -41t-84 -14.5q-39 0 -71.5 9t-56.5 24.5t-37.5 37.5t-13.5 49q0 26 10.5 47.5t27 38t37.5 28.5t42 20v2q-66 0 -97.5 21.5t-31.5 73.5zM301 776q-29 -21 -47.5 -41t-29 -37t-14 -31t-3.5 -24q0 -33 18 -52q17 25 43 25
q19 0 37 -14t18 -40q0 -23 -17.5 -40t-43.5 -17q-20 0 -35 9t-26 23t-16.5 32.5t-5.5 38.5q0 29 12 57t29 52t37 42.5t35 28.5z" />
    <glyph glyph-name="Hcircumflex" unicode="&#x124;" horiz-adv-x="815" 
d="M30 14h111v684h-111v14h322v-14h-111v-327h333v327h-111v14h322v-14h-111v-684h111v-14h-322v14h111v343h-333v-343h111v-14h-322v14zM389 924h56l113 -167h-14l-127 105l-127 -105h-14z" />
    <glyph glyph-name="hcircumflex" unicode="&#x125;" horiz-adv-x="611" 
d="M25 14h77v693h-77v14h163v-393h2q5 13 17 32.5t32.5 37t50 30t70.5 12.5q66 0 107.5 -32t41.5 -102v-292h77v-14h-240v14h77v323q0 39 -18.5 64t-57.5 25q-32 0 -61 -14t-51 -39t-34.5 -59t-12.5 -74v-226h77v-14h-240v14zM111 924h56l113 -167h-14l-127 105l-127 -105
h-14z" />
    <glyph glyph-name="Hbar" unicode="&#x126;" horiz-adv-x="815" 
d="M30 14h111v684h-111v14h322v-14h-111v-327h333v327h-111v14h322v-14h-111v-684h111v-14h-322v14h111v343h-333v-343h111v-14h-322v14zM-32 565h875v-31h-875v31z" />
    <glyph glyph-name="hbar" unicode="&#x127;" horiz-adv-x="611" 
d="M25 14h77v693h-77v14h163v-393h2q5 13 17 32.5t32.5 37t50 30t70.5 12.5q66 0 107.5 -32t41.5 -102v-292h77v-14h-240v14h77v323q0 39 -18.5 64t-57.5 25q-32 0 -61 -14t-51 -39t-34.5 -59t-12.5 -74v-226h77v-14h-240v14zM-38 595h375v-31h-375v31z" />
    <glyph glyph-name="Itilde" unicode="&#x128;" horiz-adv-x="388" 
d="M33 14h111v684h-111v14h322v-14h-111v-684h111v-14h-322v14zM352 883q-1 -5 -6 -21.5t-17 -34.5t-31 -32t-47 -14q-21 0 -38 7.5t-34 16.5l-31 15.5t-32 7.5t-28 -5.5t-18 -13.5t-11 -16t-5 -12h-14q4 23 14 41.5t23.5 31t28.5 19.5t30 7q17 0 34 -7.5t35 -15.5
q17 -9 34 -16.5t34 -7.5q16 0 28 6.5t19.5 15.5t12 17t5.5 11h14z" />
    <glyph glyph-name="itilde" unicode="&#x129;" horiz-adv-x="296" 
d="M28 14h77v401h-77v14h163v-415h77v-14h-240v14zM295 678q-1 -5 -6 -21.5t-17 -34.5t-31 -32t-47 -14q-21 0 -38 7.5t-34 16.5l-31 15.5t-32 7.5t-28 -5.5t-18 -13.5t-11 -16t-5 -12h-14q4 23 14 41.5t23.5 31t28.5 19.5t30 7q17 0 34 -7.5t35 -15.5q17 -9 34 -16.5
t34 -7.5q16 0 28 6.5t19.5 15.5t12 17t5.5 11h14z" />
    <glyph glyph-name="Imacron" unicode="&#x12a;" horiz-adv-x="388" 
d="M33 14h111v684h-111v14h322v-14h-111v-684h111v-14h-322v14zM57 838h280v-31h-280v31z" />
    <glyph glyph-name="imacron" unicode="&#x12b;" horiz-adv-x="296" 
d="M28 14h77v401h-77v14h163v-415h77v-14h-240v14zM-1 633h280v-31h-280v31z" />
    <glyph glyph-name="Ibreve" unicode="&#x12c;" horiz-adv-x="388" 
d="M33 14h111v684h-111v14h322v-14h-111v-684h111v-14h-322v14zM72 935q2 -15 9 -32t20.5 -32t35 -25t53.5 -10t53.5 10t35 25t20.5 32t9 32h14q-1 -28 -7 -55.5t-21 -49.5t-40 -36t-64 -14t-64 14t-40 36t-21 49.5t-7 55.5h14z" />
    <glyph glyph-name="ibreve" unicode="&#x12d;" horiz-adv-x="296" 
d="M28 14h77v401h-77v14h163v-415h77v-14h-240v14zM28 656q2 -15 9 -32t20.5 -32t35 -25t53.5 -10t53.5 10t35 25t20.5 32t9 32h14q-1 -28 -7 -55.5t-21 -49.5t-40 -36t-64 -14t-64 14t-40 36t-21 49.5t-7 55.5h14z" />
    <glyph glyph-name="Iogonek" unicode="&#x12e;" horiz-adv-x="388" 
d="M33 14h111v684h-111v14h322v-14h-111v-684h111v-14h-322v14zM245 -168q-19 -15 -40 -23.5t-47 -8.5q-17 0 -33 4t-28.5 12t-20.5 20.5t-8 29.5q0 21 13.5 39.5t35.5 35t50 31t58 28.5h20q-32 -23 -53 -41t-33 -32t-16.5 -25.5t-4.5 -22.5q0 -18 13.5 -35t41.5 -17
q16 0 27.5 6.5t16.5 10.5z" />
    <glyph glyph-name="iogonek" unicode="&#x12f;" horiz-adv-x="296" 
d="M93 662q0 22 15.5 37.5t37.5 15.5t37.5 -15.5t15.5 -37.5t-15.5 -37.5t-37.5 -15.5t-37.5 15.5t-15.5 37.5zM28 14h77v401h-77v14h163v-415h77v-14h-240v14zM245 -168q-19 -15 -40 -23.5t-47 -8.5q-17 0 -33 4t-28.5 12t-20.5 20.5t-8 29.5q0 21 13.5 39.5t35.5 35t50 31
t58 28.5h20q-32 -23 -53 -41t-33 -32t-16.5 -25.5t-4.5 -22.5q0 -18 13.5 -35t41.5 -17q16 0 27.5 6.5t16.5 10.5z" />
    <glyph glyph-name="Idotaccent" unicode="&#x130;" horiz-adv-x="388" 
d="M33 14h111v684h-111v14h322v-14h-111v-684h111v-14h-322v14zM147 867q0 19 13.5 32.5t32.5 13.5t32.5 -13.5t13.5 -32.5t-13.5 -32.5t-32.5 -13.5t-32.5 13.5t-13.5 32.5z" />
    <glyph glyph-name="dotlessi" unicode="&#x131;" horiz-adv-x="296" 
d="M28 14h77v401h-77v14h163v-415h77v-14h-240v14z" />
    <glyph glyph-name="IJ" unicode="&#x132;" horiz-adv-x="815" 
d="M33 14h111v684h-111v14h322v-14h-111v-684h111v-14h-322v14zM676 183q0 -41 -8.5 -77t-28 -63t-51.5 -42.5t-78 -15.5q-32 0 -59 7.5t-47 22t-31.5 34.5t-11.5 45q0 30 17 48.5t50 18.5q15 0 25 -5t15.5 -11.5t8 -14.5t2.5 -14q0 -11 -3 -19l-6 -16t-6 -17t-3 -23
q0 -23 13.5 -32.5t36.5 -9.5q29 0 47 21.5t18 75.5v602h-111v14h322v-14h-111v-515z" />
    <glyph glyph-name="ij" unicode="&#x133;" horiz-adv-x="591" 
d="M93 662q0 22 15.5 37.5t37.5 15.5t37.5 -15.5t15.5 -37.5t-15.5 -37.5t-37.5 -15.5t-37.5 15.5t-15.5 37.5zM28 14h77v401h-77v14h163v-415h77v-14h-240v14zM433 662q0 22 15.5 37.5t37.5 15.5t37.5 -15.5t15.5 -37.5t-15.5 -37.5t-37.5 -15.5t-37.5 15.5t-15.5 37.5z
M368 429h163v-449q0 -48 -2.5 -79.5t-6.5 -51.5t-9 -31.5t-10 -21.5q-12 -24 -27.5 -40t-32 -25.5t-33.5 -13t-31 -3.5q-16 0 -35 5.5t-35.5 16.5t-28 28.5t-11.5 40.5q0 24 13 36t32 12q18 0 27 -9.5t9 -25.5q0 -12 -3.5 -23t-3.5 -28q0 -20 13 -29.5t29 -9.5
q29 0 44.5 23.5t15.5 75.5v588h-77v14z" />
    <glyph glyph-name="Jcircumflex" unicode="&#x134;" horiz-adv-x="463" 
d="M329 183q0 -41 -8.5 -77t-28 -63t-51.5 -42.5t-78 -15.5q-32 0 -59 7.5t-47 22t-31.5 34.5t-11.5 45q0 30 17 48.5t50 18.5q15 0 25 -5t15.5 -11.5t8 -14.5t2.5 -14q0 -11 -3 -19l-6 -16t-6 -17t-3 -23q0 -23 13.5 -32.5t36.5 -9.5q29 0 47 21.5t18 75.5v602h-111v14h322
v-14h-111v-515zM250 924h56l113 -167h-14l-127 105l-127 -105h-14z" />
    <glyph glyph-name="jcircumflex" unicode="&#x135;" horiz-adv-x="296" 
d="M28 429h163v-448q0 -48 -2.5 -79.5t-6.5 -51.5t-9 -31.5t-10 -21.5q-12 -24 -27.5 -40t-32 -25.5t-33.5 -13t-31 -3.5q-16 0 -34.5 5.5t-35 16.5t-28 28.5t-11.5 40.5q0 24 13 36t32 12q18 0 26.5 -9.5t8.5 -25.5q0 -12 -3.5 -23t-3.5 -28q0 -20 13 -29.5t29 -9.5
q29 0 44.5 23.5t15.5 75.5v587h-77v14zM111 719h56l113 -167h-14l-127 105l-127 -105h-14z" />
    <glyph glyph-name="Kcedilla" unicode="&#x136;" horiz-adv-x="741" 
d="M30 14h111v684h-111v14h314v-14h-103v-318h10l302 318h-104v14h207v-14h-83l-254 -269l363 -415h66v-14h-289v14h90l-300 352h-8v-352h103v-14h-314v14zM610 0h20l-69 -72l2 -2q8 6 20 10t29 4q8 0 21.5 -3.5t27 -13t23.5 -26.5t10 -44q0 -45 -31.5 -70t-73.5 -25
q-23 0 -43 9t-34 21l8 12q11 -8 27 -16.5t39 -8.5q16 0 26 7.5t15.5 18.5t7.5 25t2 28q0 26 -9.5 46t-37.5 20q-15 0 -24 -4t-16 -9l-14 15z" />
    <glyph glyph-name="kcedilla" unicode="&#x137;" horiz-adv-x="537" 
d="M28 14h77v693h-77v14h163v-478h11l199 172h-71v14h155v-14h-60l-156 -134l221 -267h43v-14h-225v14h71l-177 215h-11v-215h55v-14h-218v14zM451 0h20l-69 -72l2 -2q8 6 20 10t29 4q8 0 21.5 -3.5t27 -13t23.5 -26.5t10 -44q0 -45 -31.5 -70t-73.5 -25q-23 0 -43 9t-34 21
l8 12q11 -8 27 -16.5t39 -8.5q16 0 26 7.5t15.5 18.5t7.5 25t2 28q0 26 -9.5 46t-37.5 20q-15 0 -24 -4t-16 -9l-14 15z" />
    <glyph glyph-name="kgreenlandic" unicode="&#x138;" horiz-adv-x="537" 
d="M28 14h77v401h-77v14h163v-186h11l199 172h-71v14h155v-14h-60l-156 -134l221 -267h43v-14h-225v14h71l-177 215h-11v-215h55v-14h-218v14z" />
    <glyph glyph-name="Lacute" unicode="&#x139;" horiz-adv-x="685" 
d="M30 14h111v684h-111v14h322v-14h-111v-684h178q88 0 138 55t73 150h11v-219h-611v14zM215 901q20 24 28.5 32t22.5 8t24 -10.5t10 -24.5q0 -11 -6.5 -17t-11.5 -10l-171 -122h-14z" />
    <glyph glyph-name="lacute" unicode="&#x13a;" horiz-adv-x="296" 
d="M28 14h77v693h-77v14h163v-707h77v-14h-240v14zM170 901q20 24 28.5 32t22.5 8t24 -10.5t10 -24.5q0 -11 -6.5 -17t-11.5 -10l-171 -122h-14z" />
    <glyph glyph-name="Lcedilla" unicode="&#x13b;" horiz-adv-x="685" 
d="M30 14h111v684h-111v14h322v-14h-111v-684h178q88 0 138 55t73 150h11v-219h-611v14zM387 0h20l-69 -72l2 -2q8 6 20 10t29 4q8 0 21.5 -3.5t27 -13t23.5 -26.5t10 -44q0 -45 -31.5 -70t-73.5 -25q-23 0 -43 9t-34 21l8 12q11 -8 27 -16.5t39 -8.5q16 0 26 7.5t15.5 18.5
t7.5 25t2 28q0 26 -9.5 46t-37.5 20q-15 0 -24 -4t-16 -9l-14 15z" />
    <glyph glyph-name="lcedilla" unicode="&#x13c;" horiz-adv-x="296" 
d="M28 14h77v693h-77v14h163v-707h77v-14h-240v14zM186 0h20l-69 -72l2 -2q8 6 20 10t29 4q8 0 21.5 -3.5t27 -13t23.5 -26.5t10 -44q0 -45 -31.5 -70t-73.5 -25q-23 0 -43 9t-34 21l8 12q11 -8 27 -16.5t39 -8.5q16 0 26 7.5t15.5 18.5t7.5 25t2 28q0 26 -9.5 46t-37.5 20
q-15 0 -24 -4t-16 -9l-14 15z" />
    <glyph glyph-name="Lcaron" unicode="&#x13d;" horiz-adv-x="685" 
d="M30 14h111v684h-111v14h322v-14h-111v-684h178q88 0 138 55t73 150h11v-219h-611v14zM476 459q29 21 47.5 40.5t29 37t14 31.5t3.5 24q0 32 -18 52q-17 -25 -43 -25q-19 0 -37 14t-18 40q0 23 17.5 40t43.5 17q19 0 34.5 -9t26.5 -23t16.5 -33t5.5 -38q0 -29 -12 -57.5
t-29 -52.5t-37 -42t-35 -28z" />
    <glyph glyph-name="lcaron" unicode="&#x13e;" horiz-adv-x="458" 
d="M28 14h77v693h-77v14h163v-707h77v-14h-240v14zM296 459q29 21 47.5 40.5t29 37t14 31.5t3.5 24q0 32 -18 52q-17 -25 -43 -25q-19 0 -37 14t-18 40q0 23 17.5 40t43.5 17q19 0 34.5 -9t26.5 -23t16.5 -33t5.5 -38q0 -29 -12 -57.5t-29 -52.5t-37 -42t-35 -28z" />
    <glyph glyph-name="Ldotaccent" unicode="&#x13f;" horiz-adv-x="685" 
d="M30 14h111v684h-111v14h322v-14h-111v-684h178q88 0 138 55t73 150h11v-219h-611v14zM460 477q0 19 13.5 32.5t32.5 13.5t32.5 -13.5t13.5 -32.5t-13.5 -32.5t-32.5 -13.5t-32.5 13.5t-13.5 32.5z" />
    <glyph glyph-name="ldotaccent" unicode="&#x140;" horiz-adv-x="380" 
d="M28 14h77v693h-77v14h163v-707h77v-14h-240v14zM263 481q0 19 13.5 32.5t32.5 13.5t32.5 -13.5t13.5 -32.5t-13.5 -32.5t-32.5 -13.5t-32.5 13.5t-13.5 32.5z" />
    <glyph glyph-name="Lslash" unicode="&#x141;" horiz-adv-x="685" 
d="M30 14h111v321l-111 -62v16l111 62v347h-111v14h322v-14h-111v-291l167 93v-16l-167 -93v-377h178q88 0 138 55t73 150h11v-219h-611v14z" />
    <glyph glyph-name="lslash" unicode="&#x142;" horiz-adv-x="296" 
d="M28 14h77v338l-77 -43v16l77 43v339h-77v14h163v-305l77 43v-16l-77 -43v-386h77v-14h-240v14z" />
    <glyph glyph-name="Nacute" unicode="&#x143;" horiz-adv-x="722" 
d="M21 14h111v684h-111v14h214l338 -545h2v531h-111v14h237v-14h-111v-712h-20l-421 671h-2v-643h111v-14h-237v14zM392 901q20 24 28.5 32t22.5 8t24 -10.5t10 -24.5q0 -11 -6.5 -17t-11.5 -10l-171 -122h-14z" />
    <glyph glyph-name="nacute" unicode="&#x144;" horiz-adv-x="611" 
d="M25 14h77v401h-77v14h161v-107h2q6 13 17.5 33t31.5 39t50 32.5t73 13.5q66 0 107.5 -32t41.5 -102v-292h77v-14h-240v14h77v323q0 39 -18.5 64t-57.5 25q-32 0 -61 -14t-51 -39t-34.5 -59t-12.5 -74v-226h77v-14h-240v14zM367 696q20 24 28.5 32t22.5 8t24 -10.5
t10 -24.5q0 -11 -6.5 -17t-11.5 -10l-171 -122h-14z" />
    <glyph glyph-name="Ncedilla" unicode="&#x145;" horiz-adv-x="722" 
d="M21 14h111v684h-111v14h214l338 -545h2v531h-111v14h237v-14h-111v-712h-20l-421 671h-2v-643h111v-14h-237v14zM186 0h20l-69 -72l2 -2q8 6 20 10t29 4q8 0 21.5 -3.5t27 -13t23.5 -26.5t10 -44q0 -45 -31.5 -70t-73.5 -25q-23 0 -43 9t-34 21l8 12q11 -8 27 -16.5
t39 -8.5q16 0 26 7.5t15.5 18.5t7.5 25t2 28q0 26 -9.5 46t-37.5 20q-15 0 -24 -4t-16 -9l-14 15z" />
    <glyph glyph-name="ncedilla" unicode="&#x146;" horiz-adv-x="611" 
d="M25 14h77v401h-77v14h161v-107h2q6 13 17.5 33t31.5 39t50 32.5t73 13.5q66 0 107.5 -32t41.5 -102v-292h77v-14h-240v14h77v323q0 39 -18.5 64t-57.5 25q-32 0 -61 -14t-51 -39t-34.5 -59t-12.5 -74v-226h77v-14h-240v14zM478 0h20l-69 -72l2 -2q8 6 20 10t29 4
q8 0 21.5 -3.5t27 -13t23.5 -26.5t10 -44q0 -45 -31.5 -70t-73.5 -25q-23 0 -43 9t-34 21l8 12q11 -8 27 -16.5t39 -8.5q16 0 26 7.5t15.5 18.5t7.5 25t2 28q0 26 -9.5 46t-37.5 20q-15 0 -24 -4t-16 -9l-14 15z" />
    <glyph glyph-name="Ncaron" unicode="&#x147;" horiz-adv-x="722" 
d="M21 14h111v684h-111v14h214l338 -545h2v531h-111v14h237v-14h-111v-712h-20l-421 671h-2v-643h111v-14h-237v14zM391 757h-56l-113 167h14l127 -105l127 105h14z" />
    <glyph glyph-name="ncaron" unicode="&#x148;" horiz-adv-x="611" 
d="M25 14h77v401h-77v14h161v-107h2q6 13 17.5 33t31.5 39t50 32.5t73 13.5q66 0 107.5 -32t41.5 -102v-292h77v-14h-240v14h77v323q0 39 -18.5 64t-57.5 25q-32 0 -61 -14t-51 -39t-34.5 -59t-12.5 -74v-226h77v-14h-240v14zM374 552h-56l-113 167h14l127 -105l127 105h14z
" />
    <glyph glyph-name="quoterightn" unicode="&#x149;" horiz-adv-x="611" 
d="M25 14h77v401h-77v14h161v-107h2q6 13 17.5 33t31.5 39t50 32.5t73 13.5q66 0 107.5 -32t41.5 -102v-292h77v-14h-240v14h77v323q0 39 -18.5 64t-57.5 25q-32 0 -61 -14t-51 -39t-34.5 -59t-12.5 -74v-226h77v-14h-240v14zM299 500q29 21 47.5 40.5t29 37t14 31.5t3.5 24
q0 32 -18 52q-17 -25 -43 -25q-19 0 -37 14t-18 40q0 23 17.5 40t43.5 17q19 0 34.5 -9t26.5 -23t16.5 -33t5.5 -38q0 -29 -12 -57.5t-29 -52.5t-37 -42t-35 -28z" />
    <glyph glyph-name="Omacron" unicode="&#x14c;" horiz-adv-x="832" 
d="M183 357q0 -90 12 -157t40 -112t72 -67t109 -22q64 0 108.5 22t72.5 67t40 112t12 157q0 69 -9 133.5t-34.5 115t-71 80.5t-118.5 30t-118.5 -30t-71 -80.5t-34.5 -115t-9 -133.5zM68 357q0 80 31.5 148t81 118t111.5 78.5t124 28.5q66 0 128.5 -28.5t111.5 -78.5
t78.5 -118t29.5 -148q0 -70 -27 -137t-74 -119t-110.5 -84t-136.5 -32q-75 0 -139 31t-110.5 82.5t-72.5 119t-26 139.5zM277 838h280v-31h-280v31z" />
    <glyph glyph-name="omacron" unicode="&#x14d;" horiz-adv-x="556" 
d="M145 214q0 -71 11 -113t29 -64.5t42 -29.5t51 -7t51 7t42 29.5t29 64.5t11 113q0 60 -8 100.5t-24.5 66t-41.5 36.5t-59 11t-59 -11t-41.5 -36.5t-24.5 -66t-8 -100.5zM45 214q0 49 21.5 91t55 72.5t75 47.5t81.5 17t81.5 -17t75 -47.5t55 -72.5t21.5 -91
q0 -47 -20 -88.5t-52.5 -72.5t-74.5 -49t-86 -18t-86 18t-74.5 49t-52.5 72.5t-20 88.5zM159 633h280v-31h-280v31z" />
    <glyph glyph-name="Obreve" unicode="&#x14e;" horiz-adv-x="832" 
d="M183 357q0 -90 12 -157t40 -112t72 -67t109 -22q64 0 108.5 22t72.5 67t40 112t12 157q0 69 -9 133.5t-34.5 115t-71 80.5t-118.5 30t-118.5 -30t-71 -80.5t-34.5 -115t-9 -133.5zM68 357q0 80 31.5 148t81 118t111.5 78.5t124 28.5q66 0 128.5 -28.5t111.5 -78.5
t78.5 -118t29.5 -148q0 -70 -27 -137t-74 -119t-110.5 -84t-136.5 -32q-75 0 -139 31t-110.5 82.5t-72.5 119t-26 139.5zM317 912q2 -15 9 -32t20.5 -32t35 -25t53.5 -10t53.5 10t35 25t20.5 32t9 32h14q-1 -28 -7 -55.5t-21 -49.5t-40 -36t-64 -14t-64 14t-40 36t-21 49.5
t-7 55.5h14z" />
    <glyph glyph-name="obreve" unicode="&#x14f;" horiz-adv-x="556" 
d="M145 214q0 -71 11 -113t29 -64.5t42 -29.5t51 -7t51 7t42 29.5t29 64.5t11 113q0 60 -8 100.5t-24.5 66t-41.5 36.5t-59 11t-59 -11t-41.5 -36.5t-24.5 -66t-8 -100.5zM45 214q0 49 21.5 91t55 72.5t75 47.5t81.5 17t81.5 -17t75 -47.5t55 -72.5t21.5 -91
q0 -47 -20 -88.5t-52.5 -72.5t-74.5 -49t-86 -18t-86 18t-74.5 49t-52.5 72.5t-20 88.5zM181 707q2 -15 9 -32t20.5 -32t35 -25t53.5 -10t53.5 10t35 25t20.5 32t9 32h14q-1 -28 -7 -55.5t-21 -49.5t-40 -36t-64 -14t-64 14t-40 36t-21 49.5t-7 55.5h14z" />
    <glyph glyph-name="Ohungarumlaut" unicode="&#x150;" horiz-adv-x="832" 
d="M183 357q0 -90 12 -157t40 -112t72 -67t109 -22q64 0 108.5 22t72.5 67t40 112t12 157q0 69 -9 133.5t-34.5 115t-71 80.5t-118.5 30t-118.5 -30t-71 -80.5t-34.5 -115t-9 -133.5zM68 357q0 80 31.5 148t81 118t111.5 78.5t124 28.5q66 0 128.5 -28.5t111.5 -78.5
t78.5 -118t29.5 -148q0 -70 -27 -137t-74 -119t-110.5 -84t-136.5 -32q-75 0 -139 31t-110.5 82.5t-72.5 119t-26 139.5zM380 901q20 24 28.5 32t22.5 8t24 -10.5t10 -24.5q0 -11 -6.5 -17t-11.5 -10l-171 -122h-14zM538 901q20 24 28.5 32t22.5 8t24 -10.5t10 -24.5
q0 -11 -6.5 -17t-11.5 -10l-171 -122h-14z" />
    <glyph glyph-name="ohungarumlaut" unicode="&#x151;" horiz-adv-x="556" 
d="M145 214q0 -71 11 -113t29 -64.5t42 -29.5t51 -7t51 7t42 29.5t29 64.5t11 113q0 60 -8 100.5t-24.5 66t-41.5 36.5t-59 11t-59 -11t-41.5 -36.5t-24.5 -66t-8 -100.5zM45 214q0 49 21.5 91t55 72.5t75 47.5t81.5 17t81.5 -17t75 -47.5t55 -72.5t21.5 -91
q0 -47 -20 -88.5t-52.5 -72.5t-74.5 -49t-86 -18t-86 18t-74.5 49t-52.5 72.5t-20 88.5zM225 696q20 24 28.5 32t22.5 8t24 -10.5t10 -24.5q0 -11 -6.5 -17t-11.5 -10l-171 -122h-14zM383 696q20 24 28.5 32t22.5 8t24 -10.5t10 -24.5q0 -11 -6.5 -17t-11.5 -10l-171 -122
h-14z" />
    <glyph glyph-name="OE" unicode="&#x152;" horiz-adv-x="1074" 
d="M532 692q-22 5 -49.5 8.5t-50.5 3.5q-75 0 -123 -27.5t-76 -75.5t-39 -113t-11 -141q0 -110 22 -186t66 -107q26 -19 60.5 -32.5t91.5 -13.5q33 0 59 3.5t50 9.5v671zM999 0h-443q-33 0 -66 -3q-17 -1 -33.5 -2t-33.5 -1q-25 0 -44.5 2t-36 6t-32 10t-32.5 14
q-41 19 -79 51.5t-67 75t-46.5 95t-17.5 111.5q0 54 17.5 102.5t44.5 88.5t59.5 70.5t62.5 47.5q50 28 91.5 39t92.5 11q29 0 61 -3l30 -2t30 -1h420v-173h-11q-13 39 -28 68.5t-36 50t-50 30.5t-70 10h-150v-309h49q33 0 56 6t39.5 22.5t28 45t22.5 73.5h11v-311h-11
q-7 29 -14.5 56t-21 48t-36 33.5t-58.5 12.5h-65v-361h169q46 0 79.5 23.5t56.5 56t35.5 67.5t15.5 58h11v-219z" />
    <glyph glyph-name="oe" unicode="&#x153;" horiz-adv-x="852" 
d="M704 262q2 14 2 26v25q0 34 -6.5 56t-18 35t-28 18.5t-35.5 5.5q-34 0 -56 -13.5t-35 -36.5t-19.5 -53t-8.5 -63h205zM145 214q0 -71 11 -113t29 -64.5t42 -29.5t51 -7t51 7t42 29.5t29 64.5t11 113q0 60 -8 100.5t-24.5 66t-41.5 36.5t-59 11t-59 -11t-41.5 -36.5
t-24.5 -66t-8 -100.5zM45 214q0 49 21.5 91t55 72.5t75 47.5t81.5 17q29 0 56.5 -8.5t50.5 -21t40 -27t25 -25.5q14 13 30.5 27.5t37.5 26.5t46.5 20t57.5 8q28 0 60 -10t59.5 -32.5t46 -59.5t18.5 -92h-308q0 -10 -0.5 -20.5t-0.5 -26.5q0 -33 4 -69t17.5 -65t40 -48
t70.5 -19t72.5 13t45 31.5t24.5 37.5t12 31l15 -3q-3 -11 -11.5 -31.5t-27 -41t-50 -36t-81.5 -15.5q-37 0 -65 7t-49.5 18.5t-37.5 25t-29 27.5q-12 -13 -28 -26.5t-36.5 -25t-46.5 -19t-58 -7.5q-44 0 -86 18t-74.5 49t-52.5 72.5t-20 88.5z" />
    <glyph glyph-name="Racute" unicode="&#x154;" horiz-adv-x="722" 
d="M241 389h92q28 0 51 7t39.5 24.5t25.5 47.5t9 76q0 52 -13.5 83.5t-35 47.5t-48 21t-52.5 5q-18 0 -36.5 -0.5t-31.5 -2.5v-309zM30 14h111v684h-111v14h190q12 0 24 0.5t24 1.5q12 0 24 0.5t24 0.5q59 0 104 -6.5t84 -37.5q35 -27 49.5 -61t14.5 -64q0 -15 -5.5 -38.5
t-24 -48t-53.5 -45t-93 -27.5v-2q16 -2 43.5 -7.5t56 -18.5t52.5 -34.5t34 -55.5q6 -20 8.5 -45.5t4 -52.5t3 -52t5.5 -42q6 -26 19 -47t42 -21q13 0 27 5t25 16l9 -11q-5 -4 -11.5 -8.5t-16.5 -8.5t-24.5 -6.5t-35.5 -2.5q-40 0 -66.5 10t-42.5 29.5t-23.5 48t-10.5 66.5
l-7 91q-4 50 -20 78t-37.5 41t-44.5 15.5t-40 2.5h-100v-361h111v-14h-322v14zM358 901q20 24 28.5 32t22.5 8t24 -10.5t10 -24.5q0 -11 -6.5 -17t-11.5 -10l-171 -122h-14z" />
    <glyph glyph-name="racute" unicode="&#x155;" horiz-adv-x="407" 
d="M27 14h77v401h-77v14h161v-101h2q4 15 13 34t25 36.5t38.5 29.5t54.5 12q23 0 40 -7.5t28 -19t16 -26.5t5 -30q0 -33 -15 -44t-35 -11q-44 0 -44 28q0 9 2 14.5t4.5 11t4.5 12.5t2 20q0 32 -35 32q-16 0 -34 -12t-33.5 -35t-26 -55.5t-10.5 -74.5v-229h87v-14h-250v14z
M215 696q20 24 28.5 32t22.5 8t24 -10.5t10 -24.5q0 -11 -6.5 -17t-11.5 -10l-171 -122h-14z" />
    <glyph glyph-name="Rcedilla" unicode="&#x156;" horiz-adv-x="722" 
d="M241 389h92q28 0 51 7t39.5 24.5t25.5 47.5t9 76q0 52 -13.5 83.5t-35 47.5t-48 21t-52.5 5q-18 0 -36.5 -0.5t-31.5 -2.5v-309zM30 14h111v684h-111v14h190q12 0 24 0.5t24 1.5q12 0 24 0.5t24 0.5q59 0 104 -6.5t84 -37.5q35 -27 49.5 -61t14.5 -64q0 -15 -5.5 -38.5
t-24 -48t-53.5 -45t-93 -27.5v-2q16 -2 43.5 -7.5t56 -18.5t52.5 -34.5t34 -55.5q6 -20 8.5 -45.5t4 -52.5t3 -52t5.5 -42q6 -26 19 -47t42 -21q13 0 27 5t25 16l9 -11q-5 -4 -11.5 -8.5t-16.5 -8.5t-24.5 -6.5t-35.5 -2.5q-40 0 -66.5 10t-42.5 29.5t-23.5 48t-10.5 66.5
l-7 91q-4 50 -20 78t-37.5 41t-44.5 15.5t-40 2.5h-100v-361h111v-14h-322v14zM627 0h20l-69 -72l2 -2q8 6 20 10t29 4q8 0 21.5 -3.5t27 -13t23.5 -26.5t10 -44q0 -45 -31.5 -70t-73.5 -25q-23 0 -43 9t-34 21l8 12q11 -8 27 -16.5t39 -8.5q16 0 26 7.5t15.5 18.5t7.5 25
t2 28q0 26 -9.5 46t-37.5 20q-15 0 -24 -4t-16 -9l-14 15z" />
    <glyph glyph-name="rcedilla" unicode="&#x157;" horiz-adv-x="407" 
d="M27 14h77v401h-77v14h161v-101h2q4 15 13 34t25 36.5t38.5 29.5t54.5 12q23 0 40 -7.5t28 -19t16 -26.5t5 -30q0 -33 -15 -44t-35 -11q-44 0 -44 28q0 9 2 14.5t4.5 11t4.5 12.5t2 20q0 32 -35 32q-16 0 -34 -12t-33.5 -35t-26 -55.5t-10.5 -74.5v-229h87v-14h-250v14z
M186 0h20l-69 -72l2 -2q8 6 20 10t29 4q8 0 21.5 -3.5t27 -13t23.5 -26.5t10 -44q0 -45 -31.5 -70t-73.5 -25q-23 0 -43 9t-34 21l8 12q11 -8 27 -16.5t39 -8.5q16 0 26 7.5t15.5 18.5t7.5 25t2 28q0 26 -9.5 46t-37.5 20q-15 0 -24 -4t-16 -9l-14 15z" />
    <glyph glyph-name="Rcaron" unicode="&#x158;" horiz-adv-x="722" 
d="M241 389h92q28 0 51 7t39.5 24.5t25.5 47.5t9 76q0 52 -13.5 83.5t-35 47.5t-48 21t-52.5 5q-18 0 -36.5 -0.5t-31.5 -2.5v-309zM30 14h111v684h-111v14h190q12 0 24 0.5t24 1.5q12 0 24 0.5t24 0.5q59 0 104 -6.5t84 -37.5q35 -27 49.5 -61t14.5 -64q0 -15 -5.5 -38.5
t-24 -48t-53.5 -45t-93 -27.5v-2q16 -2 43.5 -7.5t56 -18.5t52.5 -34.5t34 -55.5q6 -20 8.5 -45.5t4 -52.5t3 -52t5.5 -42q6 -26 19 -47t42 -21q13 0 27 5t25 16l9 -11q-5 -4 -11.5 -8.5t-16.5 -8.5t-24.5 -6.5t-35.5 -2.5q-40 0 -66.5 10t-42.5 29.5t-23.5 48t-10.5 66.5
l-7 91q-4 50 -20 78t-37.5 41t-44.5 15.5t-40 2.5h-100v-361h111v-14h-322v14zM347 757h-56l-113 167h14l127 -105l127 105h14z" />
    <glyph glyph-name="rcaron" unicode="&#x159;" horiz-adv-x="407" 
d="M27 14h77v401h-77v14h161v-101h2q4 15 13 34t25 36.5t38.5 29.5t54.5 12q23 0 40 -7.5t28 -19t16 -26.5t5 -30q0 -33 -15 -44t-35 -11q-44 0 -44 28q0 9 2 14.5t4.5 11t4.5 12.5t2 20q0 32 -35 32q-16 0 -34 -12t-33.5 -35t-26 -55.5t-10.5 -74.5v-229h87v-14h-250v14z
M167 552h-56l-113 167h14l127 -105l127 105h14z" />
    <glyph glyph-name="Sacute" unicode="&#x15a;" horiz-adv-x="667" 
d="M75 215h11q11 -54 28.5 -91t38.5 -61t44 -37t46.5 -19t45 -7t40.5 -1q53 0 87 16t54 40.5t28 53t8 52.5q0 35 -13 60t-33 42.5t-43.5 28.5t-44.5 17l-115 35q-81 25 -122.5 66t-41.5 110q0 45 16 83.5t45 66.5t69.5 44t88.5 16q35 0 58.5 -6t40.5 -13.5t30.5 -13.5
t27.5 -6q13 0 17.5 3.5t12.5 17.5h14v-181h-12q-6 36 -20.5 69.5t-37.5 59t-55.5 41t-75.5 15.5q-24 0 -53 -6.5t-54 -22.5t-41.5 -42t-16.5 -66q0 -32 13 -54.5t33.5 -38t46 -26t51.5 -18.5l121 -38q19 -6 48 -16t56.5 -30t47 -53t19.5 -84q0 -47 -17.5 -89.5t-50.5 -75
t-80 -52t-106 -19.5q-21 0 -37 0.5t-30 2.5t-28 4.5t-31 7.5q-20 6 -43 14t-40 8q-15 0 -20.5 -6t-9.5 -16h-15v215zM317 901q20 24 28.5 32t22.5 8t24 -10.5t10 -24.5q0 -11 -6.5 -17t-11.5 -10l-171 -122h-14z" />
    <glyph glyph-name="sacute" unicode="&#x15b;" horiz-adv-x="426" 
d="M56 140h11q7 -24 18 -48.5t29.5 -45t45.5 -33.5t65 -13q32 0 57 19.5t25 63.5q0 38 -19.5 53.5t-45.5 24.5l-78 27q-15 5 -32.5 12.5t-32.5 21t-24.5 34.5t-9.5 54q0 28 11 52t30 42t45.5 28t57.5 10q22 0 35.5 -3.5t23.5 -7t18 -7t19 -3.5t16 8h11v-114h-11
q-7 22 -16 42.5t-21.5 36.5t-31 25t-43.5 9q-48 0 -74.5 -21.5t-26.5 -57.5q0 -32 22.5 -48.5t66.5 -30.5l73 -24q47 -16 77 -44t30 -74q0 -27 -10.5 -53t-31 -45.5t-50 -31.5t-67.5 -12q-22 0 -40.5 4.5t-34 9.5t-28.5 9.5t-24 4.5t-16 -4.5t-8 -9.5h-11v140zM215 696
q20 24 28.5 32t22.5 8t24 -10.5t10 -24.5q0 -11 -6.5 -17t-11.5 -10l-171 -122h-14z" />
    <glyph glyph-name="Scircumflex" unicode="&#x15c;" horiz-adv-x="667" 
d="M75 215h11q11 -54 28.5 -91t38.5 -61t44 -37t46.5 -19t45 -7t40.5 -1q53 0 87 16t54 40.5t28 53t8 52.5q0 35 -13 60t-33 42.5t-43.5 28.5t-44.5 17l-115 35q-81 25 -122.5 66t-41.5 110q0 45 16 83.5t45 66.5t69.5 44t88.5 16q35 0 58.5 -6t40.5 -13.5t30.5 -13.5
t27.5 -6q13 0 17.5 3.5t12.5 17.5h14v-181h-12q-6 36 -20.5 69.5t-37.5 59t-55.5 41t-75.5 15.5q-24 0 -53 -6.5t-54 -22.5t-41.5 -42t-16.5 -66q0 -32 13 -54.5t33.5 -38t46 -26t51.5 -18.5l121 -38q19 -6 48 -16t56.5 -30t47 -53t19.5 -84q0 -47 -17.5 -89.5t-50.5 -75
t-80 -52t-106 -19.5q-21 0 -37 0.5t-30 2.5t-28 4.5t-31 7.5q-20 6 -43 14t-40 8q-15 0 -20.5 -6t-9.5 -16h-15v215zM288 924h56l113 -167h-14l-127 105l-127 -105h-14z" />
    <glyph glyph-name="scircumflex" unicode="&#x15d;" horiz-adv-x="426" 
d="M56 140h11q7 -24 18 -48.5t29.5 -45t45.5 -33.5t65 -13q32 0 57 19.5t25 63.5q0 38 -19.5 53.5t-45.5 24.5l-78 27q-15 5 -32.5 12.5t-32.5 21t-24.5 34.5t-9.5 54q0 28 11 52t30 42t45.5 28t57.5 10q22 0 35.5 -3.5t23.5 -7t18 -7t19 -3.5t16 8h11v-114h-11
q-7 22 -16 42.5t-21.5 36.5t-31 25t-43.5 9q-48 0 -74.5 -21.5t-26.5 -57.5q0 -32 22.5 -48.5t66.5 -30.5l73 -24q47 -16 77 -44t30 -74q0 -27 -10.5 -53t-31 -45.5t-50 -31.5t-67.5 -12q-22 0 -40.5 4.5t-34 9.5t-28.5 9.5t-24 4.5t-16 -4.5t-8 -9.5h-11v140zM176 719h56
l113 -167h-14l-127 105l-127 -105h-14z" />
    <glyph glyph-name="Scedilla" unicode="&#x15e;" horiz-adv-x="667" 
d="M75 215h11q11 -54 28.5 -91t38.5 -61t44 -37t46.5 -19t45 -7t40.5 -1q53 0 87 16t54 40.5t28 53t8 52.5q0 35 -13 60t-33 42.5t-43.5 28.5t-44.5 17l-115 35q-81 25 -122.5 66t-41.5 110q0 45 16 83.5t45 66.5t69.5 44t88.5 16q35 0 58.5 -6t40.5 -13.5t30.5 -13.5
t27.5 -6q13 0 17.5 3.5t12.5 17.5h14v-181h-12q-6 36 -20.5 69.5t-37.5 59t-55.5 41t-75.5 15.5q-24 0 -53 -6.5t-54 -22.5t-41.5 -42t-16.5 -66q0 -32 13 -54.5t33.5 -38t46 -26t51.5 -18.5l121 -38q19 -6 48 -16t56.5 -30t47 -53t19.5 -84q0 -47 -17.5 -89.5t-50.5 -75
t-80 -52t-106 -19.5q-21 0 -37 0.5t-30 2.5t-28 4.5t-31 7.5q-20 6 -43 14t-40 8q-15 0 -20.5 -6t-9.5 -16h-15v215zM186 0h20l-69 -72l2 -2q8 6 20 10t29 4q8 0 21.5 -3.5t27 -13t23.5 -26.5t10 -44q0 -45 -31.5 -70t-73.5 -25q-23 0 -43 9t-34 21l8 12q11 -8 27 -16.5
t39 -8.5q16 0 26 7.5t15.5 18.5t7.5 25t2 28q0 26 -9.5 46t-37.5 20q-15 0 -24 -4t-16 -9l-14 15z" />
    <glyph glyph-name="scedilla" unicode="&#x15f;" horiz-adv-x="426" 
d="M56 140h11q7 -24 18 -48.5t29.5 -45t45.5 -33.5t65 -13q32 0 57 19.5t25 63.5q0 38 -19.5 53.5t-45.5 24.5l-78 27q-15 5 -32.5 12.5t-32.5 21t-24.5 34.5t-9.5 54q0 28 11 52t30 42t45.5 28t57.5 10q22 0 35.5 -3.5t23.5 -7t18 -7t19 -3.5t16 8h11v-114h-11
q-7 22 -16 42.5t-21.5 36.5t-31 25t-43.5 9q-48 0 -74.5 -21.5t-26.5 -57.5q0 -32 22.5 -48.5t66.5 -30.5l73 -24q47 -16 77 -44t30 -74q0 -27 -10.5 -53t-31 -45.5t-50 -31.5t-67.5 -12q-22 0 -40.5 4.5t-34 9.5t-28.5 9.5t-24 4.5t-16 -4.5t-8 -9.5h-11v140zM186 0h20
l-69 -72l2 -2q8 6 20 10t29 4q8 0 21.5 -3.5t27 -13t23.5 -26.5t10 -44q0 -45 -31.5 -70t-73.5 -25q-23 0 -43 9t-34 21l8 12q11 -8 27 -16.5t39 -8.5q16 0 26 7.5t15.5 18.5t7.5 25t2 28q0 26 -9.5 46t-37.5 20q-15 0 -24 -4t-16 -9l-14 15z" />
    <glyph glyph-name="Scaron" unicode="&#x160;" horiz-adv-x="667" 
d="M362 757h-56l-113 167h14l127 -105l127 105h14zM75 215h11q11 -54 28.5 -91t38.5 -61t44 -37t46.5 -19t45 -7t40.5 -1q53 0 87 16t54 40.5t28 53t8 52.5q0 35 -13 60t-33 42.5t-43.5 28.5t-44.5 17l-115 35q-81 25 -122.5 66t-41.5 110q0 45 16 83.5t45 66.5t69.5 44
t88.5 16q35 0 58.5 -6t40.5 -13.5t30.5 -13.5t27.5 -6q13 0 17.5 3.5t12.5 17.5h14v-181h-12q-6 36 -20.5 69.5t-37.5 59t-55.5 41t-75.5 15.5q-24 0 -53 -6.5t-54 -22.5t-41.5 -42t-16.5 -66q0 -32 13 -54.5t33.5 -38t46 -26t51.5 -18.5l121 -38q19 -6 48 -16t56.5 -30
t47 -53t19.5 -84q0 -47 -17.5 -89.5t-50.5 -75t-80 -52t-106 -19.5q-21 0 -37 0.5t-30 2.5t-28 4.5t-31 7.5q-20 6 -43 14t-40 8q-15 0 -20.5 -6t-9.5 -16h-15v215z" />
    <glyph glyph-name="scaron" unicode="&#x161;" horiz-adv-x="426" 
d="M241 552h-56l-113 167h14l127 -105l127 105h14zM56 140h11q7 -24 18 -48.5t29.5 -45t45.5 -33.5t65 -13q32 0 57 19.5t25 63.5q0 38 -19.5 53.5t-45.5 24.5l-78 27q-15 5 -32.5 12.5t-32.5 21t-24.5 34.5t-9.5 54q0 28 11 52t30 42t45.5 28t57.5 10q22 0 35.5 -3.5
t23.5 -7t18 -7t19 -3.5t16 8h11v-114h-11q-7 22 -16 42.5t-21.5 36.5t-31 25t-43.5 9q-48 0 -74.5 -21.5t-26.5 -57.5q0 -32 22.5 -48.5t66.5 -30.5l73 -24q47 -16 77 -44t30 -74q0 -27 -10.5 -53t-31 -45.5t-50 -31.5t-67.5 -12q-22 0 -40.5 4.5t-34 9.5t-28.5 9.5t-24 4.5
t-16 -4.5t-8 -9.5h-11v140z" />
    <glyph glyph-name="Tcedilla" unicode="&#x162;" horiz-adv-x="684" 
d="M181 14h111v684h-58q-20 0 -45 -3.5t-50.5 -19.5t-49 -50.5t-40.5 -95.5h-11v183h608v-183h-11q-17 61 -40.5 95.5t-49 50.5t-50.5 19.5t-45 3.5h-58v-684h111v-14h-322v14zM353 0h20l-69 -72l2 -2q8 6 20 10t29 4q8 0 21.5 -3.5t27 -13t23.5 -26.5t10 -44
q0 -45 -31.5 -70t-73.5 -25q-23 0 -43 9t-34 21l8 12q11 -8 27 -16.5t39 -8.5q16 0 26 7.5t15.5 18.5t7.5 25t2 28q0 26 -9.5 46t-37.5 20q-15 0 -24 -4t-16 -9l-14 15z" />
    <glyph glyph-name="tcedilla" unicode="&#x163;" horiz-adv-x="333" 
d="M17 429h77v129q8 -3 15 -5t24 -2q15 0 26 3.5t21 11.5v-137h142v-14h-142v-327q0 -28 5.5 -45.5t14.5 -27t19.5 -12.5t20.5 -3q35 0 56.5 25.5t27.5 58.5l14 -5q-3 -13 -9 -29t-18.5 -30.5t-32.5 -24t-50 -9.5q-75 0 -104.5 29t-29.5 82v318h-77v14zM186 0h20l-69 -72
l2 -2q8 6 20 10t29 4q8 0 21.5 -3.5t27 -13t23.5 -26.5t10 -44q0 -45 -31.5 -70t-73.5 -25q-23 0 -43 9t-34 21l8 12q11 -8 27 -16.5t39 -8.5q16 0 26 7.5t15.5 18.5t7.5 25t2 28q0 26 -9.5 46t-37.5 20q-15 0 -24 -4t-16 -9l-14 15z" />
    <glyph glyph-name="Tcaron" unicode="&#x164;" horiz-adv-x="684" 
d="M181 14h111v684h-58q-20 0 -45 -3.5t-50.5 -19.5t-49 -50.5t-40.5 -95.5h-11v183h608v-183h-11q-17 61 -40.5 95.5t-49 50.5t-50.5 19.5t-45 3.5h-58v-684h111v-14h-322v14zM371 757h-56l-113 167h14l127 -105l127 105h14z" />
    <glyph glyph-name="tcaron" unicode="&#x165;" horiz-adv-x="452" 
d="M17 429h77v129q8 -3 15 -5t24 -2q15 0 26 3.5t21 11.5v-137h142v-14h-142v-327q0 -28 5.5 -45.5t14.5 -27t19.5 -12.5t20.5 -3q35 0 56.5 25.5t27.5 58.5l14 -5q-3 -13 -9 -29t-18.5 -30.5t-32.5 -24t-50 -9.5q-75 0 -104.5 29t-29.5 82v318h-77v14zM296 469
q29 21 47.5 40.5t29 37t14 31.5t3.5 24q0 32 -18 52q-17 -25 -43 -25q-19 0 -37 14t-18 40q0 23 17.5 40t43.5 17q19 0 34.5 -9t26.5 -23t16.5 -33t5.5 -38q0 -29 -12 -57.5t-29 -52.5t-37 -42t-35 -28z" />
    <glyph glyph-name="Tbar" unicode="&#x166;" horiz-adv-x="684" 
d="M181 14h111v684h-58q-20 0 -45 -3.5t-50.5 -19.5t-49 -50.5t-40.5 -95.5h-11v183h608v-183h-11q-17 61 -40.5 95.5t-49 50.5t-50.5 19.5t-45 3.5h-58v-684h111v-14h-322v14zM163 425h375v-31h-375v31z" />
    <glyph glyph-name="tbar" unicode="&#x167;" horiz-adv-x="333" 
d="M17 429h77v129q8 -3 15 -5t24 -2q15 0 26 3.5t21 11.5v-137h142v-14h-142v-327q0 -28 5.5 -45.5t14.5 -27t19.5 -12.5t20.5 -3q35 0 56.5 25.5t27.5 58.5l14 -5q-3 -13 -9 -29t-18.5 -30.5t-32.5 -24t-50 -9.5q-75 0 -104.5 29t-29.5 82v318h-77v14zM-42 276h375v-31
h-375v31z" />
    <glyph glyph-name="Utilde" unicode="&#x168;" horiz-adv-x="759" 
d="M21 712h322v-14h-111v-483q0 -60 10.5 -101.5t31.5 -67t52 -36.5t71 -11q56 0 99 16.5t74 58.5q10 13 17.5 26t13 30.5t8.5 42t3 60.5v465h-111v14h237v-14h-111v-485q0 -42 -9 -76.5t-37 -71.5q-27 -36 -75 -58t-127 -22q-120 0 -183.5 59t-63.5 181v473h-111v14z
M553 883q-1 -5 -6 -21.5t-17 -34.5t-31 -32t-47 -14q-21 0 -38 7.5t-34 16.5l-31 15.5t-32 7.5t-28 -5.5t-18 -13.5t-11 -16t-5 -12h-14q4 23 14 41.5t23.5 31t28.5 19.5t30 7q17 0 34 -7.5t35 -15.5q17 -9 34 -16.5t34 -7.5q16 0 28 6.5t19.5 15.5t12 17t5.5 11h14z" />
    <glyph glyph-name="utilde" unicode="&#x169;" horiz-adv-x="593" 
d="M569 0h-161v101h-2q-9 -20 -21.5 -40.5t-31 -37t-43 -27t-57.5 -10.5q-40 0 -65 9t-39 19q-7 5 -15.5 12.5t-15.5 20.5t-12 33.5t-5 50.5v284h-77v14h163v-307q0 -26 3.5 -48t13.5 -38.5t26 -26t42 -9.5q22 0 45.5 13t43 37t32.5 57.5t13 75.5v232h-76v14h162v-415h77
v-14zM445 678q-1 -5 -6 -21.5t-17 -34.5t-31 -32t-47 -14q-21 0 -38 7.5t-34 16.5l-31 15.5t-32 7.5t-28 -5.5t-18 -13.5t-11 -16t-5 -12h-14q4 23 14 41.5t23.5 31t28.5 19.5t30 7q17 0 34 -7.5t35 -15.5q17 -9 34 -16.5t34 -7.5q16 0 28 6.5t19.5 15.5t12 17t5.5 11h14z
" />
    <glyph glyph-name="Umacron" unicode="&#x16a;" horiz-adv-x="759" 
d="M21 712h322v-14h-111v-483q0 -60 10.5 -101.5t31.5 -67t52 -36.5t71 -11q56 0 99 16.5t74 58.5q10 13 17.5 26t13 30.5t8.5 42t3 60.5v465h-111v14h237v-14h-111v-485q0 -42 -9 -76.5t-37 -71.5q-27 -36 -75 -58t-127 -22q-120 0 -183.5 59t-63.5 181v473h-111v14z
M250 838h280v-31h-280v31z" />
    <glyph glyph-name="umacron" unicode="&#x16b;" horiz-adv-x="593" 
d="M569 0h-161v101h-2q-9 -20 -21.5 -40.5t-31 -37t-43 -27t-57.5 -10.5q-40 0 -65 9t-39 19q-7 5 -15.5 12.5t-15.5 20.5t-12 33.5t-5 50.5v284h-77v14h163v-307q0 -26 3.5 -48t13.5 -38.5t26 -26t42 -9.5q22 0 45.5 13t43 37t32.5 57.5t13 75.5v232h-76v14h162v-415h77
v-14zM141 633h280v-31h-280v31z" />
    <glyph glyph-name="Ubreve" unicode="&#x16c;" horiz-adv-x="759" 
d="M21 712h322v-14h-111v-483q0 -60 10.5 -101.5t31.5 -67t52 -36.5t71 -11q56 0 99 16.5t74 58.5q10 13 17.5 26t13 30.5t8.5 42t3 60.5v465h-111v14h237v-14h-111v-485q0 -42 -9 -76.5t-37 -71.5q-27 -36 -75 -58t-127 -22q-120 0 -183.5 59t-63.5 181v473h-111v14z
M289 912q2 -15 9 -32t20.5 -32t35 -25t53.5 -10t53.5 10t35 25t20.5 32t9 32h14q-1 -28 -7 -55.5t-21 -49.5t-40 -36t-64 -14t-64 14t-40 36t-21 49.5t-7 55.5h14z" />
    <glyph glyph-name="ubreve" unicode="&#x16d;" horiz-adv-x="593" 
d="M569 0h-161v101h-2q-9 -20 -21.5 -40.5t-31 -37t-43 -27t-57.5 -10.5q-40 0 -65 9t-39 19q-7 5 -15.5 12.5t-15.5 20.5t-12 33.5t-5 50.5v284h-77v14h163v-307q0 -26 3.5 -48t13.5 -38.5t26 -26t42 -9.5q22 0 45.5 13t43 37t32.5 57.5t13 75.5v232h-76v14h162v-415h77
v-14zM144 707q2 -15 9 -32t20.5 -32t35 -25t53.5 -10t53.5 10t35 25t20.5 32t9 32h14q-1 -28 -7 -55.5t-21 -49.5t-40 -36t-64 -14t-64 14t-40 36t-21 49.5t-7 55.5h14z" />
    <glyph glyph-name="Uring" unicode="&#x16e;" horiz-adv-x="759" 
d="M21 712h322v-14h-111v-483q0 -60 10.5 -101.5t31.5 -67t52 -36.5t71 -11q56 0 99 16.5t74 58.5q10 13 17.5 26t13 30.5t8.5 42t3 60.5v465h-111v14h237v-14h-111v-485q0 -42 -9 -76.5t-37 -71.5q-27 -36 -75 -58t-127 -22q-120 0 -183.5 59t-63.5 181v473h-111v14z
M424 935q-16 0 -25.5 -6.5t-14.5 -18t-6.5 -26t-1.5 -29.5q0 -45 12 -62t36 -17t36 17t12 62q0 15 -1.5 29.5t-6.5 26t-14.5 18t-25.5 6.5zM424 946q10 0 26 -5t30.5 -15.5t25 -28t10.5 -42.5q0 -18 -7.5 -34.5t-20.5 -28.5t-29.5 -19.5t-34.5 -7.5t-34.5 7.5t-29.5 19.5
t-20.5 28.5t-7.5 34.5q0 25 10.5 42.5t25 28t30 15.5t26.5 5z" />
    <glyph glyph-name="uring" unicode="&#x16f;" horiz-adv-x="593" 
d="M569 0h-161v101h-2q-9 -20 -21.5 -40.5t-31 -37t-43 -27t-57.5 -10.5q-40 0 -65 9t-39 19q-7 5 -15.5 12.5t-15.5 20.5t-12 33.5t-5 50.5v284h-77v14h163v-307q0 -26 3.5 -48t13.5 -38.5t26 -26t42 -9.5q22 0 45.5 13t43 37t32.5 57.5t13 75.5v232h-76v14h162v-415h77
v-14zM261 730q-16 0 -25.5 -6.5t-14.5 -18t-6.5 -26t-1.5 -29.5q0 -45 12 -62t36 -17t36 17t12 62q0 15 -1.5 29.5t-6.5 26t-14.5 18t-25.5 6.5zM261 741q10 0 26 -5t30.5 -15.5t25 -28t10.5 -42.5q0 -18 -7.5 -34.5t-20.5 -28.5t-29.5 -19.5t-34.5 -7.5t-34.5 7.5
t-29.5 19.5t-20.5 28.5t-7.5 34.5q0 25 10.5 42.5t25 28t30 15.5t26.5 5z" />
    <glyph glyph-name="Uhungarumlaut" unicode="&#x170;" horiz-adv-x="759" 
d="M21 712h322v-14h-111v-483q0 -60 10.5 -101.5t31.5 -67t52 -36.5t71 -11q56 0 99 16.5t74 58.5q10 13 17.5 26t13 30.5t8.5 42t3 60.5v465h-111v14h237v-14h-111v-485q0 -42 -9 -76.5t-37 -71.5q-27 -36 -75 -58t-127 -22q-120 0 -183.5 59t-63.5 181v473h-111v14z
M360 901q20 24 28.5 32t22.5 8t24 -10.5t10 -24.5q0 -11 -6.5 -17t-11.5 -10l-171 -122h-14zM518 901q20 24 28.5 32t22.5 8t24 -10.5t10 -24.5q0 -11 -6.5 -17t-11.5 -10l-171 -122h-14z" />
    <glyph glyph-name="uhungarumlaut" unicode="&#x171;" horiz-adv-x="593" 
d="M569 0h-161v101h-2q-9 -20 -21.5 -40.5t-31 -37t-43 -27t-57.5 -10.5q-40 0 -65 9t-39 19q-7 5 -15.5 12.5t-15.5 20.5t-12 33.5t-5 50.5v284h-77v14h163v-307q0 -26 3.5 -48t13.5 -38.5t26 -26t42 -9.5q22 0 45.5 13t43 37t32.5 57.5t13 75.5v232h-76v14h162v-415h77
v-14zM245 696q20 24 28.5 32t22.5 8t24 -10.5t10 -24.5q0 -11 -6.5 -17t-11.5 -10l-171 -122h-14zM403 696q20 24 28.5 32t22.5 8t24 -10.5t10 -24.5q0 -11 -6.5 -17t-11.5 -10l-171 -122h-14z" />
    <glyph glyph-name="Uogonek" unicode="&#x172;" horiz-adv-x="759" 
d="M21 712h322v-14h-111v-483q0 -60 10.5 -101.5t31.5 -67t52 -36.5t71 -11q56 0 99 16.5t74 58.5q10 13 17.5 26t13 30.5t8.5 42t3 60.5v465h-111v14h237v-14h-111v-485q0 -42 -9 -76.5t-37 -71.5q-27 -36 -75 -58t-127 -22q-120 0 -183.5 59t-63.5 181v473h-111v14z
M489 -168q-19 -15 -40 -23.5t-47 -8.5q-17 0 -33 4t-28.5 12t-20.5 20.5t-8 29.5q0 21 13.5 39.5t35.5 35t50 31t58 28.5h20q-32 -23 -53 -41t-33 -32t-16.5 -25.5t-4.5 -22.5q0 -18 13.5 -35t41.5 -17q16 0 27.5 6.5t16.5 10.5z" />
    <glyph glyph-name="uogonek" unicode="&#x173;" horiz-adv-x="593" 
d="M569 0h-161v101h-2q-9 -20 -21.5 -40.5t-31 -37t-43 -27t-57.5 -10.5q-40 0 -65 9t-39 19q-7 5 -15.5 12.5t-15.5 20.5t-12 33.5t-5 50.5v284h-77v14h163v-307q0 -26 3.5 -48t13.5 -38.5t26 -26t42 -9.5q22 0 45.5 13t43 37t32.5 57.5t13 75.5v232h-76v14h162v-415h77
v-14zM510 -168q-19 -15 -40 -23.5t-47 -8.5q-17 0 -33 4t-28.5 12t-20.5 20.5t-8 29.5q0 21 13.5 39.5t35.5 35t50 31t58 28.5h20q-32 -23 -53 -41t-33 -32t-16.5 -25.5t-4.5 -22.5q0 -18 13.5 -35t41.5 -17q16 0 27.5 6.5t16.5 10.5z" />
    <glyph glyph-name="Wcircumflex" unicode="&#x174;" horiz-adv-x="1074" 
d="M-10 712h301v-14h-104l206 -580h2l133 369l-76 211h-84v14h300v-14h-109l206 -580h2l210 580h-107v14h214v-14h-90l-259 -713h-25l-172 480h-2l-174 -480h-27l-255 713h-90v14zM511 924h56l113 -167h-14l-127 105l-127 -105h-14z" />
    <glyph glyph-name="wcircumflex" unicode="&#x175;" horiz-adv-x="741" 
d="M-4 429h241v-14h-83l112 -312l104 247l-25 65h-42v14h199v-14h-67l116 -310l125 310h-94v14h163v-14h-53l-179 -448l-136 363l-152 -363l-161 448h-68v14zM379 719h56l113 -167h-14l-127 105l-127 -105h-14z" />
    <glyph glyph-name="Ycircumflex" unicode="&#x176;" horiz-adv-x="704" 
d="M203 14h111v287l-225 397h-91v14h306v-14h-100l200 -352l189 352h-101v14h214v-14h-97l-195 -365v-319h111v-14h-322v14zM345 924h56l113 -167h-14l-127 105l-127 -105h-14z" />
    <glyph glyph-name="ycircumflex" unicode="&#x177;" horiz-adv-x="481" 
d="M-5 429h245v-14h-84l129 -314l135 314h-83v14h153v-14h-54l-165 -386q-19 -43 -36 -86.5t-34 -87.5q-14 -36 -28 -63t-29.5 -44t-33.5 -25.5t-42 -8.5q-29 0 -46.5 9t-27.5 21t-13 25t-3 22q0 25 14 37.5t34 12.5q7 0 15 -1.5t15 -5.5t12 -11t5 -17q0 -14 -8.5 -26.5
t-8.5 -27.5q0 -13 7 -17t19 -4q16 0 29.5 7.5t26.5 24.5t26 44.5t29 67.5l44 112l-173 428h-69v14zM229 719h56l113 -167h-14l-127 105l-127 -105h-14z" />
    <glyph glyph-name="Ydieresis" unicode="&#x178;" horiz-adv-x="704" 
d="M419 847q0 19 13.5 32.5t32.5 13.5t32.5 -13.5t13.5 -32.5t-13.5 -32.5t-32.5 -13.5t-32.5 13.5t-13.5 32.5zM233 847q0 19 13.5 32.5t32.5 13.5t32.5 -13.5t13.5 -32.5t-13.5 -32.5t-32.5 -13.5t-32.5 13.5t-13.5 32.5zM203 14h111v287l-225 397h-91v14h306v-14h-100
l200 -352l189 352h-101v14h214v-14h-97l-195 -365v-319h111v-14h-322v14z" />
    <glyph glyph-name="Zacute" unicode="&#x179;" horiz-adv-x="648" 
d="M105 712h477l-419 -698h220q50 0 77 14.5t48 34.5q22 20 45 61t34 95h11v-219h-553l417 698h-155q-81 0 -126 -42.5t-65 -117.5h-11v174zM381 901q20 24 28.5 32t22.5 8t24 -10.5t10 -24.5q0 -11 -6.5 -17t-11.5 -10l-171 -122h-14z" />
    <glyph glyph-name="zacute" unicode="&#x17a;" horiz-adv-x="426" 
d="M72 429h317l-249 -415h141q29 0 47.5 11.5t30 29t18 37.5t12.5 38h8l-13 -130h-348l249 415h-86q-25 0 -43.5 -1.5t-33.5 -10.5t-28 -29t-28 -57h-8zM215 696q20 24 28.5 32t22.5 8t24 -10.5t10 -24.5q0 -11 -6.5 -17t-11.5 -10l-171 -122h-14z" />
    <glyph glyph-name="Zdotaccent" unicode="&#x17b;" horiz-adv-x="648" 
d="M105 712h477l-419 -698h220q50 0 77 14.5t48 34.5q22 20 45 61t34 95h11v-219h-553l417 698h-155q-81 0 -126 -42.5t-65 -117.5h-11v174zM290 867q0 19 13.5 32.5t32.5 13.5t32.5 -13.5t13.5 -32.5t-13.5 -32.5t-32.5 -13.5t-32.5 13.5t-13.5 32.5z" />
    <glyph glyph-name="zdotaccent" unicode="&#x17c;" horiz-adv-x="426" 
d="M72 429h317l-249 -415h141q29 0 47.5 11.5t30 29t18 37.5t12.5 38h8l-13 -130h-348l249 415h-86q-25 0 -43.5 -1.5t-33.5 -10.5t-28 -29t-28 -57h-8zM175 662q0 19 13.5 32.5t32.5 13.5t32.5 -13.5t13.5 -32.5t-13.5 -32.5t-32.5 -13.5t-32.5 13.5t-13.5 32.5z" />
    <glyph glyph-name="Zcaron" unicode="&#x17d;" horiz-adv-x="648" 
d="M352 757h-56l-113 167h14l127 -105l127 105h14zM105 712h477l-419 -698h220q50 0 77 14.5t48 34.5q22 20 45 61t34 95h11v-219h-553l417 698h-155q-81 0 -126 -42.5t-65 -117.5h-11v174z" />
    <glyph glyph-name="zcaron" unicode="&#x17e;" horiz-adv-x="426" 
d="M241 552h-56l-113 167h14l127 -105l127 105h14zM72 429h317l-249 -415h141q29 0 47.5 11.5t30 29t18 37.5t12.5 38h8l-13 -130h-348l249 415h-86q-25 0 -43.5 -1.5t-33.5 -10.5t-28 -29t-28 -57h-8z" />
    <glyph glyph-name="florin" unicode="&#x192;" horiz-adv-x="520" 
d="M57 355h135q5 52 19.5 116.5t41.5 121.5t68 95.5t99 38.5q18 0 37.5 -5.5t36 -17t27.5 -30t11 -44.5q0 -20 -12.5 -31.5t-32.5 -11.5q-16 0 -28.5 8.5t-12.5 29.5q0 10 2.5 16.5t6 11.5t6 10.5t2.5 13.5q0 11 -5 18t-12.5 11t-16 5.5t-15.5 1.5q-30 0 -49.5 -19
t-32 -47.5t-19 -62.5t-10.5 -65q-5 -42 -10 -82t-8 -82h131v-14h-132q-9 -63 -18.5 -126.5t-20.5 -124.5t-23.5 -116.5t-27.5 -101.5q-24 -75 -55.5 -113.5t-81.5 -38.5q-18 0 -35.5 6t-30.5 16.5t-21 25.5t-8 33q0 24 14 32t29 8q16 0 26 -8t10 -18q0 -11 -8 -25.5
t-8 -26.5q0 -16 11.5 -22.5t27.5 -6.5q43 0 63.5 40.5t28.5 133.5q3 41 7 88t7.5 93.5t7.5 90t6.5 78t4.5 56.5t2 27h-134v14z" />
    <glyph glyph-name="commaturnedmod" unicode="&#x2bb;" 
d="M189 718q-29 -21 -47.5 -41t-29 -37t-14 -31t-3.5 -24q0 -33 18 -52q17 25 43 25q19 0 37 -14t18 -40q0 -23 -17.5 -40t-43.5 -17q-20 0 -35 9t-26 23t-16.5 32.5t-5.5 38.5q0 29 12 57t29 52t37 42.5t35 28.5z" />
    <glyph glyph-name="apostrophemod" unicode="&#x2bc;" 
d="M89 459q29 21 47.5 40.5t29 37t14 31.5t3.5 24q0 32 -18 52q-17 -25 -43 -25q-19 0 -37 14t-18 40q0 23 17.5 40t43.5 17q19 0 34.5 -9t26.5 -23t16.5 -33t5.5 -38q0 -29 -12 -57.5t-29 -52.5t-37 -42t-35 -28z" />
    <glyph glyph-name="circumflex" unicode="&#x2c6;" 
d="M111 719h56l113 -167h-14l-127 105l-127 -105h-14z" />
    <glyph glyph-name="caron" unicode="&#x2c7;" 
d="M167 552h-56l-113 167h14l127 -105l127 105h14z" />
    <glyph glyph-name="breve" unicode="&#x2d8;" 
d="M21 707q2 -15 9 -32t20.5 -32t35 -25t53.5 -10t53.5 10t35 25t20.5 32t9 32h14q-1 -28 -7 -55.5t-21 -49.5t-40 -36t-64 -14t-64 14t-40 36t-21 49.5t-7 55.5h14z" />
    <glyph glyph-name="dotaccent" unicode="&#x2d9;" 
d="M93 662q0 19 13.5 32.5t32.5 13.5t32.5 -13.5t13.5 -32.5t-13.5 -32.5t-32.5 -13.5t-32.5 13.5t-13.5 32.5z" />
    <glyph glyph-name="ring" unicode="&#x2da;" 
d="M139 730q-16 0 -25.5 -6.5t-14.5 -18t-6.5 -26t-1.5 -29.5q0 -45 12 -62t36 -17t36 17t12 62q0 15 -1.5 29.5t-6.5 26t-14.5 18t-25.5 6.5zM139 741q10 0 26 -5t30.5 -15.5t25 -28t10.5 -42.5q0 -18 -7.5 -34.5t-20.5 -28.5t-29.5 -19.5t-34.5 -7.5t-34.5 7.5t-29.5 19.5
t-20.5 28.5t-7.5 34.5q0 25 10.5 42.5t25 28t30 15.5t26.5 5z" />
    <glyph glyph-name="ogonek" unicode="&#x2db;" 
d="M245 -168q-19 -15 -40 -23.5t-47 -8.5q-17 0 -33 4t-28.5 12t-20.5 20.5t-8 29.5q0 21 13.5 39.5t35.5 35t50 31t58 28.5h20q-32 -23 -53 -41t-33 -32t-16.5 -25.5t-4.5 -22.5q0 -18 13.5 -35t41.5 -17q16 0 27.5 6.5t16.5 10.5z" />
    <glyph glyph-name="tilde" unicode="&#x2dc;" 
d="M295 678q-1 -5 -6 -21.5t-17 -34.5t-31 -32t-47 -14q-21 0 -38 7.5t-34 16.5l-31 15.5t-32 7.5t-28 -5.5t-18 -13.5t-11 -16t-5 -12h-14q4 23 14 41.5t23.5 31t28.5 19.5t30 7q17 0 34 -7.5t35 -15.5q17 -9 34 -16.5t34 -7.5q16 0 28 6.5t19.5 15.5t12 17t5.5 11h14z" />
    <glyph glyph-name="hungarumlaut" unicode="&#x2dd;" 
d="M136 696q20 24 28.5 32t22.5 8t24 -10.5t10 -24.5q0 -11 -6.5 -17t-11.5 -10l-171 -122h-14zM294 696q20 24 28.5 32t22.5 8t24 -10.5t10 -24.5q0 -11 -6.5 -17t-11.5 -10l-171 -122h-14z" />
    <glyph glyph-name="gravecmb" unicode="&#x300;" horiz-adv-x="0" 
d="M-255 674q-5 4 -11.5 10t-6.5 17q0 14 10 24.5t24 10.5t22.5 -8t28.5 -32l118 -144h-14z" />
    <glyph glyph-name="acutecmb" unicode="&#x301;" horiz-adv-x="0" 
d="M-60 696q20 24 28.5 32t22.5 8t24 -10.5t10 -24.5q0 -11 -6.5 -17t-11.5 -10l-171 -122h-14z" />
    <glyph glyph-name="circumflexcmb" unicode="&#x302;" horiz-adv-x="0" 
d="M-164 719h56l113 -167h-14l-127 105l-127 -105h-14z" />
    <glyph glyph-name="tildecmb" unicode="&#x303;" horiz-adv-x="0" 
d="M20 678q-1 -5 -6 -21.5t-17 -34.5t-31 -32t-47 -14q-21 0 -38 7.5t-34 16.5l-31 15.5t-32 7.5t-28 -5.5t-18 -13.5t-11 -16t-5 -12h-14q4 23 14 41.5t23.5 31t28.5 19.5t30 7q17 0 34 -7.5t35 -15.5q17 -9 34 -16.5t34 -7.5q16 0 28 6.5t19.5 15.5t12 17t5.5 11h14z" />
    <glyph glyph-name="macroncmb" unicode="&#x304;" horiz-adv-x="0" 
d="M-276 633h280v-31h-280v31z" />
    <glyph glyph-name="brevecmb" unicode="&#x306;" horiz-adv-x="0" 
d="M-254 707q2 -15 9 -32t20.5 -32t35 -25t53.5 -10t53.5 10t35 25t20.5 32t9 32h14q-1 -28 -7 -55.5t-21 -49.5t-40 -36t-64 -14t-64 14t-40 36t-21 49.5t-7 55.5h14z" />
    <glyph glyph-name="dotaccentcmb" unicode="&#x307;" horiz-adv-x="0" 
d="M-182 662q0 19 13.5 32.5t32.5 13.5t32.5 -13.5t13.5 -32.5t-13.5 -32.5t-32.5 -13.5t-32.5 13.5t-13.5 32.5z" />
    <glyph glyph-name="dieresiscmb" unicode="&#x308;" horiz-adv-x="0" 
d="M-89 662q0 19 13.5 32.5t32.5 13.5t32.5 -13.5t13.5 -32.5t-13.5 -32.5t-32.5 -13.5t-32.5 13.5t-13.5 32.5zM-275 662q0 19 13.5 32.5t32.5 13.5t32.5 -13.5t13.5 -32.5t-13.5 -32.5t-32.5 -13.5t-32.5 13.5t-13.5 32.5z" />
    <glyph glyph-name="ringcmb" unicode="&#x30a;" horiz-adv-x="0" 
d="M-136 730q-16 0 -25.5 -6.5t-14.5 -18t-6.5 -26t-1.5 -29.5q0 -45 12 -62t36 -17t36 17t12 62q0 15 -1.5 29.5t-6.5 26t-14.5 18t-25.5 6.5zM-136 741q10 0 26 -5t30.5 -15.5t25 -28t10.5 -42.5q0 -18 -7.5 -34.5t-20.5 -28.5t-29.5 -19.5t-34.5 -7.5t-34.5 7.5
t-29.5 19.5t-20.5 28.5t-7.5 34.5q0 25 10.5 42.5t25 28t30 15.5t26.5 5z" />
    <glyph glyph-name="hungarumlautcmb" unicode="&#x30b;" horiz-adv-x="0" 
d="M-139 696q20 24 28.5 32t22.5 8t24 -10.5t10 -24.5q0 -11 -6.5 -17t-11.5 -10l-171 -122h-14zM19 696q20 24 28.5 32t22.5 8t24 -10.5t10 -24.5q0 -11 -6.5 -17t-11.5 -10l-171 -122h-14z" />
    <glyph glyph-name="caroncmb" unicode="&#x30c;" horiz-adv-x="0" 
d="M-108 552h-56l-113 167h14l127 -105l127 105h14z" />
    <glyph glyph-name="cedillacmb" unicode="&#x327;" horiz-adv-x="0" 
d="M-89 0h20l-69 -72l2 -2q8 6 20 10t29 4q8 0 21.5 -3.5t27 -13t23.5 -26.5t10 -44q0 -45 -31.5 -70t-73.5 -25q-23 0 -43 9t-34 21l8 12q11 -8 27 -16.5t39 -8.5q16 0 26 7.5t15.5 18.5t7.5 25t2 28q0 26 -9.5 46t-37.5 20q-15 0 -24 -4t-16 -9l-14 15z" />
    <glyph glyph-name="ogonekcmb" unicode="&#x328;" horiz-adv-x="0" 
d="M-30 -168q-19 -15 -40 -23.5t-47 -8.5q-17 0 -33 4t-28.5 12t-20.5 20.5t-8 29.5q0 21 13.5 39.5t35.5 35t50 31t58 28.5h20q-32 -23 -53 -41t-33 -32t-16.5 -25.5t-4.5 -22.5q0 -18 13.5 -35t41.5 -17q16 0 27.5 6.5t16.5 10.5z" />
    <glyph glyph-name="soliduslongoverlaycmb" unicode="&#x338;" horiz-adv-x="0" 
d="M-20 718l20 -6l-270 -718l-20 6z" />
    <glyph glyph-name="Omegagreek" unicode="&#x3a9;" horiz-adv-x="768" 
d="M330 0h-295v163h16q5 -19 10 -31t13 -18.5t19.5 -8.5t29.5 -2h148v14q-79 23 -122 57q-22 18 -39.5 42t-30 52t-19 59t-6.5 61q0 74 39 143q40 69 115.5 106.5t175.5 37.5q101 0 175 -37q77 -38 115 -107q40 -68 40 -143q0 -60 -26 -120q-25 -59 -69 -93.5t-121 -57.5
v-14h148q18 0 29.5 2t19 8.5t12.5 18.5t10 31h17v-163h-296l16 142q60 23 90 64q51 70 51 183q0 126 -56 189t-152 63q-100 0 -150 -56q-63 -71 -63 -195q0 -72 19.5 -126t55.5 -85q22 -22 66 -37z" />
    <glyph glyph-name="pi" unicode="&#x3c0;" horiz-adv-x="505" 
d="M485 447v-71h-113l-10 -148q-3 -39 -3 -67q0 -68 16 -83t38 -15q47 0 56 59h17q-17 -135 -108 -135q-43 0 -69 26t-26 78q0 17 2.5 53t7.5 91l13 141h-103q-5 -90 -11.5 -154t-13.5 -106q-13 -81 -32 -106q-17 -23 -47 -23q-22 0 -37.5 13t-15.5 34t26 56q38 51 58 108
q10 28 17 72.5t12 105.5h-34q-40 0 -61 -18t-40 -51h-18q15 52 37 86q22 33 46 44q23 10 84 10h312z" />
    <glyph glyph-name="zerowidthspace" unicode="&#x200b;" horiz-adv-x="0" 
 />
    <glyph glyph-name="zerowidthnonjoiner" unicode="&#x200c;" horiz-adv-x="0" 
 />
    <glyph glyph-name="zerowidthjoiner" unicode="&#x200d;" horiz-adv-x="0" 
 />
    <glyph glyph-name="lefttorightmark" unicode="&#x200e;" horiz-adv-x="0" 
 />
    <glyph glyph-name="righttoleftmark" unicode="&#x200f;" horiz-adv-x="0" 
 />
    <glyph glyph-name="hyphentwo" unicode="&#x2010;" horiz-adv-x="370" 
d="M92 251h186v-66h-186v66z" />
    <glyph glyph-name="nonbreakinghyphen" unicode="&#x2011;" horiz-adv-x="370" 
d="M92 251h186v-66h-186v66z" />
    <glyph glyph-name="figuredash" unicode="&#x2012;" horiz-adv-x="500" 
d="M0 225h500v-14h-500v14z" />
    <glyph glyph-name="endash" unicode="&#x2013;" horiz-adv-x="500" 
d="M0 225h500v-14h-500v14z" />
    <glyph glyph-name="emdash" unicode="&#x2014;" horiz-adv-x="1000" 
d="M130 225h740v-14h-740v14z" />
    <glyph glyph-name="horizontalbar" unicode="&#x2015;" horiz-adv-x="1000" 
d="M130 225h740v-14h-740v14z" />
    <glyph glyph-name="quoteleft" unicode="&#x2018;" 
d="M189 718q-29 -21 -47.5 -41t-29 -37t-14 -31t-3.5 -24q0 -33 18 -52q17 25 43 25q19 0 37 -14t18 -40q0 -23 -17.5 -40t-43.5 -17q-20 0 -35 9t-26 23t-16.5 32.5t-5.5 38.5q0 29 12 57t29 52t37 42.5t35 28.5z" />
    <glyph glyph-name="quoteright" unicode="&#x2019;" 
d="M89 459q29 21 47.5 40.5t29 37t14 31.5t3.5 24q0 32 -18 52q-17 -25 -43 -25q-19 0 -37 14t-18 40q0 23 17.5 40t43.5 17q19 0 34.5 -9t26.5 -23t16.5 -33t5.5 -38q0 -29 -12 -57.5t-29 -52.5t-37 -42t-35 -28z" />
    <glyph glyph-name="quotesinglbase" unicode="&#x201a;" 
d="M91 -167q15 12 30.5 26t29 31t22 35.5t8.5 39.5q0 20 -6.5 32t-9.5 17q-6 -7 -16.5 -16t-27.5 -9q-22 0 -37 14t-15 38q0 20 16 37.5t42 17.5q25 0 41 -11t25 -26.5t12.5 -32t3.5 -26.5q0 -32 -11.5 -59.5t-28.5 -50t-36 -40t-34 -27.5z" />
    <glyph glyph-name="quoteleftreversed" unicode="&#x201b;" 
d="M89 459q29 21 47.5 40.5t29 37t14 31.5t3.5 24q0 32 -18 52q-17 -25 -43 -25q-19 0 -37 14t-18 40q0 23 17.5 40t43.5 17q19 0 34.5 -9t26.5 -23t16.5 -33t5.5 -38q0 -29 -12 -57.5t-29 -52.5t-37 -42t-35 -28z" />
    <glyph glyph-name="quotedblleft" unicode="&#x201c;" horiz-adv-x="444" 
d="M177 720q-15 -12 -30.5 -26t-29 -31t-22 -35.5t-8.5 -39.5q0 -20 6.5 -32t9.5 -17q6 7 16.5 16t27.5 9q22 0 37 -14t15 -38q0 -20 -16 -37.5t-42 -17.5t-42 11t-25 26.5t-12 32t-3 26.5q0 32 11.5 59.5t28.5 50t36 39.5t34 28zM363 720q-15 -12 -30.5 -26t-29 -31
t-22 -35.5t-8.5 -39.5q0 -20 6.5 -32t9.5 -17q6 7 16.5 16t27.5 9q22 0 37 -14t15 -38q0 -20 -16 -37.5t-42 -17.5t-42 11t-25 26.5t-12 32t-3 26.5q0 32 11.5 59.5t28.5 50t36 39.5t34 28z" />
    <glyph glyph-name="quotedblright" unicode="&#x201d;" horiz-adv-x="444" 
d="M267 467q15 12 30.5 26t29 31t22 35.5t8.5 39.5q0 20 -6.5 32t-9.5 17q-6 -7 -16.5 -16t-27.5 -9q-22 0 -37 14t-15 38q0 20 16 37.5t42 17.5q25 0 41 -11t25 -26.5t12.5 -32t3.5 -26.5q0 -32 -11.5 -59.5t-28.5 -50t-36 -40t-34 -27.5zM81 467q15 12 30.5 26t29 31
t22 35.5t8.5 39.5q0 20 -6.5 32t-9.5 17q-6 -7 -16.5 -16t-27.5 -9q-22 0 -37 14t-15 38q0 20 16 37.5t42 17.5q25 0 41 -11t25 -26.5t12.5 -32t3.5 -26.5q0 -32 -11.5 -59.5t-28.5 -50t-36 -40t-34 -27.5z" />
    <glyph glyph-name="quotedblbase" unicode="&#x201e;" horiz-adv-x="444" 
d="M267 -167q15 12 30.5 26t29 31t22 35.5t8.5 39.5q0 20 -6.5 32t-9.5 17q-6 -7 -16.5 -16t-27.5 -9q-22 0 -37 14t-15 38q0 20 16 37.5t42 17.5q25 0 41 -11t25 -26.5t12.5 -32t3.5 -26.5q0 -32 -11.5 -59.5t-28.5 -50t-36 -40t-34 -27.5zM81 -167q15 12 30.5 26t29 31
t22 35.5t8.5 39.5q0 20 -6.5 32t-9.5 17q-6 -7 -16.5 -16t-27.5 -9q-22 0 -37 14t-15 38q0 20 16 37.5t42 17.5q25 0 41 -11t25 -26.5t12.5 -32t3.5 -26.5q0 -32 -11.5 -59.5t-28.5 -50t-36 -40t-34 -27.5z" />
    <glyph glyph-name="quotedblleftaltone" unicode="&#x201f;" horiz-adv-x="444" 
d="M267 467q15 12 30.5 26t29 31t22 35.5t8.5 39.5q0 20 -6.5 32t-9.5 17q-6 -7 -16.5 -16t-27.5 -9q-22 0 -37 14t-15 38q0 20 16 37.5t42 17.5q25 0 41 -11t25 -26.5t12.5 -32t3.5 -26.5q0 -32 -11.5 -59.5t-28.5 -50t-36 -40t-34 -27.5zM81 467q15 12 30.5 26t29 31
t22 35.5t8.5 39.5q0 20 -6.5 32t-9.5 17q-6 -7 -16.5 -16t-27.5 -9q-22 0 -37 14t-15 38q0 20 16 37.5t42 17.5q25 0 41 -11t25 -26.5t12.5 -32t3.5 -26.5q0 -32 -11.5 -59.5t-28.5 -50t-36 -40t-34 -27.5z" />
    <glyph glyph-name="dagger" unicode="&#x2020;" horiz-adv-x="520" 
d="M253 3q0 61 -7.5 100t-18 62t-22 34t-19.5 17q21 15 34 34.5t20.5 47t10 65t2.5 89.5q-15 0 -32 -0.5t-34 -3t-32.5 -6.5t-26.5 -10q-14 -8 -24.5 -14.5t-26.5 -6.5q-23 0 -35 15t-12 33t12 33t35 15q16 0 26.5 -6.5t24.5 -14.5q11 -6 26.5 -10t32.5 -6.5t34 -3t32 -0.5
q0 53 -2.5 78.5t-5.5 37.5q-6 30 -19.5 55.5t-13.5 45.5q0 17 12.5 32t35.5 15t35.5 -15t12.5 -32q0 -20 -13.5 -45.5t-19.5 -55.5q-3 -12 -5.5 -37.5t-2.5 -78.5q15 0 32 0.5t34 3t32.5 6.5t26.5 10q14 8 24.5 14.5t26.5 6.5q23 0 35 -15t12 -33t-12 -33t-35 -15
q-16 0 -26.5 6.5t-24.5 14.5q-11 6 -26.5 10t-32.5 6.5t-34 3t-32 0.5q0 -52 2.5 -89.5t10 -65t20.5 -47t34 -34.5q-8 -6 -19.5 -17t-22 -34t-18 -62t-7.5 -100v-283h-14v283z" />
    <glyph glyph-name="daggerdbl" unicode="&#x2021;" horiz-adv-x="520" 
d="M260 730q23 0 35.5 -15t12.5 -32q0 -20 -13.5 -45.5t-19.5 -55.5q-3 -12 -5.5 -37.5t-2.5 -78.5q15 0 32 0.5t34 3t32.5 6.5t26.5 10q14 8 24.5 14.5t26.5 6.5q23 0 35 -15t12 -33t-12 -33t-35 -15q-16 0 -26.5 6.5t-24.5 14.5q-11 6 -26.5 10t-32.5 6.5t-34 3t-32 0.5
q0 -50 2.5 -86t10 -63t20.5 -46.5t34 -34.5q-21 -15 -34 -34.5t-20.5 -46.5t-10 -63.5t-2.5 -85.5q15 0 32 0.5t34 3t32.5 6.5t26.5 10q14 8 24.5 14.5t26.5 6.5q23 0 35 -15t12 -33t-12 -33t-35 -15q-16 0 -26.5 6.5t-24.5 14.5q-11 6 -26.5 10t-32.5 6.5t-34 3t-32 0.5
q0 -53 2.5 -78.5t5.5 -37.5q6 -30 19.5 -55.5t13.5 -45.5q0 -17 -12.5 -32t-35.5 -15t-35.5 15t-12.5 32q0 20 13.5 45.5t19.5 55.5q3 12 5.5 37.5t2.5 78.5q-15 0 -32 -0.5t-34 -3t-32.5 -6.5t-26.5 -10q-14 -8 -24.5 -14.5t-26.5 -6.5q-23 0 -35 15t-12 33t12 33t35 15
q16 0 26.5 -6.5t24.5 -14.5q11 -6 26.5 -10t32.5 -6.5t34 -3t32 -0.5q0 49 -2.5 85.5t-10 63.5t-20.5 46.5t-34 34.5q21 15 34 34.5t20.5 46.5t10 63t2.5 86q-15 0 -32 -0.5t-34 -3t-32.5 -6.5t-26.5 -10q-14 -8 -24.5 -14.5t-26.5 -6.5q-23 0 -35 15t-12 33t12 33t35 15
q16 0 26.5 -6.5t24.5 -14.5q11 -6 26.5 -10t32.5 -6.5t34 -3t32 -0.5q0 53 -2.5 78.5t-5.5 37.5q-6 30 -19.5 55.5t-13.5 45.5q0 17 12.5 32t35.5 15z" />
    <glyph glyph-name="bullet" unicode="&#x2022;" horiz-adv-x="500" 
d="M72 356q0 37 14 69.5t38 56.5t56.5 38t69.5 14t69.5 -14t56.5 -38t38 -56.5t14 -69.5t-14 -69.5t-38 -56.5t-56.5 -38t-69.5 -14t-69.5 14t-56.5 38t-38 56.5t-14 69.5z" />
    <glyph glyph-name="onedotleader" unicode="&#x2024;" horiz-adv-x="333" 
d="M114 42q0 22 15.5 37.5t37.5 15.5t37.5 -15.5t15.5 -37.5t-15.5 -37t-37.5 -15t-37.5 15t-15.5 37z" />
    <glyph glyph-name="twodotleader" unicode="&#x2025;" horiz-adv-x="679" 
d="M447 42q0 22 15.5 37.5t37.5 15.5t37.5 -15.5t15.5 -37.5t-15.5 -37t-37.5 -15t-37.5 15t-15.5 37zM114 42q0 22 15.5 37.5t37.5 15.5t37.5 -15.5t15.5 -37.5t-15.5 -37t-37.5 -15t-37.5 15t-15.5 37z" />
    <glyph glyph-name="ellipsis" unicode="&#x2026;" horiz-adv-x="1000" 
d="M780 42q0 22 15.5 37.5t37.5 15.5t37.5 -15.5t15.5 -37.5t-15.5 -37.5t-37.5 -15.5t-37.5 15.5t-15.5 37.5zM447 42q0 22 15.5 37.5t37.5 15.5t37.5 -15.5t15.5 -37.5t-15.5 -37.5t-37.5 -15.5t-37.5 15.5t-15.5 37.5zM114 42q0 22 15.5 37.5t37.5 15.5t37.5 -15.5
t15.5 -37.5t-15.5 -37.5t-37.5 -15.5t-37.5 15.5t-15.5 37.5z" />
    <glyph glyph-name="perthousand" unicode="&#x2030;" horiz-adv-x="1000" 
d="M807 0q18 0 33.5 5.5t27 20.5t18 42.5t6.5 71.5q0 40 -8.5 65t-21 38t-28 17.5t-29.5 4.5q-42 0 -63.5 -30.5t-21.5 -96.5q0 -42 6 -69t17 -42t27 -21t37 -6zM803 -14q-24 0 -49.5 11t-47 31t-35.5 46.5t-14 58.5q0 29 14 55.5t35 46.5t47 32t50 12q31 0 58.5 -13.5
t48.5 -35t33 -47.5t12 -51q0 -26 -12 -52t-33 -47t-48.5 -34t-58.5 -13zM191 434q-24 0 -49.5 11t-47 31t-35.5 46.5t-14 58.5q0 29 14 55.5t35 46.5t47 32t50 12q31 0 58.5 -13.5t48.5 -35t33 -47.5t12 -51q0 -26 -12 -52t-33 -47t-48.5 -34t-58.5 -13zM457 -14
q-24 0 -49.5 11t-47 31t-35.5 46.5t-14 58.5q0 29 14 55.5t35 46.5t47 32t50 12q31 0 58.5 -13.5t48.5 -35t33 -47.5t12 -51q0 -26 -12 -52t-33 -47t-48.5 -34t-58.5 -13zM195 448q18 0 33.5 5.5t27 20.5t18 42.5t6.5 71.5q0 40 -8.5 65t-21 38t-28 17.5t-29.5 4.5
q-42 0 -63.5 -30.5t-21.5 -96.5q0 -42 6 -69t17 -42t27 -21t37 -6zM507 727l18 -9l-380 -732l-18 9zM461 0q18 0 33.5 5.5t27 20.5t18 42.5t6.5 71.5q0 40 -8.5 65t-21 38t-28 17.5t-29.5 4.5q-42 0 -63.5 -30.5t-21.5 -96.5q0 -42 6 -69t17 -42t27 -21t37 -6z" />
    <glyph glyph-name="uni2031" unicode="&#x2031;" horiz-adv-x="1351" 
d="M807 0q18 0 33.5 5.5t27 20.5t18 42.5t6.5 71.5q0 40 -8.5 65t-21 38t-28 17.5t-29.5 4.5q-42 0 -63.5 -30.5t-21.5 -96.5q0 -42 6 -69t17 -42t27 -21t37 -6zM803 -13q-24 0 -49.5 10.5t-47 30.5t-35.5 46.5t-14 58.5q0 29 14 55.5t35 46.5t47 32t50 12q31 0 58.5 -13.5
t48.5 -35t33 -47.5t12 -51q0 -26 -12 -52t-33 -47t-48.5 -33.5t-58.5 -12.5zM191 434q-24 0 -49.5 11t-47 31t-35.5 46.5t-14 58.5q0 29 14 55.5t35 46.5t47 32t50 12q31 0 58.5 -13.5t48.5 -35t33 -47.5t12 -51q0 -26 -12 -52t-33 -47t-48.5 -34t-58.5 -13zM457 -13
q-24 0 -49.5 10.5t-47 30.5t-35.5 46.5t-14 58.5q0 29 14 55.5t35 46.5t47 32t50 12q31 0 58.5 -13.5t48.5 -35t33 -47.5t12 -51q0 -26 -12 -52t-33 -47t-48.5 -33.5t-58.5 -12.5zM195 448q18 0 33.5 5.5t27 20.5t18 42.5t6.5 71.5q0 40 -8.5 65t-21 38t-28 17.5t-29.5 4.5
q-42 0 -63.5 -30.5t-21.5 -96.5q0 -42 6 -69t17 -42t27 -21t37 -6zM507 727l18 -9l-380 -731l-18 9zM461 0q18 0 33.5 5.5t27 20.5t18 42.5t6.5 71.5q0 40 -8.5 65t-21 38t-28 17.5t-29.5 4.5q-42 0 -63.5 -30.5t-21.5 -96.5q0 -42 6 -69t17 -42t27 -21t37 -6zM1152 -1
q18 0 33.5 5.5t27 20.5t18 42.5t6.5 71.5q0 40 -8.5 65t-21 38t-28 17.5t-29.5 4.5q-42 0 -63.5 -30.5t-21.5 -96.5q0 -42 6 -69t17 -42t27 -21t37 -6zM1148 -14q-24 0 -49.5 10.5t-47 30.5t-35.5 46.5t-14 58.5q0 29 14 55.5t35 46.5t47 32t50 12q31 0 58.5 -13.5t48.5 -35
t33 -47.5t12 -51q0 -26 -12 -52t-33 -47t-48.5 -33.5t-58.5 -12.5z" />
    <glyph glyph-name="guilsinglleft" unicode="&#x2039;" 
d="M216 348q-42 -11 -67 -40t-25 -90t25 -90t67 -40l-3 -11q-30 4 -57.5 14t-48 27t-33 42t-12.5 58t12.5 58t33 42t48 27t57.5 14z" />
    <glyph glyph-name="guilsinglright" unicode="&#x203a;" 
d="M62 88q42 11 67 40t25 90t-25 90t-67 40l3 11q30 -4 57.5 -14t48 -27t33 -42t12.5 -58t-12.5 -58t-33 -42t-48 -27t-57.5 -14z" />
    <glyph glyph-name="exclamdbl" unicode="&#x203c;" horiz-adv-x="516" 
d="M308 42q0 22 15.5 37.5t37.5 15.5t37.5 -15.5t15.5 -37.5t-15.5 -37.5t-37.5 -15.5t-37.5 15.5t-15.5 37.5zM320 591q-1 9 -2 23l-2 28t-2 25.5t-1 15.5q0 20 13 33.5t35 13.5t35 -13.5t13 -33.5q0 -4 -1 -15.5t-2 -25.5l-2 -28t-2 -23l-31 -413h-20zM104 42
q0 22 15.5 37.5t37.5 15.5t37.5 -15.5t15.5 -37.5t-15.5 -37.5t-37.5 -15.5t-37.5 15.5t-15.5 37.5zM116 591q-1 9 -2 23l-2 28t-2 25.5t-1 15.5q0 20 13 33.5t35 13.5t35 -13.5t13 -33.5q0 -4 -1 -15.5t-2 -25.5l-2 -28t-2 -23l-31 -413h-20z" />
    <glyph glyph-name="uni2043" unicode="&#x2043;" horiz-adv-x="370" 
d="M92 251h186v-66h-186v66z" />
    <glyph glyph-name="fraction" unicode="&#x2044;" horiz-adv-x="74" 
d="M218 727l18 -9l-380 -732l-18 9z" />
    <glyph glyph-name="uni2048" unicode="&#x2048;" horiz-adv-x="581" 
d="M84 42q0 22 15.5 37.5t37.5 15.5t37.5 -15.5t15.5 -37.5t-15.5 -37.5t-37.5 -15.5t-37.5 15.5t-15.5 37.5zM130 429h16q11 -23 26 -36t41 -13q18 0 31 8t21.5 27.5t12.5 53t4 84.5q0 49 -4.5 81t-13 50t-20.5 25t-26 7q-8 0 -18.5 -2t-19.5 -6.5t-15.5 -12.5t-6.5 -19
q0 -9 3.5 -16.5t8 -15t8.5 -15.5t4 -18q0 -15 -11.5 -25t-28.5 -10q-18 0 -32 9.5t-14 31.5q0 15 7.5 35t23.5 37t40 29t57 12q57 0 92 -44.5t35 -132.5q0 -37 -7.5 -70.5t-23.5 -59.5t-41.5 -41.5t-61.5 -15.5q-27 0 -44.5 12t-26.5 22v-222h-16v251zM379 42
q0 22 15.5 37.5t37.5 15.5t37.5 -15.5t15.5 -37.5t-15.5 -37.5t-37.5 -15.5t-37.5 15.5t-15.5 37.5zM391 591q-1 9 -2 23l-2 28t-2 25.5t-1 15.5q0 20 13 33.5t35 13.5t35 -13.5t13 -33.5q0 -4 -1 -15.5t-2 -25.5l-2 -28t-2 -23l-31 -413h-20z" />
    <glyph glyph-name="uni2049" unicode="&#x2049;" horiz-adv-x="587" 
d="M104 42q0 22 15.5 37.5t37.5 15.5t37.5 -15.5t15.5 -37.5t-15.5 -37.5t-37.5 -15.5t-37.5 15.5t-15.5 37.5zM116 591q-1 9 -2 23l-2 28t-2 25.5t-1 15.5q0 20 13 33.5t35 13.5t35 -13.5t13 -33.5q0 -4 -1 -15.5t-2 -25.5l-2 -28t-2 -23l-31 -413h-20zM267 42
q0 22 15.5 37.5t37.5 15.5t37.5 -15.5t15.5 -37.5t-15.5 -37.5t-37.5 -15.5t-37.5 15.5t-15.5 37.5zM313 429h16q11 -23 26 -36t41 -13q18 0 31 8t21.5 27.5t12.5 53t4 84.5q0 49 -4.5 81t-13 50t-20.5 25t-26 7q-8 0 -18.5 -2t-19.5 -6.5t-15.5 -12.5t-6.5 -19
q0 -9 3.5 -16.5t8 -15t8.5 -15.5t4 -18q0 -15 -11.5 -25t-28.5 -10q-18 0 -32 9.5t-14 31.5q0 15 7.5 35t23.5 37t40 29t57 12q57 0 92 -44.5t35 -132.5q0 -37 -7.5 -70.5t-23.5 -59.5t-41.5 -41.5t-61.5 -15.5q-27 0 -44.5 12t-26.5 22v-222h-16v251z" />
    <glyph glyph-name="uni204B" unicode="&#x204b;" horiz-adv-x="593" 
d="M405 698h-91v-550q0 -72 -3 -127.5t-14.5 -94.5t-34.5 -62.5t-62 -33.5q75 3 116.5 35t61 78.5t23.5 101t4 103.5v550zM491 148q0 -94 -23 -161t-81 -111q-27 -20 -55 -32t-53 -18t-46 -8t-34 -2q-41 0 -64.5 11t-35.5 26t-15 29.5t-3 21.5q0 25 15 38t38 13q20 0 31 -8
t11 -22q0 -3 -2 -11l-4 -16t-4 -15t-2 -10q0 -8 6.5 -18.5t25.5 -10.5q6 0 16.5 3t22 11.5t23 23t20.5 37.5q7 19 11 45.5t6.5 57t3 63t0.5 63.5v142q-32 1 -69.5 4.5t-79.5 19.5q-26 10 -48.5 28.5t-39.5 43t-26.5 55t-9.5 63.5q0 60 30 108t82 71q22 10 43.5 16t42.5 9
t43 3.5t47 0.5h255v-14h-78v-550z" />
    <glyph glyph-name="Euro" unicode="&#x20ac;" horiz-adv-x="520" 
d="M499 0h-12q-9 11 -16.5 16t-19.5 5q-11 0 -21 -3.5t-22 -8.5q-15 -6 -26.5 -10.5t-22 -7.5t-21.5 -4.5t-26 -1.5q-70 0 -113 25.5t-72 72.5q-7 11 -16.5 29t-18.5 44.5t-16.5 62.5t-10.5 83h-63l4 14h59q-2 14 -2 25v29t0.5 29t2.5 27h-64l5 14h61q2 35 8.5 64.5t14 51.5
t14 35.5t8.5 17.5q21 39 46.5 63t51.5 37t52 17t49 4q29 0 50.5 -5.5t47.5 -19.5q8 -5 18.5 -9.5t22.5 -4.5q15 0 23 7t11 14h12v-180h-8q-6 29 -18.5 60t-29.5 56q-22 32 -51.5 50t-74.5 18q-43 0 -70 -18.5t-45 -53.5q-5 -9 -11 -24.5t-11.5 -40t-9 -59t-3.5 -80.5h294
l-5 -14h-290q-2 -35 -2.5 -59.5t1.5 -50.5h251l-5 -14h-246q1 -66 6.5 -110.5t12.5 -73t14.5 -43.5t12.5 -22q13 -19 27 -29.5t28 -16t26.5 -7t22.5 -1.5q34 0 63.5 12t50.5 33q6 6 14 17t17 28.5t17.5 43t14.5 60.5h9v-193z" />
    <glyph glyph-name="trademark" unicode="&#x2122;" horiz-adv-x="981" 
d="M495 701h-56v11h122l99 -289l100 289h119v-11h-56v-368h56v-11h-171v11h57v355l-130 -371l-128 368v-352h57v-11h-125v11h56v368zM212 701h-30q-9 0 -22.5 -1.5t-27 -10.5t-27 -27.5t-22.5 -52.5h-9v103h334v-103h-9q-9 34 -22 52.5t-26.5 27.5t-27 10.5t-23.5 1.5h-30
v-368h57v-11h-171v11h56v368z" />
    <glyph glyph-name="Omega" unicode="&#x2126;" horiz-adv-x="768" 
d="M330 0h-295v163h16q5 -19 10 -31t13 -18.5t19.5 -8.5t29.5 -2h148v14q-79 23 -122 57q-22 18 -39.5 42t-30 52t-19 59t-6.5 61q0 74 39 143q40 69 115.5 106.5t175.5 37.5q101 0 175 -37q77 -38 115 -107q40 -68 40 -143q0 -60 -26 -120q-25 -59 -69 -93.5t-121 -57.5
v-14h148q18 0 29.5 2t19 8.5t12.5 18.5t10 31h17v-163h-296l16 142q60 23 90 64q51 70 51 183q0 126 -56 189t-152 63q-100 0 -150 -56q-63 -71 -63 -195q0 -72 19.5 -126t55.5 -85q22 -22 66 -37z" />
    <glyph glyph-name="partialdiff" unicode="&#x2202;" horiz-adv-x="494" 
d="M454 350q2 28 3.5 50.5t1.5 40.5q0 88 -46 136t-122 48q-52 0 -86.5 -19.5t-60.5 -58.5h-23q38 78 81.5 112.5t104.5 34.5q33 -1 65.5 -13.5t58 -41.5t41 -75.5t14.5 -114.5q0 -174 -75 -310q-85 -154 -214 -154q-76 0 -121 44t-45 119q0 44 13.5 85.5t35 76.5t50 62
t58.5 42q56 29 113 29q40 0 72.5 -15t53.5 -37q13 -13 27 -41zM445 307q-19 54 -56.5 82t-83.5 28q-44 0 -87 -31q-42 -30 -73 -106q-31 -75 -31 -152q0 -55 26.5 -85t68.5 -30q60 0 123 63q78 80 113 231z" />
    <glyph glyph-name="Delta" unicode="&#x2206;" horiz-adv-x="612" 
d="M599 0h-586l306 677zM483 40l-194 472l-215 -472h409z" />
    <glyph glyph-name="product" unicode="&#x220f;" horiz-adv-x="823" 
d="M605 655h-388v-776q0 -42 18 -59t61 -17h18v-18h-292v18h18q43 0 61 17t18 59v721q0 40 -18 57.5t-61 17.5h-18v18h779v-18h-17q-43 0 -61 -17.5t-18 -57.5v-721q0 -42 18 -59t61 -17h17v-18h-292v18h17q43 0 61 17t18 59v776z" />
    <glyph glyph-name="summation" unicode="&#x2211;" horiz-adv-x="713" 
d="M662 -215h-641v18l327 439l-327 433v18h624l13 -164h-19q-8 67 -38 96t-84 29h-361l274 -370l-307 -413h399q36 0 75 13q28 9 46.5 32.5t30.5 74.5l19 -4z" />
    <glyph glyph-name="minus" unicode="&#x2212;" horiz-adv-x="593" 
d="M56 249h480v-18h-480v18z" />
    <glyph glyph-name="radical" unicode="&#x221a;" horiz-adv-x="549" 
d="M512 913h36l-152 -951l-242 498l-97 -44l-16 31l146 74l198 -402z" />
    <glyph glyph-name="infinity" unicode="&#x221e;" horiz-adv-x="713" 
d="M319 326q33 76 72 105q40 30 109 30q77 0 133 -57q54 -56 54 -147q0 -88 -53 -147q-52 -58 -118 -58q-48 0 -90 36q-27 23 -74 104q-32 -61 -69 -87.5t-90 -26.5q-70 0 -118 50q-49 50 -49 130t45 130q45 49 105 49q43 0 74 -22q31 -21 69 -89zM366 227q18 -39 35.5 -64
t36 -39.5t38.5 -20t42 -5.5q30 0 56 11.5t44.5 32t29.5 50t11 65.5q0 73 -43 119q-42 47 -95 47q-34 0 -59 -17t-45 -55q-13 -24 -51 -124zM305 288q-24 54 -55 79.5t-76 25.5q-26 0 -48 -9.5t-38 -27t-25.5 -42.5t-9.5 -55q0 -66 34 -104q34 -39 78 -39q46 0 82 42
q24 29 58 130z" />
    <glyph glyph-name="integral" unicode="&#x222b;" horiz-adv-x="274" 
d="M106 721q5 76 25 124q13 33 36 49t45 16q25 0 43 -16.5t18 -36.5q0 -23 -12.5 -36.5t-31.5 -13.5q-18 0 -38 17q-10 10 -19 10q-8 0 -14 -7t-6 -24q0 -10 1.5 -27.5t3.5 -43.5q18 -201 18 -324q0 -17 -2 -88.5t-6 -199.5q-5 -144 -44 -194q-26 -33 -65 -33
q-26 0 -42 16.5t-16 42.5q0 22 12.5 35t31.5 13t33 -15q15 -16 25 -16q19 0 19 30q0 10 -1.5 24.5t-3.5 33.5q-8 70 -12 165q-6 121 -6 215z" />
    <glyph glyph-name="approxequal" unicode="&#x2248;" horiz-adv-x="549" 
d="M535 507q-2 -63 -36 -98t-82 -35q-25 0 -49 7q-26 8 -134 52q-75 31 -108 31q-34 0 -57.5 -21.5t-32.5 -67.5h-21q0 31 9.5 55.5t25.5 41.5t36.5 26t41.5 10q22 0 43 -7q26 -7 61 -20t81 -33q50 -22 77 -29q13 -3 32 -3q37 0 62 23t30 68h21zM535 267q-2 -63 -36 -98.5
t-82 -35.5q-23 0 -74 15l-109 45q-75 31 -108 31q-34 0 -57.5 -21t-32.5 -69h-21q0 32 9 57t25 41.5t36.5 25.5t41.5 10q21 0 44 -6q49 -15 142 -54q24 -11 43.5 -17.5t33.5 -10.5q12 -4 32 -4q37 0 62 23t30 68h21z" />
    <glyph glyph-name="notequal" unicode="&#x2260;" horiz-adv-x="549" 
d="M12 399h294l103 261h39l-101 -261h190v-45h-208l-70 -181h278v-46h-296l-103 -258h-39l102 258h-189v46h207l71 181h-278v45z" />
    <glyph glyph-name="lessequal" unicode="&#x2264;" horiz-adv-x="549" 
d="M536 120l-524 223v40l524 222v-50l-464 -192l464 -193v-50zM12 -34h525v-45h-525v45z" />
    <glyph glyph-name="greaterequal" unicode="&#x2265;" horiz-adv-x="549" 
d="M12 605l524 -223v-40l-524 -222v50l464 192l-464 193v50zM12 -34h525v-45h-525v45z" />
    <glyph glyph-name="lozenge" unicode="&#x25ca;" horiz-adv-x="494" 
d="M268 694l204 -348l-204 -346h-54l-191 346l191 348h54zM242 647l-166 -301l166 -300l175 300z" />
    <glyph glyph-name="apple" unicode="&#xf8ff;" horiz-adv-x="790" 
d="M408 588q-16 0 -69 15q-52 15 -89 15q-86 0 -143 -72q-56 -73 -56 -187q0 -124 74 -252q74 -129 150 -129q24 0 66 17q39 16 72 16q32 0 75 -15q44 -16 71 -16q65 0 129 97q21 32 36 63.5t25 61.5q-45 14 -79 63q-35 50 -35 112q0 57 33 103q18 26 57 60q-13 16 -26 28
t-26 22q-47 32 -107 32q-36 0 -87 -17t-71 -17zM561 790q0 4 -0.5 9t-2.5 12q-88 -20 -125.5 -74.5t-38.5 -128.5q32 3 51 8q26 9 55 36q31 32 46 69t15 69z" />
    <glyph glyph-name="controlBS" horiz-adv-x="0" 
 />
    <glyph glyph-name="controlHT" 
 />
    <glyph glyph-name="controlCR" 
 />
    <glyph glyph-name="controlGS" horiz-adv-x="0" 
 />
    <glyph glyph-name="zerooldstyle" horiz-adv-x="556" 
d="M143 214q0 69 11.5 111t30 65t43 30.5t50.5 7.5t50.5 -7.5t43 -30.5t30 -65t11.5 -111t-11.5 -111t-30 -65t-43 -30.5t-50.5 -7.5t-50.5 7.5t-43 30.5t-30 65t-11.5 111zM46 214q0 -46 19.5 -87t52 -72t74 -49.5t86.5 -18.5t86.5 18.5t74 49.5t52 72t19.5 87
q0 49 -21 90.5t-54 72t-74.5 48t-82.5 17.5t-82.5 -17.5t-74.5 -48t-54 -72t-21 -90.5z" />
    <glyph glyph-name="oneoldstyle" horiz-adv-x="334" 
d="M124 415v-401h-78v-14h242v14h-78v401h78v14h-242v-14h78z" />
    <glyph glyph-name="twooldstyle" horiz-adv-x="481" 
d="M31 12v-12h397v110h-10q-6 -30 -17 -49t-28.5 -29.5t-43 -14t-60.5 -3.5h-185l-2 2q27 10 62.5 26t73.5 37t74.5 46.5t65.5 54.5t46.5 61t17.5 66q0 26 -10.5 50t-34 43t-60 30.5t-89.5 11.5q-49 0 -83.5 -11.5t-55.5 -30t-30.5 -41t-9.5 -45.5q0 -19 10.5 -30.5
t34.5 -11.5q22 0 33 9.5t11 21.5q0 13 -6 27.5t-6 32.5q0 29 25.5 47t73.5 18t74 -29t26 -83q0 -52 -21.5 -101.5t-66.5 -91.5q-26 -24 -56.5 -43t-59.5 -33.5t-53 -23t-37 -11.5z" />
    <glyph glyph-name="threeoldstyle" horiz-adv-x="520" 
d="M108 372l9 -16q25 18 54 28.5t64 10.5q42 0 68 -16t41 -41.5t20 -58t5 -65.5q0 -65 -11 -106.5t-30.5 -65.5t-46 -33t-58.5 -9q-55 0 -89.5 17.5t-54 41.5t-27.5 48.5t-10 37.5l-14 -3q5 -29 18 -57t36 -49.5t58.5 -35t84.5 -13.5q54 0 98.5 18.5t76 49.5t49 70t17.5 79
q0 45 -18 81.5t-49 62.5t-70.5 41t-83.5 17v2q17 3 50 14t65.5 31t57 50t24.5 72q0 24 -11 50.5t-34 49t-58.5 37.5t-83.5 15q-53 0 -88.5 -16.5t-56.5 -39.5t-29.5 -46t-8.5 -37q0 -43 44 -43q17 0 29.5 7t12.5 25q0 11 -8.5 25t-8.5 41q0 7 4 18.5t15.5 23t32.5 20t54 8.5
q30 0 49.5 -9.5t31.5 -26t17 -38t5 -45.5q0 -34 -6.5 -63t-23 -53t-45.5 -42t-73 -30q-20 -5 -34.5 -9.5t-25 -8.5t-18.5 -8z" />
    <glyph glyph-name="fouroldstyle" horiz-adv-x="444" 
d="M280 333v-319h-265l47 98q22 47 50 96t59 95t62 87t59 71q42 45 71 73.5t29 42.5q0 22 -39 22q-15 0 -24.5 -2t-19.5 -10.5t-22.5 -25.5t-33.5 -48q-81 -121 -142 -249.5t-115 -263.5h284v-194q18 8 43 8t43 -8v194h88v14h-88v319h-86z" />
    <glyph glyph-name="fiveoldstyle" horiz-adv-x="481" 
d="M107 727l-64 -416l12 -3q4 15 13.5 35.5t28 39t48 32t72.5 13.5q36 0 60 -13t38.5 -37t20 -58t5.5 -76q0 -72 -8.5 -119.5t-25.5 -75t-41.5 -38.5t-57.5 -11q-17 0 -32 3t-26 11t-17.5 22.5t-6.5 36.5q0 6 0.5 15t0.5 16q0 20 -12.5 30t-33.5 10q-20 0 -35.5 -9.5
t-15.5 -32.5q0 -13 7.5 -32.5t26 -38t50.5 -31.5t81 -13q68 0 114 26.5t75 64.5t41.5 79.5t12.5 70.5q0 40 -14 78.5t-41.5 68.5t-67.5 48.5t-92 18.5q-54 0 -92 -18t-61 -51l-2 2l37 237q42 -20 76.5 -32t67.5 -12q30 0 53.5 10t44.5 29.5t43 47.5t49 65l-11 7
q-20 -25 -36.5 -41t-32 -25.5t-31.5 -13t-35 -3.5q-28 0 -50.5 6.5t-41.5 18t-35.5 26.5t-32.5 32h-26z" />
    <glyph glyph-name="sixoldstyle" horiz-adv-x="556" 
d="M410 222q0 -49 -4.5 -89.5t-18.5 -70t-40 -46t-68 -16.5q-44 0 -71.5 19t-43 55.5t-21 90t-5.5 121.5q0 38 12.5 65t33 44t47 25t53.5 8q42 0 67 -17t38 -45.5t17 -65.5t4 -78zM510 218q0 47 -18 88t-48.5 71t-71 47.5t-86.5 17.5q-51 0 -88.5 -22.5t-56.5 -55.5l-2 2
q7 65 20.5 127t36.5 111t59 79t88 30q27 0 45 -12t18 -35q0 -13 -4 -23.5t-9 -19.5t-9 -17.5t-4 -16.5q0 -13 11 -22t35 -9q26 0 41.5 13t15.5 38q0 20 -8 41t-24.5 38t-41.5 28t-60 11q-56 0 -110.5 -31t-97 -88t-69 -138.5t-26.5 -183.5q0 -70 19 -125.5t50.5 -94t74 -59
t88.5 -20.5q43 0 84.5 17.5t74.5 48t53 73t20 92.5z" />
    <glyph glyph-name="sevenoldstyle" horiz-adv-x="481" 
d="M57 429v-186h10q3 21 9 39t18 31.5t30.5 21.5t46.5 8h232q-8 -58 -26.5 -125.5t-48 -136t-71 -134t-95.5 -120.5l-50 -51q-21 -23 -21 -38q0 -14 10.5 -25t32.5 -11t41 11.5t39.5 42.5t45 85t57.5 139q35 89 56 155.5t32 118.5t15.5 94t7.5 81h-371z" />
    <glyph glyph-name="eightoldstyle" horiz-adv-x="556" 
d="M157 580q0 60 35 96.5t95 36.5q35 0 56 -13t32 -35t15 -50t4 -58q0 -31 -7 -55t-18 -41.5t-23.5 -29t-24.5 -18.5q-19 9 -38 18.5t-36.5 19t-31 18.5t-21.5 16q-18 17 -27.5 40t-9.5 55zM138 167q0 31 3.5 59t14.5 52t31 44.5t53 36.5q33 -17 65.5 -33t58 -36.5t41 -49
t15.5 -71.5q0 -27 -10 -57t-29 -54.5t-45 -41t-59 -16.5q-38 0 -64.5 13.5t-43 37t-24 53.5t-7.5 63zM56 174q0 -41 16 -75.5t44 -59t66.5 -38.5t82.5 -14q55 0 98.5 18t74 48.5t46.5 70.5t16 84q0 40 -15 70.5t-38.5 54.5t-53 41.5t-58.5 31.5q26 16 50 33t43 37.5t30 45.5
t11 56q0 34 -15.5 61.5t-41 47t-58 30t-67.5 10.5q-37 0 -72.5 -13.5t-63.5 -37.5t-45.5 -57t-17.5 -72t10.5 -67.5t29 -49.5t43.5 -36t55 -28q-21 -9 -50.5 -24t-56 -38t-45 -55t-18.5 -75z" />
    <glyph glyph-name="nineoldstyle" horiz-adv-x="556" 
d="M146 206q0 49 4.5 89.5t18.5 70t40 46t68 16.5q44 0 71.5 -19t43 -55.5t21 -90t5.5 -121.5q0 -38 -12.5 -65t-33 -44t-47 -25t-53.5 -8q-42 0 -67 17t-38 45.5t-17 66t-4 77.5zM46 210q0 -47 18 -88t48.5 -71t71 -47t86.5 -17q51 0 88.5 22t56.5 55l2 -2
q-7 -64 -20.5 -126t-36.5 -111t-59 -79t-88 -30q-27 0 -45 12t-18 35q0 13 4 23.5t9 19.5t9 17.5t4 16.5q0 13 -11 22t-35 9q-26 0 -41.5 -13t-15.5 -38q0 -20 8 -41t24.5 -38t42 -28t59.5 -11q56 0 110.5 31t97 88t69 138.5t26.5 182.5q0 70 -19 125.5t-50.5 94.5
t-73.5 59.5t-89 20.5q-43 0 -84.5 -17.5t-74.5 -48.5t-53 -73.5t-20 -92.5z" />
    <glyph glyph-name="Asmall" horiz-adv-x="500" 
d="M138 192l64 152l69 -152h-133zM131 0v14h-70l72 164h145l75 -164h-71v-14h226v14h-58l-199 428h-19l-185 -428h-54v-14h138z" />
    <glyph glyph-name="Bsmall" horiz-adv-x="500" 
d="M198 238v177q8 2 19.5 2.5t19.5 0.5q18 0 34 -3.5t29 -14t20.5 -29t7.5 -48.5q0 -26 -7.5 -42.5t-20 -26t-29.5 -13t-36 -3.5h-37zM198 14v210h61q24 0 41 -8.5t27 -23t14.5 -33.5t4.5 -40q0 -33 -7 -54t-20 -33t-31 -16.5t-41 -4.5q-25 0 -49 3zM112 415v-401h-73v-14
h111h50q12 -1 24.5 -1.5t24.5 -0.5q32 0 66 3.5t62.5 16.5t46.5 37.5t18 66.5q0 29 -14.5 49.5t-36 34t-47 20t-47.5 7.5v3q16 4 37 10t39.5 17t31.5 28t13 43q0 30 -17 49.5t-42.5 30t-54 14.5t-51.5 4q-20 0 -39.5 -0.5t-39.5 -0.5q-20 -1 -39.5 -1.5t-39.5 -0.5h-56v-14
h73z" />
    <glyph glyph-name="Csmall" horiz-adv-x="481" 
d="M434 309v120h-14q-2 -3 -5.5 -7t-9.5 -4q-7 0 -18 4t-25.5 8.5t-32 8t-38.5 3.5q-45 0 -88.5 -18t-78 -48.5t-55.5 -72t-21 -88.5t20 -88.5t52.5 -72t74.5 -48.5t86 -18q23 0 42.5 4t35 9.5t26.5 9.5t17 4q15 0 19 -15h15v128h-11q-12 -36 -25.5 -60.5t-30.5 -39t-39 -21
t-49 -6.5q-24 0 -48 7t-43 29.5t-30.5 65t-11.5 112.5q0 51 7 90.5t23.5 66.5t44 41.5t68.5 14.5q37 0 60.5 -13t37.5 -31.5t21 -39t11 -35.5h13z" />
    <glyph glyph-name="Dsmall" horiz-adv-x="574" 
d="M200 14v401q16 1 31.5 2t31.5 1q45 0 76.5 -16t51 -43t28.5 -62.5t9 -75.5q0 -8 -1 -27t-5.5 -42.5t-14.5 -48.5t-28.5 -45.5t-47 -33.5t-70.5 -13q-23 0 -61 3zM114 415v-401h-73v-14h119h49q14 -1 28.5 -1.5t28.5 -0.5q36 0 81.5 11t85.5 37t67.5 68t27.5 103
q0 43 -18.5 82t-53 68.5t-83 47t-108.5 17.5q-13 0 -26 -0.5t-26 -0.5q-13 -1 -25.5 -1.5t-25.5 -0.5h-121v-14h73z" />
    <glyph glyph-name="Esmall" horiz-adv-x="500" 
d="M107 415v-401h-73v-14h420v144h-11q-12 -66 -48 -98t-102 -32h-100v210h43q45 0 65 -19.5t25 -67.5h11v191h-11q-2 -39 -23.5 -64.5t-61.5 -25.5h-48v177h130q23 0 38 -8.5t25.5 -22t17 -29t11.5 -29.5h11v103h-392v-14h73z" />
    <glyph glyph-name="Fsmall" horiz-adv-x="463" 
d="M108 415v-401h-74v-14h233v14h-73v200h68q15 0 25.5 -7.5t17.5 -20t12 -28t9 -31.5h11v191h-11q-3 -16 -7.5 -32t-14 -29t-25 -21t-41.5 -8h-44v187h128q24 0 40.5 -11t27 -26.5t16.5 -32.5t9 -28h11v112h-392v-14h74z" />
    <glyph glyph-name="Gsmall" horiz-adv-x="519" 
d="M500 165h-199v-14h68v-49q0 -12 -1.5 -29.5t-10 -33t-27 -27t-52.5 -11.5q-24 0 -48 7t-43 29.5t-30.5 65t-11.5 112.5q0 51 7 90.5t23.5 66.5t44 41.5t68.5 14.5q37 0 60.5 -13t37.5 -31.5t21 -39t11 -35.5h13v120h-14q-2 -3 -5.5 -7t-9.5 -4q-7 0 -18 4t-25.5 8.5
t-32 8t-38.5 3.5q-45 0 -88.5 -18t-78 -48.5t-55.5 -72t-21 -88.5t20 -88.5t52.5 -72t74.5 -48.5t86 -18q25 0 46.5 6.5t39 15t31.5 15t25 6.5q16 0 16 -16h16v136h48v14z" />
    <glyph glyph-name="Hsmall" horiz-adv-x="611" 
d="M415 228h-219v187h74v14h-234v-14h74v-401h-74v-14h234v14h-74v200h219v-200h-74v-14h234v14h-74v401h74v14h-234v-14h74v-187z" />
    <glyph glyph-name="Ismall" horiz-adv-x="314" 
d="M114 415v-401h-72v-14h230v14h-72v401h72v14h-230v-14h72z" />
    <glyph glyph-name="Jsmall" horiz-adv-x="352" 
d="M248 109v306h74v14h-233v-14h73v-364q0 -20 -6.5 -35t-26.5 -15q-11 0 -21 2.5t-10 19.5q0 6 4 22t4 22q0 5 -0.5 11.5t-4.5 12t-11 9.5t-21 4q-20 0 -34.5 -11.5t-14.5 -33.5q0 -21 10.5 -35t25 -22t31 -11t28.5 -3q14 0 36.5 1.5t44 13t37 36t15.5 70.5z" />
    <glyph glyph-name="Ksmall" horiz-adv-x="537" 
d="M36 415h74v-401h-74v-14h213v14h-53v205h7l186 -205h-73v-14h230v14h-44l-235 256l161 145h61v14h-154v-14h73l-205 -185h-7v185h72v14h-232v-14z" />
    <glyph glyph-name="Lsmall" horiz-adv-x="481" 
d="M110 415v-401h-74v-14h414v153h-11q-11 -49 -27.5 -76.5t-37.5 -41.5t-44.5 -17.5t-47.5 -3.5h-86v401h74v14h-234v-14h74z" />
    <glyph glyph-name="Msmall" horiz-adv-x="648" 
d="M105 415v-401h-74v-14h157v14h-69v401h2l167 -415h8l159 415h2v-401h-69v-14h229v14h-74v401h74v14h-171l-118 -303l-121 303h-176v-14h74z" />
    <glyph glyph-name="Nsmall" horiz-adv-x="537" 
d="M104 415v-401h-70v-14h152v14h-68v368h2l299 -382h14v415h70v14h-152v-14h68v-280h-2l-227 294h-156v-14h70z" />
    <glyph glyph-name="Osmall" horiz-adv-x="556" 
d="M278 428q34 0 59 -11t41.5 -36t24.5 -66t8 -100q0 -70 -11 -112.5t-29 -65t-42 -29.5t-51 -7t-51 7t-42 29.5t-29 65t-11 112.5q0 59 8 100t24.5 66t41.5 36t59 11zM278 442q-39 0 -80.5 -17t-75.5 -47.5t-55.5 -72t-21.5 -90.5q0 -47 20 -88.5t52.5 -72t74.5 -48.5
t86 -18t86 18t74.5 48.5t52.5 72t20 88.5q0 49 -21.5 90.5t-55.5 72t-75.5 47.5t-80.5 17z" />
    <glyph glyph-name="Psmall" horiz-adv-x="463" 
d="M197 214v201q8 2 19.5 2.5t19.5 0.5q30 0 49 -7t29.5 -20t14.5 -32t4 -44q0 -16 -1.5 -34.5t-10.5 -34t-29 -25.5t-56 -10q-14 0 -22.5 0.5t-16.5 2.5zM111 415v-401h-73v-14h233v14h-74v186q23 -3 42 -3q27 0 60 4t62 16.5t48.5 35.5t19.5 62q0 20 -8 40.5t-29 37.5
t-57.5 28t-92.5 11q-10 0 -20.5 -0.5t-22.5 -0.5q-11 -1 -23 -1.5t-24 -0.5h-114v-14h73z" />
    <glyph glyph-name="Qsmall" horiz-adv-x="556" 
d="M145 215q0 59 8 100t24.5 66t41.5 36t59 11t59 -11t41.5 -36t24.5 -66t8 -100q0 -70 -11 -112.5t-29 -65t-42 -29.5t-51 -7t-51 7t-42 29.5t-29 65t-11 112.5zM477 -145v14q-15 0 -24 0.5t-16 4.5t-14 12t-17 23q-8 12 -14.5 19.5t-14 12.5t-17 8t-24.5 5l-22 3
q-13 2 -21.5 3.5t-14.5 4.5t-11.5 8t-12.5 13v2h24q44 0 86 18t74.5 48.5t52.5 72t20 88.5q0 49 -21.5 90.5t-55.5 72t-75.5 47.5t-80.5 17t-80.5 -17t-75.5 -47.5t-55.5 -72t-21.5 -90.5q0 -38 13.5 -73t36 -63.5t53 -49t64.5 -29.5q14 -4 25.5 -14.5t21.5 -24t18.5 -27
t15.5 -23.5q14 -21 36 -32.5t47.5 -16.5t52 -6t48.5 -1z" />
    <glyph glyph-name="Rsmall" horiz-adv-x="519" 
d="M196 238v177q8 2 18 2.5t20 0.5q45 0 68.5 -19.5t23.5 -74.5q0 -32 -6.5 -49.5t-18.5 -25.5t-28 -9.5t-36 -1.5h-41zM110 415v-401h-74v-14h232v14h-72v210h67q28 0 43.5 -10t24 -26.5t11 -37.5t4.5 -44t6 -44t15 -37.5t31 -26.5t53 -10q34 0 46.5 8t21.5 19l-12 8
q-6 -7 -13 -13t-19 -6q-23 0 -29.5 26.5t-11.5 87.5q-3 29 -12.5 47.5t-25.5 30t-39 18t-53 12.5v2q18 4 38.5 9.5t38.5 16t29.5 28.5t11.5 46q0 30 -16.5 50t-41.5 32t-55.5 17t-58.5 5q-20 0 -39.5 -0.5t-39.5 -0.5q-20 -1 -39.5 -1.5t-39.5 -0.5h-56v-14h74z" />
    <glyph glyph-name="Ssmall" horiz-adv-x="426" 
d="M56 140v-140h11q5 6 10 10t13 4q12 0 25 -4t28 -9t32.5 -9t37.5 -4q45 0 76 13t50.5 33.5t28.5 45.5t9 48q0 45 -28 73t-79 45l-73 24q-45 14 -67 31t-22 49q0 21 9 36t23 24.5t32.5 13.5t36.5 4q27 0 44.5 -9t30 -24.5t21 -36t16.5 -43.5h11v114h-11q-6 -8 -21 -8
q-11 0 -34 10.5t-57 10.5q-31 0 -57.5 -10t-45.5 -28t-30 -42t-11 -52q0 -54 23.5 -80t63.5 -40l90 -31q32 -12 48.5 -28.5t16.5 -47.5q0 -42 -23 -62t-58 -20q-38 0 -63 10.5t-42.5 29.5t-29.5 44t-24 55h-11z" />
    <glyph glyph-name="Tsmall" horiz-adv-x="464" 
d="M189 415v-401h-73v-14h232v14h-73v401h29q54 0 80.5 -28.5t37.5 -82.5h11v125h-402v-125h11q11 54 37.5 82.5t80.5 28.5h29z" />
    <glyph glyph-name="Usmall" horiz-adv-x="537" 
d="M23 429v-14h74v-246q0 -95 43 -138t139 -43q51 0 83.5 14t51 36t25.5 49t7 53v275h68v14h-150v-14h68v-275q0 -28 -8 -53.5t-24.5 -44.5t-42.5 -30t-61 -11q-50 0 -81.5 34t-31.5 114v266h74v14h-234z" />
    <glyph glyph-name="Vsmall" horiz-adv-x="481" 
d="M63 415l182 -444l190 444h52v14h-151v-14h83l-135 -315l-129 315h82v14h-242v-14h68z" />
    <glyph glyph-name="Wsmall" horiz-adv-x="741" 
d="M65 415l160 -444l152 358l136 -358l179 444h53v14h-163v-14h94l-124 -312l-117 312h67v14h-199v-14h42l25 -66l-104 -247l-112 313h83v14h-240v-14h68z" />
    <glyph glyph-name="Xsmall" horiz-adv-x="481" 
d="M53 415l149 -221l-136 -180h-53v-14h147v14h-74l125 169l118 -169h-79v-14h234v14h-55l-165 236l121 165h53v14h-147v-14h74l-109 -151l-103 151h80v14h-235v-14h55z" />
    <glyph glyph-name="Ysmall" horiz-adv-x="463" 
d="M45 415l150 -248v-153h-73v-14h232v14h-73v171l131 230h55v14h-149v-14h80l-124 -214l-129 214h77v14h-225v-14h48z" />
    <glyph glyph-name="Zsmall" horiz-adv-x="426" 
d="M285 415l-249 -415h348l13 130h-8q-9 -27 -17.5 -48.5t-21.5 -36.5t-33 -23t-52 -8h-125l249 415h-317l-14 -112h8q6 15 14.5 32t20 32t26.5 24.5t34 9.5h124z" />
    <glyph glyph-name="Agravesmall" horiz-adv-x="500" 
d="M123 609l171 -122h14l-118 144q-20 24 -28.5 32t-22.5 8t-24 -10.5t-10 -24.5q0 -11 6.5 -17t11.5 -10zM138 192l64 152l69 -152h-133zM131 0v14h-70l72 164h145l75 -164h-71v-14h226v14h-58l-199 428h-19l-185 -428h-54v-14h138z" />
    <glyph glyph-name="Aacutesmall" horiz-adv-x="500" 
d="M318 631l-118 -144h14l171 122q5 4 11.5 10t6.5 17q0 14 -10 24.5t-24 10.5t-22.5 -8t-28.5 -32zM138 192l64 152l69 -152h-133zM131 0v14h-70l72 164h145l75 -164h-71v-14h226v14h-58l-199 428h-19l-185 -428h-54v-14h138z" />
    <glyph glyph-name="Acircumflexsmall" horiz-adv-x="500" 
d="M214 654l-113 -167h14l127 105l127 -105h14l-113 167h-56zM138 192l64 152l69 -152h-133zM131 0v14h-70l72 164h145l75 -164h-71v-14h226v14h-58l-199 428h-19l-185 -428h-54v-14h138z" />
    <glyph glyph-name="Atildesmall" horiz-adv-x="500" 
d="M398 613h-14q-1 -3 -5.5 -11t-12 -17t-19.5 -15.5t-28 -6.5q-17 0 -34 7.5t-34 16.5q-18 8 -35 15.5t-34 7.5q-15 0 -30 -7t-28.5 -19.5t-23.5 -31t-14 -41.5h14q1 5 4.5 12.5t11 15.5t19 13.5t27.5 5.5q17 0 32 -7.5l31 -15.5q17 -9 34 -16.5t38 -7.5q28 0 47 14
t30.5 32t17 34.5t6.5 21.5zM138 192l64 152l69 -152h-133zM131 0v14h-70l72 164h145l75 -164h-71v-14h226v14h-58l-199 428h-19l-185 -428h-54v-14h138z" />
    <glyph glyph-name="Adieresissmall" horiz-adv-x="500" 
d="M289 597q0 -19 13.5 -32.5t32.5 -13.5t32.5 13.5t13.5 32.5t-13.5 32.5t-32.5 13.5t-32.5 -13.5t-13.5 -32.5zM103 597q0 -19 13.5 -32.5t32.5 -13.5t32.5 13.5t13.5 32.5t-13.5 32.5t-32.5 13.5t-32.5 -13.5t-13.5 -32.5zM138 192l64 152l69 -152h-133zM131 0v14h-70
l72 164h145l75 -164h-71v-14h226v14h-58l-199 428h-19l-185 -428h-54v-14h138z" />
    <glyph glyph-name="Aringsmall" horiz-adv-x="500" 
d="M242 635q16 0 25.5 -6.5t14.5 -18t6.5 -26t1.5 -29.5q0 -45 -12 -62t-36 -17t-36 17t-12 62q0 15 1.5 29.5t6.5 26t14.5 18t25.5 6.5zM242 646q-10 0 -26 -5t-30.5 -15.5t-25 -28t-10.5 -42.5q0 -18 7.5 -34.5t20.5 -28.5t29.5 -19.5t34.5 -7.5t34.5 7.5t29.5 19.5
t20.5 28.5t7.5 34.5q0 25 -10.5 42.5t-25 28t-30 15.5t-26.5 5zM138 192l64 152l69 -152h-133zM131 0v14h-70l72 164h145l75 -164h-71v-14h226v14h-58l-199 428h-19l-185 -428h-54v-14h138z" />
    <glyph glyph-name="AEsmall" horiz-adv-x="648" 
d="M186 238l105 177h2v-177h-107zM121 0v14h-69l126 210h115v-210h-74v-14h378v134h-11q-8 -31 -15.5 -54t-21 -37.5t-37 -21.5t-63.5 -7h-70v210h24q23 0 37 -5.5t23.5 -16.5t15.5 -26.5t12 -36.5h11v182h-11q-3 -11 -7.5 -25.5t-14.5 -27t-26.5 -21.5t-42.5 -9h-21v177h93
q42 0 68.5 -29.5t32.5 -68.5h11v112h-385v-14h77l-241 -401h-55v-14h141z" />
    <glyph glyph-name="Ccedillasmall" horiz-adv-x="481" 
d="M434 309v120h-14q-2 -3 -5.5 -7t-9.5 -4q-7 0 -18 4t-25.5 8.5t-32 8t-38.5 3.5q-45 0 -88.5 -18t-78 -48.5t-55.5 -72t-21 -88.5q0 -45 18.5 -85t48.5 -70.5t69 -49.5t81 -22l-63 -65l14 -15q7 5 16 9t24 4q28 0 37.5 -20t9.5 -46q0 -14 -2 -28t-7.5 -25t-15.5 -18.5
t-26 -7.5q-23 0 -39 8.5t-27 16.5l-8 -12q14 -12 34 -21t43 -9q42 0 73.5 25t31.5 70q0 27 -10 44t-23.5 26.5t-27 13t-21.5 3.5q-17 0 -29 -4t-20 -10l-2 2l57 59q22 0 41 4t34 9.5t26 9.5t17 4q15 0 19 -15h15v128h-11q-12 -36 -25.5 -60.5t-30.5 -39t-39 -21t-49 -6.5
q-24 0 -48 7t-43 29.5t-30.5 65t-11.5 112.5q0 51 7 90.5t23.5 66.5t44 41.5t68.5 14.5q37 0 60.5 -13t37.5 -31.5t21 -39t11 -35.5h13z" />
    <glyph glyph-name="Egravesmall" horiz-adv-x="500" 
d="M131 609l171 -122h14l-118 144q-20 24 -28.5 32t-22.5 8t-24 -10.5t-10 -24.5q0 -11 6.5 -17t11.5 -10zM107 415v-401h-73v-14h420v144h-11q-12 -66 -48 -98t-102 -32h-100v210h43q45 0 65 -19.5t25 -67.5h11v191h-11q-2 -39 -23.5 -64.5t-61.5 -25.5h-48v177h130
q23 0 38 -8.5t25.5 -22t17 -29t11.5 -29.5h11v103h-392v-14h73z" />
    <glyph glyph-name="Eacutesmall" horiz-adv-x="500" 
d="M326 631l-118 -144h14l171 122q5 4 11.5 10t6.5 17q0 14 -10 24.5t-24 10.5t-22.5 -8t-28.5 -32zM107 415v-401h-73v-14h420v144h-11q-12 -66 -48 -98t-102 -32h-100v210h43q45 0 65 -19.5t25 -67.5h11v191h-11q-2 -39 -23.5 -64.5t-61.5 -25.5h-48v177h130q23 0 38 -8.5
t25.5 -22t17 -29t11.5 -29.5h11v103h-392v-14h73z" />
    <glyph glyph-name="Ecircumflexsmall" horiz-adv-x="500" 
d="M222 654l-113 -167h14l127 105l127 -105h14l-113 167h-56zM107 415v-401h-73v-14h420v144h-11q-12 -66 -48 -98t-102 -32h-100v210h43q45 0 65 -19.5t25 -67.5h11v191h-11q-2 -39 -23.5 -64.5t-61.5 -25.5h-48v177h130q23 0 38 -8.5t25.5 -22t17 -29t11.5 -29.5h11v103
h-392v-14h73z" />
    <glyph glyph-name="Edieresissmall" horiz-adv-x="500" 
d="M297 597q0 -19 13.5 -32.5t32.5 -13.5t32.5 13.5t13.5 32.5t-13.5 32.5t-32.5 13.5t-32.5 -13.5t-13.5 -32.5zM111 597q0 -19 13.5 -32.5t32.5 -13.5t32.5 13.5t13.5 32.5t-13.5 32.5t-32.5 13.5t-32.5 -13.5t-13.5 -32.5zM107 415v-401h-73v-14h420v144h-11
q-12 -66 -48 -98t-102 -32h-100v210h43q45 0 65 -19.5t25 -67.5h11v191h-11q-2 -39 -23.5 -64.5t-61.5 -25.5h-48v177h130q23 0 38 -8.5t25.5 -22t17 -29t11.5 -29.5h11v103h-392v-14h73z" />
    <glyph glyph-name="Igravesmall" horiz-adv-x="314" 
d="M38 609l171 -122h14l-118 144q-20 24 -28.5 32t-22.5 8t-24 -10.5t-10 -24.5q0 -11 6.5 -17t11.5 -10zM114 415v-401h-72v-14h230v14h-72v401h72v14h-230v-14h72z" />
    <glyph glyph-name="Iacutesmall" horiz-adv-x="314" 
d="M233 631l-118 -144h14l171 122q5 4 11.5 10t6.5 17q0 14 -10 24.5t-24 10.5t-22.5 -8t-28.5 -32zM114 415v-401h-72v-14h230v14h-72v401h72v14h-230v-14h72z" />
    <glyph glyph-name="Icircumflexsmall" horiz-adv-x="314" 
d="M129 654l-113 -167h14l127 105l127 -105h14l-113 167h-56zM114 415v-401h-72v-14h230v14h-72v401h72v14h-230v-14h72z" />
    <glyph glyph-name="Idieresissmall" horiz-adv-x="314" 
d="M204 597q0 -19 13.5 -32.5t32.5 -13.5t32.5 13.5t13.5 32.5t-13.5 32.5t-32.5 13.5t-32.5 -13.5t-13.5 -32.5zM18 597q0 -19 13.5 -32.5t32.5 -13.5t32.5 13.5t13.5 32.5t-13.5 32.5t-32.5 13.5t-32.5 -13.5t-13.5 -32.5zM114 415v-401h-72v-14h230v14h-72v401h72v14
h-230v-14h72z" />
    <glyph glyph-name="Ethsmall" horiz-adv-x="574" 
d="M200 228v187q16 1 31.5 2t31.5 1q45 0 76.5 -16t51 -43t28.5 -62.5t9 -75.5q0 -8 -1 -27t-5.5 -42.5t-14.5 -48.5t-28.5 -45.5t-47 -33.5t-70.5 -13q-23 0 -61 3v200h112v14h-112zM114 415v-187h-73v-14h73v-200h-73v-14h119h50q14 -1 28.5 -1.5t29.5 -0.5q35 0 80 11
t85 37t67.5 68t27.5 103q0 43 -18.5 82t-53 68.5t-83 47t-108.5 17.5q-13 0 -26 -0.5t-26 -0.5q-13 -1 -25.5 -1.5t-25.5 -0.5h-121v-14h73z" />
    <glyph glyph-name="Ntildesmall" horiz-adv-x="537" 
d="M425 613h-14q-1 -3 -5.5 -11t-12 -17t-19.5 -15.5t-28 -6.5q-17 0 -34 7.5t-34 16.5q-18 8 -35 15.5t-34 7.5q-15 0 -30 -7t-28.5 -19.5t-23.5 -31t-14 -41.5h14q1 5 4.5 12.5t11 15.5t19 13.5t27.5 5.5q17 0 32 -7.5l31 -15.5q17 -9 34 -16.5t38 -7.5q28 0 47 14
t30.5 32t17 34.5t6.5 21.5zM104 415v-401h-70v-14h152v14h-68v368h2l299 -382h14v415h70v14h-152v-14h68v-280h-2l-227 294h-156v-14h70z" />
    <glyph glyph-name="Ogravesmall" horiz-adv-x="556" 
d="M159 609l171 -122h14l-118 144q-20 24 -28.5 32t-22.5 8t-24 -10.5t-10 -24.5q0 -11 6.5 -17t11.5 -10zM278 428q34 0 59 -11t41.5 -36t24.5 -66t8 -100q0 -70 -11 -112.5t-29 -65t-42 -29.5t-51 -7t-51 7t-42 29.5t-29 65t-11 112.5q0 59 8 100t24.5 66t41.5 36t59 11z
M278 442q-39 0 -80.5 -17t-75.5 -47.5t-55.5 -72t-21.5 -90.5q0 -47 20 -88.5t52.5 -72t74.5 -48.5t86 -18t86 18t74.5 48.5t52.5 72t20 88.5q0 49 -21.5 90.5t-55.5 72t-75.5 47.5t-80.5 17z" />
    <glyph glyph-name="Oacutesmall" horiz-adv-x="556" 
d="M354 631l-118 -144h14l171 122q5 4 11.5 10t6.5 17q0 14 -10 24.5t-24 10.5t-22.5 -8t-28.5 -32zM278 428q34 0 59 -11t41.5 -36t24.5 -66t8 -100q0 -70 -11 -112.5t-29 -65t-42 -29.5t-51 -7t-51 7t-42 29.5t-29 65t-11 112.5q0 59 8 100t24.5 66t41.5 36t59 11z
M278 442q-39 0 -80.5 -17t-75.5 -47.5t-55.5 -72t-21.5 -90.5q0 -47 20 -88.5t52.5 -72t74.5 -48.5t86 -18t86 18t74.5 48.5t52.5 72t20 88.5q0 49 -21.5 90.5t-55.5 72t-75.5 47.5t-80.5 17z" />
    <glyph glyph-name="Ocircumflexsmall" horiz-adv-x="556" 
d="M250 654l-113 -167h14l127 105l127 -105h14l-113 167h-56zM278 428q34 0 59 -11t41.5 -36t24.5 -66t8 -100q0 -70 -11 -112.5t-29 -65t-42 -29.5t-51 -7t-51 7t-42 29.5t-29 65t-11 112.5q0 59 8 100t24.5 66t41.5 36t59 11zM278 442q-39 0 -80.5 -17t-75.5 -47.5
t-55.5 -72t-21.5 -90.5q0 -47 20 -88.5t52.5 -72t74.5 -48.5t86 -18t86 18t74.5 48.5t52.5 72t20 88.5q0 49 -21.5 90.5t-55.5 72t-75.5 47.5t-80.5 17z" />
    <glyph glyph-name="Otildesmall" horiz-adv-x="556" 
d="M442 613h-14q-1 -3 -5.5 -11t-12 -17t-19.5 -15.5t-28 -6.5q-17 0 -34 7.5t-34 16.5q-18 8 -35 15.5t-34 7.5q-15 0 -30 -7t-28.5 -19.5t-23.5 -31t-14 -41.5h14q1 5 4.5 12.5t11 15.5t19 13.5t27.5 5.5q17 0 32 -7.5l31 -15.5q17 -9 34 -16.5t38 -7.5q28 0 47 14
t30.5 32t17 34.5t6.5 21.5zM278 428q34 0 59 -11t41.5 -36t24.5 -66t8 -100q0 -70 -11 -112.5t-29 -65t-42 -29.5t-51 -7t-51 7t-42 29.5t-29 65t-11 112.5q0 59 8 100t24.5 66t41.5 36t59 11zM278 442q-39 0 -80.5 -17t-75.5 -47.5t-55.5 -72t-21.5 -90.5q0 -47 20 -88.5
t52.5 -72t74.5 -48.5t86 -18t86 18t74.5 48.5t52.5 72t20 88.5q0 49 -21.5 90.5t-55.5 72t-75.5 47.5t-80.5 17z" />
    <glyph glyph-name="Odieresissmall" horiz-adv-x="556" 
d="M325 597q0 -19 13.5 -32.5t32.5 -13.5t32.5 13.5t13.5 32.5t-13.5 32.5t-32.5 13.5t-32.5 -13.5t-13.5 -32.5zM139 597q0 -19 13.5 -32.5t32.5 -13.5t32.5 13.5t13.5 32.5t-13.5 32.5t-32.5 13.5t-32.5 -13.5t-13.5 -32.5zM278 428q34 0 59 -11t41.5 -36t24.5 -66t8 -100
q0 -70 -11 -112.5t-29 -65t-42 -29.5t-51 -7t-51 7t-42 29.5t-29 65t-11 112.5q0 59 8 100t24.5 66t41.5 36t59 11zM278 442q-39 0 -80.5 -17t-75.5 -47.5t-55.5 -72t-21.5 -90.5q0 -47 20 -88.5t52.5 -72t74.5 -48.5t86 -18t86 18t74.5 48.5t52.5 72t20 88.5
q0 49 -21.5 90.5t-55.5 72t-75.5 47.5t-80.5 17z" />
    <glyph glyph-name="Oslashsmall" horiz-adv-x="556" 
d="M171 16l-44 -87l13 -6l43 86q44 -21 95 -21q44 0 86 18t74.5 48.5t52.5 72t20 88.5q0 33 -10 62.5t-27.5 54.5t-40 45.5t-48.5 34.5l44 88l-13 6l-44 -88q-21 11 -46 17.5t-48 6.5q-39 0 -80.5 -17t-75.5 -47.5t-55.5 -72t-21.5 -90.5q0 -66 36 -118.5t90 -80.5zM193 29
l180 358q19 -23 28.5 -64.5t9.5 -107.5q0 -70 -11 -112.5t-29 -65t-42 -29.5t-51 -7q-24 0 -46 5.5t-39 22.5zM362 398l-179 -358q-18 23 -28 64.5t-10 110.5q0 59 8 100t24.5 66t41.5 36t59 11q26 0 47 -6.5t37 -23.5z" />
    <glyph glyph-name="Ugravesmall" horiz-adv-x="537" 
d="M162 609l171 -122h14l-118 144q-20 24 -28.5 32t-22.5 8t-24 -10.5t-10 -24.5q0 -11 6.5 -17t11.5 -10zM23 429v-14h74v-246q0 -95 43 -138t139 -43q51 0 83.5 14t51 36t25.5 49t7 53v275h68v14h-150v-14h68v-275q0 -28 -8 -53.5t-24.5 -44.5t-42.5 -30t-61 -11
q-50 0 -81.5 34t-31.5 114v266h74v14h-234z" />
    <glyph glyph-name="Uacutesmall" horiz-adv-x="537" 
d="M357 631l-118 -144h14l171 122q5 4 11.5 10t6.5 17q0 14 -10 24.5t-24 10.5t-22.5 -8t-28.5 -32zM23 429v-14h74v-246q0 -95 43 -138t139 -43q51 0 83.5 14t51 36t25.5 49t7 53v275h68v14h-150v-14h68v-275q0 -28 -8 -53.5t-24.5 -44.5t-42.5 -30t-61 -11q-50 0 -81.5 34
t-31.5 114v266h74v14h-234z" />
    <glyph glyph-name="Ucircumflexsmall" horiz-adv-x="537" 
d="M253 654l-113 -167h14l127 105l127 -105h14l-113 167h-56zM23 429v-14h74v-246q0 -95 43 -138t139 -43q51 0 83.5 14t51 36t25.5 49t7 53v275h68v14h-150v-14h68v-275q0 -28 -8 -53.5t-24.5 -44.5t-42.5 -30t-61 -11q-50 0 -81.5 34t-31.5 114v266h74v14h-234z" />
    <glyph glyph-name="Udieresissmall" horiz-adv-x="537" 
d="M328 597q0 -19 13.5 -32.5t32.5 -13.5t32.5 13.5t13.5 32.5t-13.5 32.5t-32.5 13.5t-32.5 -13.5t-13.5 -32.5zM142 597q0 -19 13.5 -32.5t32.5 -13.5t32.5 13.5t13.5 32.5t-13.5 32.5t-32.5 13.5t-32.5 -13.5t-13.5 -32.5zM23 429v-14h74v-246q0 -95 43 -138t139 -43
q51 0 83.5 14t51 36t25.5 49t7 53v275h68v14h-150v-14h68v-275q0 -28 -8 -53.5t-24.5 -44.5t-42.5 -30t-61 -11q-50 0 -81.5 34t-31.5 114v266h74v14h-234z" />
    <glyph glyph-name="Yacutesmall" horiz-adv-x="463" 
d="M308 631l-118 -144h14l171 122q5 4 11.5 10t6.5 17q0 14 -10 24.5t-24 10.5t-22.5 -8t-28.5 -32zM45 415l150 -248v-153h-73v-14h232v14h-73v171l131 230h55v14h-149v-14h80l-124 -214l-129 214h77v14h-225v-14h48z" />
    <glyph glyph-name="Thornsmall" horiz-adv-x="463" 
d="M111 415v-401h-73v-14h231v14h-72v92q23 -3 42 -3q27 0 60 4t62 16.5t48.5 35.5t19.5 62q0 20 -8 40.5t-29 37.5t-57.5 28t-92.5 11q-27 0 -45 -3v80h72v14h-231v-14h73zM197 120v201q6 2 17 2.5t22 0.5q30 0 49 -7t29.5 -20t14.5 -32t4 -44q0 -16 -1.5 -34.5t-10.5 -34
t-29 -25.5t-56 -10q-14 0 -22.5 0.5t-16.5 2.5z" />
    <glyph glyph-name="Ydieresissmall" horiz-adv-x="463" 
d="M295 597q0 -19 13.5 -32.5t32.5 -13.5t32.5 13.5t13.5 32.5t-13.5 32.5t-32.5 13.5t-32.5 -13.5t-13.5 -32.5zM109 597q0 -19 13.5 -32.5t32.5 -13.5t32.5 13.5t13.5 32.5t-13.5 32.5t-32.5 13.5t-32.5 -13.5t-13.5 -32.5zM45 415l150 -248v-153h-73v-14h232v14h-73v171
l131 230h55v14h-149v-14h80l-124 -214l-129 214h77v14h-225v-14h48z" />
    <glyph glyph-name="FL364" horiz-adv-x="0" 
 />
    <glyph glyph-name="dotlessj" horiz-adv-x="296" 
d="M28 429h163v-448q0 -48 -2.5 -79.5t-6.5 -51.5t-9 -31.5t-10 -21.5q-12 -24 -27.5 -40t-32 -25.5t-33.5 -13t-31 -3.5q-16 0 -34.5 5.5t-35 16.5t-28 28.5t-11.5 40.5q0 24 13 36t32 12q18 0 26.5 -9.5t8.5 -25.5q0 -12 -3.5 -23t-3.5 -28q0 -20 13 -29.5t29 -9.5
q29 0 44.5 23.5t15.5 75.5v587h-77v14z" />
    </font>
</defs>
</svg>
