<?xml version="1.0" standalone="no"?>
<!DOCTYPE svg PUBLIC "-//W3C//DTD SVG 1.1//EN" "http://www.w3.org/Graphics/SVG/1.1/DTD/svg11.dtd" >
<svg xmlns="http://www.w3.org/2000/svg" xmlns:xlink="http://www.w3.org/1999/xlink" version="1.1">
<metadata>
Created by FontForge 20170731 at Thu May 27 05:26:52 2021
 By Aleksey,,,
Copyright (c) 1992, 2002 Adobe Systems Incorporated.  All Rights Reserved. (c) 1981, 2002 Heidelberger Druckmaschinen AG. All rights reserved.
</metadata>
<defs>
<font id="DidotLTStd-Italic" horiz-adv-x="569" >
  <font-face 
    font-family="Didot LT Std"
    font-weight="400"
    font-style="italic"
    font-stretch="normal"
    units-per-em="2048"
    panose-1="0 0 5 0 0 0 0 0 0 0"
    ascent="1477"
    descent="-571"
    x-height="879"
    cap-height="1458"
    bbox="-539 -596 2294 1929"
    underline-thickness="102"
    underline-position="-307"
    slope="-12"
    unicode-range="U+0020-FB02"
  />
<missing-glyph horiz-adv-x="1181" 
d="M158 0v1434h1024v-1434h-1024zM670 809l348 522h-696zM731 717l348 -522v1044zM322 102h696l-348 523zM260 1239v-1044l348 522z" />
    <glyph glyph-name="f_i" unicode="fi" horiz-adv-x="1175" 
d="M1044 879l-241 -695q-31 -91 -31 -123q0 -26 14.5 -42.5t42.5 -16.5q42 0 86.5 38t70 76.5t38.5 69.5l25 -10l-9 -18t-13.5 -25t-17 -28t-22.5 -31.5t-26.5 -29.5t-33 -28t-38 -22t-45 -16t-51.5 -5q-148 0 -148 123q0 51 25 119l223 635h-430l-225 -703
q-24 -74 -51.5 -143.5t-66.5 -149t-85.5 -144.5t-101 -119t-121 -84.5t-138.5 -30.5q-76 0 -125 34.5t-49 102.5q0 45 28.5 72.5t68.5 27.5q24 0 41.5 -13.5t17.5 -43.5q0 -24 -14.5 -49t-14.5 -37q0 -66 72 -66q184 0 330 447l290 899h-190l8 29h191l55 165
q33 99 90.5 190.5t131.5 163.5t167.5 115t190.5 43q105 0 158 -53t53 -119q0 -41 -27 -69.5t-80 -28.5q-86 0 -86 60q0 32 28.5 66t28.5 61q0 55 -86 55q-122 0 -229 -115t-166 -285l-86 -249h573z" />
    <glyph glyph-name="f_l" unicode="fl" horiz-adv-x="1175" 
d="M131 850l8 29h195q33 100 52.5 152.5t55.5 128t83 136.5t112 121q88 81 179 116.5t167 35.5q33 0 68 -6q4 0 27.5 -3.5t35.5 -3.5h164l-487 -1372q-31 -91 -31 -123q0 -26 14.5 -42.5t42.5 -16.5q31 0 65 21.5t59.5 53.5t43.5 60t27 49l24 -10l-9 -18t-13.5 -25t-17 -28
t-22.5 -31.5t-26.5 -29.5t-33 -28t-38 -22t-45 -16t-51.5 -5q-147 0 -147 123q0 54 24 119l390 1092q-48 19 -48 63q0 42 54 68q35 15 41 25q4 6 4 16q0 61 -117 61q-74 0 -141.5 -38.5t-118 -103.5t-86.5 -131t-64 -139l-94 -249h211l-8 -29h-213l-279 -803
q-35 -104 -91.5 -203.5t-126 -182.5t-153.5 -134t-165 -51q-77 0 -132 34.5t-55 104.5q0 45 28.5 71.5t68.5 26.5q24 0 41.5 -13.5t17.5 -43.5q0 -32 -14.5 -53.5t-14.5 -38.5q0 -14 2 -23t8.5 -18.5t22 -14t39.5 -4.5q98 0 195.5 140.5t183.5 390.5l281 815h-193z" />
    <glyph glyph-name=".notdef" horiz-adv-x="1181" 
d="M158 0v1434h1024v-1434h-1024zM670 809l348 522h-696zM731 717l348 -522v1044zM322 102h696l-348 523zM260 1239v-1044l348 522z" />
    <glyph glyph-name=".null" horiz-adv-x="0" 
 />
    <glyph glyph-name="nonmarkingreturn" horiz-adv-x="682" 
 />
    <glyph glyph-name="space" unicode=" " horiz-adv-x="491" 
 />
    <glyph glyph-name="exclam" unicode="!" horiz-adv-x="645" 
d="M242 365l184 1021q18 99 96 99q37 0 63.5 -20t26.5 -60q0 -30 -28 -109l-328 -931h-14zM70 70q0 40 28 68t68 28t68 -28t28 -68t-28 -68.5t-68 -28.5t-68 28.5t-28 68.5z" />
    <glyph glyph-name="quotedbl" unicode="&#x22;" horiz-adv-x="909" 
d="M469 893l-31 450q-2 23 -2 64q0 39 11 58.5t40 19.5q52 0 52 -78q0 -41 -2 -64l-31 -450h-37zM739 893l-30 450q-2 23 -2 64q0 39 11 58.5t40 19.5t40 -19.5t11 -58.5q0 -41 -2 -64l-31 -450h-37z" />
    <glyph glyph-name="numbersign" unicode="#" horiz-adv-x="1138" 
d="M303 485l-176 -485h-43l176 485h-272l14 37h272l148 406h-272l14 37h272l178 493h43l-178 -493h346l179 493h43l-179 -493h273l-15 -37h-272l-147 -406h272l-14 -37h-273l-176 -485h-43l176 485h-346zM465 928l-148 -406h347l147 406h-346z" />
    <glyph glyph-name="dollar" unicode="$" horiz-adv-x="1290" 
d="M674 870l157 586q-168 0 -263 -77t-95 -216q0 -70 38 -131.5t132 -136.5zM651 674l-182 -674q112 0 199 29.5t137 78.5t75 106t25 118q0 76 -34 134t-121 128zM0 0l109 406h28q-8 -54 -8 -91q0 -51 18.5 -102.5t55 -97.5t98 -77.5t139.5 -37.5l187 694l-78 64
q-203 164 -203 342q0 125 62.5 212t164.5 130q63 26 119.5 34.5t147.5 8.5l30 114h29l-31 -116q80 -6 156 -35.5t121 -32.5q29 0 48.5 14.5t25.5 36.5l28 -8l-98 -373h-33q10 57 10 93q0 47 -12 89t-40 82.5t-82.5 68.5t-131.5 36l-162 -604l115 -92q62 -50 94.5 -80
t68 -74.5t50 -92.5t14.5 -108q0 -130 -83.5 -236.5t-219.5 -158.5q-96 -37 -276 -37l-41 -147h-29l41 147q-60 4 -113.5 18t-85 28.5t-63 26t-53.5 11.5q-57 0 -88 -63z" />
    <glyph glyph-name="percent" unicode="%" horiz-adv-x="1593" 
d="M834 225q0 45 15 100.5t47.5 114.5t77 108t110 80t139.5 31q115 0 181 -71t66 -176q0 -73 -27.5 -149.5t-76 -142t-126 -107.5t-167.5 -42q-106 0 -172.5 66t-66.5 188zM344 0l887 1481l35 -23l-887 -1483zM948 160q0 -72 33 -116t104 -44q64 0 115.5 45.5t79.5 108
t46.5 135t24 119.5t5.5 69q0 154 -142 154q-70 0 -124 -47.5t-83.5 -121.5t-44 -151.5t-14.5 -150.5zM238 942q0 -72 33 -116t104 -44q64 0 115.5 45.5t79 108t46 135.5t24 120t5.5 69q0 153 -141 153q-70 0 -124 -47.5t-83.5 -121.5t-44 -151.5t-14.5 -150.5zM123 1008
q0 45 15 100.5t47.5 114.5t77 108t110 80t139.5 31q115 0 181.5 -71.5t66.5 -176.5q0 -73 -27.5 -149.5t-76.5 -141.5t-126.5 -107t-167.5 -42q-106 0 -172.5 66t-66.5 188z" />
    <glyph glyph-name="ampersand" unicode="&#x26;" horiz-adv-x="1744" 
d="M551 977l131 47q8 55 23.5 111t44 121t65 114t92 82t119.5 33q77 0 120.5 -42.5t43.5 -109.5q0 -44 -26.5 -86t-64 -72.5t-90 -59.5t-90.5 -45.5t-81 -31.5q9 -323 53 -522l29 -129h4q12 25 36 74l34.5 70.5t32.5 65t33.5 62.5t33 54t35.5 49.5t36 39.5t40 34.5
t42.5 23.5t48.5 16.5t52 4.5q78 0 128 -41t50 -107q0 -43 -21.5 -69.5t-60.5 -26.5q-38 0 -56 16.5t-18 53.5q0 26 8 48.5t8 45.5q0 51 -63 51q-49 0 -109 -45.5t-118 -144.5q-35 -60 -96 -183.5t-68 -136.5q8 -45 30 -108.5t46 -106.5q14 -25 25.5 -41.5t33 -39t51 -34.5
t66.5 -12q51 0 96 28t77.5 74.5t58 96t42.5 103.5t25 85.5t12 52.5l29 -6q0 -1 -8 -34.5t-15 -61t-23 -73.5t-34 -83t-46.5 -78t-60.5 -68.5t-77 -46t-95 -18.5q-105 0 -183.5 56t-147.5 153l-27 -39q-117 -170 -295 -170q-50 0 -102 14t-105.5 47t-95 80.5t-68 121
t-26.5 161.5q0 107 35.5 203t97 168t138.5 125.5t165 85.5zM678 993l-117 -45q-150 -59 -206 -151.5t-56 -229.5q0 -45 3 -93.5t11 -117.5t25.5 -128t43 -112.5t67 -84.5t94.5 -31q41 0 80 15.5t66 35.5t55 52.5t41.5 52.5t31.5 49q-57 94 -93 208.5t-47 198t-11 158.5
q0 115 12 223zM1032 1456q-29 0 -53.5 -8t-42.5 -19t-32.5 -34t-24 -39.5t-16.5 -51.5t-11 -53.5t-7 -61t-4 -60t-3 -62.5q43 14 92 37t104 57.5t91 81t36 94.5q0 52 -35.5 85.5t-93.5 33.5z" />
    <glyph glyph-name="quotesingle" unicode="'" 
d="M434 893l-31 450q-2 23 -2 64q0 78 52 78q29 0 40 -19.5t11 -58.5q0 -41 -2 -64l-31 -450h-37z" />
    <glyph glyph-name="parenleft" unicode="(" 
d="M778 1481l33 -27q-328 -266 -500 -633t-172 -796q0 -89 11.5 -182t26.5 -159.5t34 -129t28.5 -88.5t16.5 -41l-41 -21q-61 177 -89 323t-28 316q0 135 20 274t69 298t124.5 305.5t195 294t271.5 266.5z" />
    <glyph glyph-name="parenright" unicode=")" 
d="M-307 -596l-33 27q328 266 500 633t172 796q0 89 -11.5 182t-26.5 159.5t-34 129t-28.5 88.5t-16.5 41l41 21q61 -177 89 -323t28 -316q0 -135 -20 -274t-69 -298t-124.5 -305.5t-195 -294t-271.5 -266.5z" />
    <glyph glyph-name="asterisk" unicode="*" horiz-adv-x="909" 
d="M143 995q4 86 80 86q24 0 59.5 -7t75.5 -7q58 0 170 20q-109 95 -204 132q-55 21 -77 41t-22 53q-2 32 20.5 58t53.5 26q26 0 43.5 -10.5t24.5 -22t20 -41.5t23 -47q27 -49 66.5 -101.5t62.5 -78.5q16 82 16 164q0 42 -7 78.5t-7 56.5q0 42 24 66t66 24q39 0 60.5 -19.5
t21.5 -52.5q0 -27 -15.5 -52t-56.5 -75q-53 -65 -90 -194q143 43 207 102q25 22 38.5 33t32.5 19.5t39 8.5q31 0 52.5 -24t21.5 -53q0 -40 -25.5 -66.5t-64.5 -26.5q-27 0 -66 6t-75 5q-60 -4 -156 -17q115 -103 217 -137q40 -13 63 -32.5t23 -55.5t-25 -60t-61 -24
q-31 0 -54.5 23.5t-37.5 66.5q-35 95 -135 211q-17 -83 -17 -170q0 -38 7.5 -76.5t7.5 -60.5q0 -31 -26 -54.5t-58 -23.5q-33 0 -59.5 24t-26.5 58q0 15 8.5 33t17.5 29.5t27 31.5q46 55 106 213q-126 -45 -188 -94q-68 -54 -103 -64q-13 -4 -24 -4q-34 0 -53 22.5t-21 59.5
z" />
    <glyph glyph-name="plus" unicode="+" horiz-adv-x="1214" 
d="M498 0v473h-471v37h471v473h41v-473h471v-37h-471v-473h-41z" />
    <glyph glyph-name="comma" unicode="," 
d="M-37 -330l-8 27q27 10 56.5 26t66.5 43.5t60.5 67.5t23.5 84q0 47 -10 70q-3 -1 -10.5 -5t-12.5 -6q-20 -4 -37 -4q-36 0 -58 25.5t-22 58.5q0 51 28 80t81 29q61 0 98 -43t37 -109q0 -67 -26.5 -125t-61.5 -93.5t-81 -65t-73.5 -41.5t-50.5 -19z" />
    <glyph glyph-name="hyphen" unicode="-" horiz-adv-x="757" 
d="M106 377l33 123h357l-33 -123h-357z" />
    <glyph glyph-name="period" unicode="." 
d="M12 70q0 40 28.5 68t68.5 28t68 -28t28 -68t-28 -68.5t-68 -28.5t-68.5 28.5t-28.5 68.5z" />
    <glyph glyph-name="slash" unicode="/" horiz-adv-x="606" 
d="M-158 -18l885 1513l37 -20l-885 -1514z" />
    <glyph glyph-name="zero" unicode="0" horiz-adv-x="987" 
d="M37 410q0 147 37 300t101 281.5t143 231.5t170 161t176 58q97 0 165 -61.5t98.5 -157t30.5 -215.5q0 -154 -39 -311t-104.5 -284.5t-146 -228.5t-168 -157t-164.5 -56q-141 0 -220 116t-79 323zM164 225q0 -107 45.5 -166t122.5 -59q67 0 134.5 69.5t121 179t100 242.5
t77.5 263t48.5 238t17.5 169q0 124 -44.5 188t-118.5 64q-84 0 -165 -99t-140.5 -246.5t-105.5 -314t-69.5 -307.5t-23.5 -221z" />
    <glyph glyph-name="one" unicode="1" horiz-adv-x="987" 
d="M305 29l348 1249q-74 -48 -173.5 -101t-164.5 -81l-14 24q104 41 266.5 139t247.5 183h29l-395 -1413h219l-9 -29h-559l9 29h196z" />
    <glyph glyph-name="two" unicode="2" horiz-adv-x="987" 
d="M676 0h-826l-10 27q276 264 623 620q293 303 293 518q0 109 -55 178.5t-158 69.5q-102 0 -167 -53t-65 -117q0 -23 4 -39t4 -39q0 -35 -23.5 -57.5t-62.5 -22.5q-37 0 -57 24t-20 65q0 38 30 84t81 87.5t129 69t163 27.5q149 0 255 -93.5t106 -222.5q0 -64 -21.5 -124
t-66 -117.5t-93.5 -106t-121 -110.5l-618 -529v-4h537q66 0 106.5 18.5t56.5 71.5l25 78h31z" />
    <glyph glyph-name="three" unicode="3" horiz-adv-x="987" 
d="M240 709l-9 30q2 0 40 8t52 11.5t51 13.5t60.5 19t55.5 23.5t59 31.5q88 54 138 152t50 216q0 98 -43 148.5t-123 50.5q-176 0 -176 -174q0 -58 -19.5 -84.5t-68.5 -26.5q-67 0 -67 72q0 93 97 167.5t238 74.5q133 0 229.5 -75.5t96.5 -184.5q0 -50 -19.5 -97t-50 -84
t-74 -71.5t-83.5 -58.5t-88 -47t-78 -34.5t-62 -23.5l3 -4q48 0 91.5 -7t89.5 -26.5t79 -50t54 -80.5t21 -115q0 -67 -35 -142.5t-97.5 -144t-140.5 -124t-173 -88.5t-186 -33q-67 0 -118 13.5t-77 34.5t-38.5 42.5t-12.5 42.5q0 30 21 45.5t50 15.5t49.5 -13t43.5 -56
q32 -57 58 -76.5t85 -19.5q104 0 200.5 81.5t152 201.5t55.5 235q0 106 -55.5 173.5t-157.5 67.5q-38 0 -93 -11t-75 -19z" />
    <glyph glyph-name="four" unicode="4" horiz-adv-x="987" 
d="M266 29h162l88 329h-561l8 29q119 172 321.5 423.5t467.5 530.5q61 67 88 84t84 17q88 0 88 -45q0 -14 -9 -27t-19 -21t-42 -32q-183 -133 -334.5 -263t-263.5 -248.5t-191.5 -215.5t-152.5 -203h524l144 533h155l-143 -533h217l-8 -29h-217l-88 -329h164l-9 -29h-481z
" />
    <glyph glyph-name="five" unicode="5" horiz-adv-x="987" 
d="M244 772l178 651q139 -10 344 -10q105 0 166 66l18 -15q-2 -3 -17 -28.5t-23 -36.5t-26 -35t-35 -37t-40.5 -28t-51.5 -22t-59 -7h-88q-101 0 -196 10l-103 -365q241 -7 359 -103.5t118 -254.5q0 -108 -56 -220.5t-145 -199.5t-209 -142.5t-239 -55.5q-64 0 -117 12
t-89.5 39.5t-36.5 66.5q0 34 21 56t52 22q13 0 24 -2.5t19 -5.5t15.5 -10t12 -11t10 -13.5t7 -13t6 -14.5t5.5 -12q10 -24 20.5 -37.5t37.5 -24.5t69 -11q77 0 155.5 40.5t141 108t102 165.5t39.5 204q0 73 -24.5 125t-60.5 80.5t-92 44.5t-102.5 20t-109.5 4z" />
    <glyph glyph-name="six" unicode="6" horiz-adv-x="987" 
d="M33 336q0 114 33 244t88 251t131.5 233t159.5 195t175.5 133t176.5 50q103 0 165 -48.5t62 -107.5q0 -43 -25.5 -63.5t-64.5 -20.5q-37 0 -59.5 19t-22.5 45q0 17 4 34.5t4 36.5q0 32 -30 48t-76 16q-52 0 -99.5 -25.5t-84.5 -65.5t-74 -103.5t-65 -125t-60 -143.5
l-49 -125l4 -4q103 78 213 78q127 0 217 -103.5t90 -253.5q0 -96 -42 -197t-110 -180.5t-161 -130.5t-187 -51q-81 0 -143 30t-98 82t-54 115.5t-18 137.5zM160 201q0 -92 43.5 -146.5t134.5 -54.5q144 0 227 150q52 95 94.5 252t42.5 245q0 97 -45 154t-133 57
q-98 0 -223 -104q-56 -134 -98.5 -293.5t-42.5 -259.5z" />
    <glyph glyph-name="seven" unicode="7" horiz-adv-x="987" 
d="M205 1100l82 313h712q-2 -16 -6.5 -35t-8.5 -35.5t-12.5 -39.5t-14 -37.5t-17 -41.5t-17 -39t-19.5 -41t-18 -37.5t-19 -39t-17 -35.5l-471 -960q-31 -62 -59 -81.5t-76 -19.5q-94 0 -94 56q0 18 11.5 38.5t39.5 59.5l551 823q97 145 176 322h-533q-24 0 -44.5 -5.5
t-34.5 -12t-26.5 -22t-19 -25.5t-15 -33t-11.5 -33.5l-11 -38.5h-28z" />
    <glyph glyph-name="eight" unicode="8" horiz-adv-x="987" 
d="M616 795l82 -70q75 -65 114.5 -132.5t39.5 -156.5q0 -50 -19.5 -110.5t-60 -123t-95.5 -114t-134.5 -84.5t-167.5 -33q-156 0 -264.5 107t-108.5 252q0 121 87.5 219t217.5 164l101 51q-56 48 -87.5 83t-55 90t-23.5 122q0 71 25.5 138.5t72.5 122.5t120.5 88.5
t160.5 33.5q60 0 117.5 -18t105.5 -52t77 -89.5t29 -123.5q0 -28 -6 -55t-15 -49t-25.5 -45t-30.5 -39.5t-38.5 -36.5t-40.5 -32t-45 -30t-44.5 -26.5t-46 -26t-42.5 -24.5zM543 651l-113 92l-45 -24q-75 -41 -129 -99t-79.5 -120t-36.5 -115t-11 -104q0 -118 67.5 -199.5
t178.5 -81.5q70 0 129.5 23t99.5 60.5t68 86t40.5 98.5t12.5 99q0 48 -11.5 86t-40.5 74t-53.5 58.5t-76.5 65.5zM502 885l90 -72q109 59 170 162.5t61 234.5q0 203 -202 203q-118 0 -191.5 -76.5t-73.5 -195.5q0 -80 31 -134.5t115 -121.5z" />
    <glyph glyph-name="nine" unicode="9" horiz-adv-x="987" 
d="M639 494l37 106l-4 4q-103 -78 -217 -78q-133 0 -220.5 102.5t-87.5 254.5q0 96 42 197t110 180.5t161 130.5t187 51q81 0 143.5 -30t98.5 -82t54 -115.5t18 -137.5q0 -138 -41.5 -294t-115.5 -298t-166 -258.5t-203.5 -186t-217.5 -69.5q-126 0 -187 47t-61 109
q0 84 90 84q37 0 59.5 -19t22.5 -45q0 -17 -4 -34.5t-4 -36.5q0 -28 20 -43t43.5 -18t59.5 -3q127 0 207.5 103t175.5 379zM291 791q0 -236 178 -236q111 0 229 109q8 26 43 128.5t48.5 149.5t29 129.5t15.5 151.5q0 93 -45 141.5t-146 48.5q-70 0 -130 -44.5t-99.5 -113
t-68 -153.5t-41.5 -164.5t-13 -146.5z" />
    <glyph glyph-name="colon" unicode=":" 
d="M25 70q0 40 28 68t68 28t68 -28t28 -68t-28 -68.5t-68 -28.5t-68 28.5t-28 68.5zM221 805q0 40 28 68t68 28t68.5 -28t28.5 -68t-28.5 -68t-68.5 -28t-68 28t-28 68z" />
    <glyph glyph-name="semicolon" unicode=";" 
d="M8 -330l-8 27q27 10 56.5 26t66.5 43.5t60.5 67.5t23.5 84q0 47 -10 70q-3 -1 -10.5 -5t-12.5 -6q-20 -4 -37 -4q-36 0 -58 25.5t-22 58.5q0 51 28 80t81 29q61 0 98 -43t37 -109q0 -67 -26.5 -125t-61.5 -93.5t-81 -65t-73.5 -41.5t-50.5 -19zM264 805q0 40 28 68t68 28
t68.5 -28t28.5 -68t-28.5 -68t-68.5 -28t-68 28t-28 68z" />
    <glyph glyph-name="less" unicode="&#x3c;" horiz-adv-x="1214" 
d="M1012 942l-1096 -450l1096 -451v-41l-1164 483v17l1164 483v-41z" />
    <glyph glyph-name="equal" unicode="=" horiz-adv-x="1214" 
d="M27 649v37h983v-37h-983zM27 297v37h983v-37h-983z" />
    <glyph glyph-name="greater" unicode="&#x3e;" horiz-adv-x="1214" 
d="M23 41l1095 451l-1095 450v41l1163 -483v-17l-1163 -483v41z" />
    <glyph glyph-name="question" unicode="?" horiz-adv-x="833" 
d="M266 367l29 110q10 41 16 62t24.5 57t45.5 68l160 184q94 108 137 220t43 202q0 96 -52.5 141t-133.5 45q-99 0 -139 -51.5t-40 -149.5q0 -33 -20.5 -54t-63.5 -21q-33 0 -52 25.5t-19 51.5q0 81 94 154.5t235 73.5q159 0 246.5 -81t87.5 -208q0 -197 -162 -319
l-157 -117q-3 -2 -30 -22.5t-33.5 -26t-30 -25t-32.5 -30l-27 -31.5t-27 -38t-20 -40.5t-17 -48.5l-35 -131h-27zM102 70q0 40 28.5 68t68.5 28t68 -28t28 -68t-28 -68.5t-68 -28.5t-68.5 28.5t-28.5 68.5z" />
    <glyph glyph-name="at" unicode="@" horiz-adv-x="1705" 
d="M1278 1079l-139 -479q-21 -71 -21 -119q0 -64 34 -89t79 -25q54 0 114.5 44t109.5 113.5t81.5 164.5t32.5 188q0 112 -42.5 213.5t-121 179.5t-200 124t-269.5 46q-113 0 -219 -30t-191 -82.5t-156 -124.5t-118.5 -155.5t-73.5 -176t-26 -185.5q0 -139 54 -263
t148.5 -214t231 -142.5t293.5 -52.5q139 0 284 48t271 147l26 -37q-38 -28 -67.5 -47.5t-90 -51t-120 -51.5t-145.5 -35.5t-177 -15.5q-155 1 -297 52t-250.5 142t-173.5 227.5t-65 297.5q0 160 68 307t182.5 254t272.5 170.5t331 63.5q152 0 281 -47.5t217 -129t137 -192.5
t49 -237q0 -138 -60.5 -270t-157 -213t-196.5 -81q-166 0 -182 183q-85 -183 -254 -183q-120 0 -198.5 85t-78.5 208q0 95 40.5 187.5t104 159t141.5 107t151 40.5q11 0 21 -1t32.5 -4.5t42 -13.5t40.5 -25.5t37 -43.5t23 -64l39 129h121zM1081 915q0 49 -36.5 93.5
t-102.5 44.5q-59 0 -117.5 -48.5t-99.5 -120t-66.5 -155.5t-25.5 -154q0 -38 7.5 -73t24 -67t47 -51t72.5 -19q118 0 189 151q25 52 66.5 184.5t41.5 214.5z" />
    <glyph glyph-name="A" unicode="A" horiz-adv-x="1478" 
d="M-180 0l8 29h176l1028 1462h47l37 -1462h221l-8 -29h-631l9 29h223l-12 573h-472l-401 -573h207l-8 -29h-424zM918 631l-9 622h-4l-438 -622h451z" />
    <glyph glyph-name="B" unicode="B" horiz-adv-x="1327" 
d="M35 29l506 1401h-238l8 28h461q214 0 344.5 -81.5t130.5 -233.5q0 -80 -41 -145t-99 -103t-130 -64t-127 -36t-96 -11l-4 -4q30 -7 64.5 -18t87.5 -39.5t93.5 -64.5t70.5 -96.5t30 -131.5q0 -102 -60.5 -187t-158.5 -138.5t-217.5 -83t-243.5 -29.5q-52 0 -150 4t-149 4
h-299l8 29h209zM487 774l-264 -743q108 -11 180 -11q101 0 187.5 31.5t144 82t98.5 115.5t59.5 131t18.5 130q0 91 -39 148.5t-92 84.5q-37 19 -78 25t-110 6h-105zM725 1430l-225 -627h190q163 0 264 105t101 288q0 106 -64.5 170t-179.5 64h-86z" />
    <glyph glyph-name="C" unicode="C" horiz-adv-x="1327" 
d="M1436 1458l-142 -395h-26q12 81 12 139q0 125 -87.5 189.5t-225.5 64.5q-88 0 -172 -45.5t-151.5 -121.5t-127 -174.5t-103.5 -206.5t-75.5 -214.5t-47.5 -201t-16 -164.5q0 -162 90.5 -245t256.5 -83q86 0 162 31t130.5 82.5t90 99.5t63.5 102l27 -14
q-62 -112 -125 -176q-149 -154 -353 -154q-108 0 -194 33t-141.5 88.5t-93 131.5t-53 158t-15.5 173q0 144 53.5 287t143 256.5t200 202t230.5 136.5t227 48q79 0 146.5 -20t117 -40t82.5 -20q57 0 86 59z" />
    <glyph glyph-name="D" unicode="D" horiz-adv-x="1630" 
d="M49 29l504 1401h-236l9 28h618q141 0 250.5 -45t175.5 -123.5t99.5 -176.5t33.5 -212q0 -109 -33 -219.5t-92.5 -211t-148.5 -188t-195.5 -152t-238.5 -101.5t-273 -37q-58 0 -172 4q-118 4 -174 4h-346l8 29h211zM737 1430l-499 -1399q32 -1 115 -6t130 -5
q109 0 192.5 23.5t184.5 87.5q144 91 252 244.5t163.5 333.5t55.5 362q0 110 -46 191.5t-116 117.5q-100 50 -256 50h-176z" />
    <glyph glyph-name="E" unicode="E" horiz-adv-x="1402" 
d="M39 29l502 1401h-238l8 28h1139l-125 -348h-29q25 77 25 147q0 83 -36 128t-128 45h-432l-227 -633h192q32 0 62.5 9.5t54 23.5t47 36.5t39 41.5t32.5 45.5t25.5 42t19.5 37t13 24.5h29l-215 -596h-29q27 74 27 149t-45 116.5t-123 41.5h-140l-264 -739h479
q214 0 417 364q4 5 5 8h29l-143 -401h-1192l8 29h213z" />
    <glyph glyph-name="F" unicode="F" horiz-adv-x="1366" 
d="M45 29l502 1401h-234l9 28h1157l-125 -348h-29q21 87 21 166q0 77 -35.5 115.5t-128.5 38.5h-447l-241 -666h290q25 0 49 6t43.5 15t39.5 25t34 29t30.5 34t26 34t22.5 36t17.5 31.5t14.5 28.5t10 21h29l-213 -598h-29q25 91 25 152q0 82 -46.5 119.5t-146.5 37.5h-207
l-254 -706h240l-8 -29h-633l8 29h209z" />
    <glyph glyph-name="G" unicode="G" horiz-adv-x="1478" 
d="M1198 479l-172 -479h-33q-4 51 -55 51q-21 0 -66 -20t-112 -40t-144 -20q-108 0 -194 33t-141.5 88.5t-93 131.5t-53 158t-15.5 173q0 144 53.5 287t143 256.5t200 202t230.5 136.5t227 48q79 0 146.5 -20t117 -40t82.5 -20q57 0 86 59l31 -6l-142 -395h-26q12 81 12 139
q0 125 -87.5 189.5t-225.5 64.5q-88 0 -172 -45.5t-151.5 -121.5t-127 -174.5t-103.5 -206.5t-75.5 -214.5t-47.5 -201t-16 -164.5q0 -162 90.5 -245t256.5 -83q113 0 186.5 54.5t103.5 140.5l101 284h-234l8 29h584l-8 -29h-164z" />
    <glyph glyph-name="H" unicode="H" horiz-adv-x="1630" 
d="M-174 0l8 29h211l502 1401h-234l9 28h632l-8 -28h-213l-239 -670h659l242 670h-236l8 28h631l-8 -28h-211l-504 -1401h236l-8 -29h-635l8 29h213l254 702h-660l-254 -702h236l-8 -29h-631z" />
    <glyph glyph-name="I" unicode="I" horiz-adv-x="796" 
d="M-170 0l8 29h211l504 1401h-236l9 28h635l-9 -28h-215l-501 -1401h233l-8 -29h-631z" />
    <glyph glyph-name="J" unicode="J" horiz-adv-x="948" 
d="M322 305l401 1125h-231l8 28h628l-8 -28h-211l-342 -953q-42 -115 -90 -198.5t-129 -167.5q-133 -140 -268 -140q-88 0 -149.5 42.5t-61.5 127.5q0 63 34 101.5t85 38.5q43 0 67.5 -20.5t24.5 -53.5q0 -41 -27.5 -82t-27.5 -76q0 -49 59 -49q16 0 26.5 1t32 10t39 26
t40.5 52t44 85z" />
    <glyph glyph-name="K" unicode="K" horiz-adv-x="1441" 
d="M860 29l-360 721h-15l-258 -721h234l-8 -29h-629l8 29h211l502 1401h-234l8 28h629l-8 -28h-211l-233 -652h16l836 647v5h-228l8 28h424l-8 -28h-141l-758 -588l422 -813h195l-9 -29h-622l8 29h221z" />
    <glyph glyph-name="L" unicode="L" horiz-adv-x="1290" 
d="M41 29l502 1401h-236l8 28h635l-8 -28h-215l-502 -1401h480q44 0 89 17t80 41t72.5 63t61.5 68.5t52 73t38.5 61.5t27.5 48h29l-143 -401h-1192l8 29h213z" />
    <glyph glyph-name="M" unicode="M" horiz-adv-x="1744" 
d="M797 0l8 29h213l504 1401h-4l-988 -1430l29 1430h-6l-498 -1401h234l-8 -29h-478l9 29h213l501 1401h-235l8 28h438l-24 -1136h4l784 1136h424l-8 -28h-211l-502 -1401h234l-8 -29h-633z" />
    <glyph glyph-name="N" unicode="N" horiz-adv-x="1441" 
d="M887 -29l-352 1385h-5l-473 -1327h234l-8 -29h-476l9 29h211l499 1401h-233l8 28h387l291 -1155h4l401 1127h-235l8 28h479l-8 -28h-211l-516 -1459h-14z" />
    <glyph glyph-name="O" unicode="O" horiz-adv-x="1593" 
d="M123 559q0 115 36.5 232t99 218t148.5 189.5t182.5 151.5t202.5 99t207 36q103 0 186 -36t136.5 -94.5t89.5 -137t51 -160t15 -166.5q0 -130 -47.5 -265t-133.5 -250.5t-195.5 -207.5t-243 -144.5t-267.5 -52.5q-211 0 -339 154.5t-128 433.5zM279 324q0 -324 323 -324
q100 0 191.5 45.5t161 121.5t129.5 175t101.5 205.5t71 213.5t43 198.5t13.5 160.5q0 163 -79 249.5t-239 86.5q-95 0 -184 -44t-159 -118t-131 -171t-105 -204t-75 -215t-46.5 -205t-15.5 -175z" />
    <glyph glyph-name="P" unicode="P" horiz-adv-x="1290" 
d="M41 29l502 1401h-236l8 28h492q228 0 359.5 -107.5t131.5 -267.5q0 -89 -41.5 -167t-109.5 -132t-155 -93.5t-179 -58t-180 -18.5q-87 0 -191 17l-217 -602h236l-10 -29h-631l8 29h213zM727 1430l-274 -771q99 -16 165 -16q106 0 199 44.5t156.5 117t100 166t36.5 190.5
q0 132 -80 200.5t-223 68.5h-80z" />
    <glyph glyph-name="Q" unicode="Q" horiz-adv-x="1593" 
d="M1251 -391h-82q-369 0 -512 172l-84 98q-35 42 -62.5 63.5t-70.5 43.5q-50 25 -86 48.5t-83 70.5t-76.5 104t-50.5 147.5t-21 202.5q0 115 36.5 232t99 218t148.5 189.5t182.5 151.5t202.5 99t207 36q103 0 186 -36t136.5 -94.5t89.5 -137t51 -160t15 -166.5
q0 -130 -47.5 -265t-133.5 -250.5t-195.5 -207.5t-243 -144.5t-267.5 -52.5q-34 0 -74 4l-4 -4q68 -52 106 -67.5t97 -20.5q123 -10 182 -40t133 -115q47 -53 94 -71.5t103 -18.5h24v-29zM279 324q0 -324 323 -324q100 0 191.5 45.5t161 121.5t129.5 175t101.5 205.5
t71 213.5t43 198.5t13.5 160.5q0 163 -79 249.5t-239 86.5q-95 0 -184 -44t-159 -118t-131 -171t-105 -204t-75 -215t-46.5 -205t-15.5 -175z" />
    <glyph glyph-name="R" unicode="R" horiz-adv-x="1327" 
d="M41 29l500 1401h-236l12 28h498q77 0 149.5 -17t138 -52.5t105 -99.5t39.5 -148q0 -60 -24 -112t-61 -86.5t-87.5 -63t-97 -44.5t-97 -27.5t-80 -15.5t-52.5 -6l-5 -6q34 -5 65.5 -12t77 -26t78 -45t56.5 -70.5t24 -100.5q0 -69 -25.5 -193.5t-25.5 -191.5
q0 -56 31 -90.5t78 -34.5q32 0 59 11l8 -27q-24 -12 -100 -12q-117 0 -186.5 53t-69.5 168q0 30 25 184q22 158 22 199t-12 71.5t-41.5 56.5t-87 40t-141.5 14h-84l-269 -745h236l-10 -29h-631l10 29h211zM727 1430l-225 -627h137q165 0 244 51q172 111 172 348
q0 111 -67.5 169.5t-174.5 58.5h-86z" />
    <glyph glyph-name="S" unicode="S" horiz-adv-x="1214" 
d="M-100 -4l145 407h27q-27 -79 -27 -120q0 -89 56.5 -155t139.5 -97t175 -31q178 0 280.5 95.5t102.5 246.5q0 72 -31.5 130.5t-95.5 117.5l-146 133q-106 96 -158.5 182.5t-52.5 190.5q0 112 67 202.5t173.5 138.5t228.5 48q72 0 138 -18.5t117 -37t87 -18.5q52 0 74 53
l31 -6l-141 -391h-25q18 69 18 121q0 72 -24 125.5t-66 83.5t-94 44.5t-115 14.5q-148 0 -240.5 -75t-92.5 -193q0 -79 41.5 -142t117.5 -131l183 -163q178 -160 178 -330q0 -79 -36.5 -157.5t-104.5 -144.5t-179.5 -107.5t-247.5 -41.5q-85 0 -161.5 21t-135 42t-100.5 21
q-29 0 -51 -19t-27 -46z" />
    <glyph glyph-name="T" unicode="T" horiz-adv-x="1402" 
d="M340 29l502 1401h-201q-46 0 -90.5 -15.5t-83 -45.5t-69.5 -59.5t-62 -73.5t-48 -70t-40 -65.5t-27 -45.5h-28l143 403h1235l-144 -403h-28q18 80 18 188q0 84 -46 135.5t-142 51.5h-203l-502 -1401h234l-8 -29h-633l8 29h215z" />
    <glyph glyph-name="U" unicode="U" horiz-adv-x="1517" 
d="M293 1430l8 28h633l-8 -28h-215l-314 -875q-34 -95 -48.5 -159.5t-14.5 -137.5q0 -110 71.5 -184t198.5 -74q97 0 179 30.5t138 77t103 115t75 132t52 139.5l291 936h-234l9 28h479l-8 -28h-213l-301 -963q-80 -255 -221.5 -375.5t-364.5 -120.5q-90 0 -163 22t-119 56.5
t-77 80.5t-44 91.5t-13 91.5q0 82 20 162t64 201l270 754h-233z" />
    <glyph glyph-name="V" unicode="V" horiz-adv-x="1441" 
d="M152 1458h632l-8 -28h-221v-1215h4l846 1215h-203l8 28h414l-8 -28h-170l-1018 -1459h-53l-8 1459h-224z" />
    <glyph glyph-name="W" unicode="W" horiz-adv-x="2123" 
d="M373 -29l16 1459h-225l8 28h602l-8 -28h-199l-12 -1207h4l535 801l4 406h-215l8 28h620l-8 -28h-229l-12 -1192h4l796 1192h-196l8 28h420l-8 -28h-183l-979 -1459h-41l9 990h-5l-663 -990h-51z" />
    <glyph glyph-name="X" unicode="X" horiz-adv-x="1402" 
d="M813 29l-176 663l-584 -663h203l-8 -29h-400l9 29h155l611 694l-187 707h-219l8 28h627l-8 -28h-217l151 -578l502 578h-195l9 28h399l-8 -28h-164l-528 -607l206 -794h218l-9 -29h-624l8 29h221z" />
    <glyph glyph-name="Y" unicode="Y" horiz-adv-x="1327" 
d="M115 29h229l225 633l-145 768h-223l8 28h631l-9 -28h-227l133 -703l625 703h-201l8 28h402l-8 -28h-160l-651 -736l-240 -665h236l-9 -29h-633z" />
    <glyph glyph-name="Z" unicode="Z" horiz-adv-x="1327" 
d="M-102 0l1237 1430h-437q-219 0 -417 -371h-29l141 399h981l-1237 -1429h559q208 0 416 372h29l-146 -401h-1097z" />
    <glyph glyph-name="bracketleft" unicode="[" 
d="M-100 -573l542 2031h254l-12 -41h-209l-522 -1949h213l-12 -41h-254z" />
    <glyph glyph-name="backslash" unicode="\" horiz-adv-x="606" 
d="M371 -18l-41 -21l-94 1514l40 20z" />
    <glyph glyph-name="bracketright" unicode="]" 
d="M512 1458l-543 -2031h-254l13 41h209l522 1949h-213l12 41h254z" />
    <glyph glyph-name="asciicircum" unicode="^" horiz-adv-x="1214" 
d="M260 625h-43l354 833h17l354 -833h-43l-319 755z" />
    <glyph glyph-name="underscore" unicode="_" horiz-adv-x="1024" 
d="M1024 -217h-1024v63h1024v-63z" />
    <glyph glyph-name="grave" unicode="`" 
d="M479 1130l-272 216q-45 36 -45 67q0 29 18 47.5t51 18.5q26 0 42.5 -14.5t33.5 -41.5l203 -293h-31z" />
    <glyph glyph-name="a" unicode="a" horiz-adv-x="1099" 
d="M967 879l-224 -621q-45 -126 -45 -190q0 -25 13.5 -39.5t38.5 -14.5q38 0 72.5 22t59 56.5t37 57t21.5 43.5l27 -15q-11 -24 -23.5 -45.5t-37 -52.5t-51 -53t-66 -38t-82.5 -16q-136 0 -136 125q0 51 23 115h-4q-38 -47 -67 -78.5t-79 -74t-107.5 -65t-119.5 -22.5
q-92 0 -156.5 68t-64.5 195q0 95 46 196t119 183.5t158.5 149t170 103.5t147.5 37t105 -35.5t42 -91.5h4l35 101h144zM618 309l109 301q39 104 39 142q0 20 -5.5 40t-17.5 40t-37 32.5t-59 12.5q-78 0 -157 -53.5t-140 -137t-110 -181.5t-75 -192t-26 -163q0 -148 111 -148
q55 0 119.5 37t114.5 88.5t86.5 101t47.5 80.5z" />
    <glyph glyph-name="b" unicode="b" horiz-adv-x="1062" 
d="M315 1556h328l-319 -890l4 -2q28 43 62 82t77.5 76.5t95 60t103.5 22.5q120 0 189 -81t69 -193q0 -117 -66 -239.5t-163 -212.5t-209 -148t-203 -58q-41 0 -81.5 14t-76.5 42t-58 76.5t-22 109.5q0 73 43 191l399 1122h-180zM160 139q0 -137 127 -137q89 0 184 80
t165 195t115.5 244t45.5 227q0 62 -37 95.5t-101 33.5q-82 0 -174 -77t-162 -188.5t-116.5 -241t-46.5 -231.5z" />
    <glyph glyph-name="c" unicode="c" horiz-adv-x="833" 
d="M676 217l29 -16q-31 -45 -60.5 -79t-74.5 -71t-104 -57.5t-128 -20.5q-147 0 -232.5 90t-85.5 220q0 137 82.5 281.5t220.5 242.5t283 98q79 0 135 -38.5t56 -125.5q0 -108 -105 -108q-65 0 -65 51q0 34 27.5 67.5t27.5 67.5q0 58 -88 58q-75 0 -145 -46.5t-120 -120.5
t-88.5 -162.5t-57.5 -176t-19 -158.5q0 -92 53 -151.5t152 -59.5q54 0 104.5 21t89 56t65.5 68.5t48 69.5z" />
    <glyph glyph-name="d" unicode="d" horiz-adv-x="1099" 
d="M1208 1556l-465 -1298q-45 -126 -45 -190q0 -25 13.5 -39.5t38.5 -14.5q38 0 72.5 22t59 56.5t37 57t21.5 43.5l27 -15q-11 -24 -23.5 -45.5t-37 -52.5t-51 -53t-66 -38t-82.5 -16q-136 0 -136 125q0 51 23 115h-4q-38 -47 -67 -78.5t-79 -74t-107.5 -65t-119.5 -22.5
q-92 0 -156.5 68t-64.5 195q0 95 46 196t119 183.5t158.5 149t170 103.5t147.5 37t105 -35.5t42 -91.5h4l267 750h-181l9 28h325zM618 309l109 301q39 104 39 142q0 20 -5.5 40t-17.5 40t-37 32.5t-59 12.5q-78 0 -157 -53.5t-140 -137t-110 -181.5t-75 -192t-26 -163
q0 -148 111 -148q55 0 119.5 37t114.5 88.5t86.5 101t47.5 80.5z" />
    <glyph glyph-name="e" unicode="e" horiz-adv-x="872" 
d="M659 215l25 -14q-2 -3 -16.5 -24.5t-27.5 -38t-36 -43t-50 -45.5t-61 -38t-77.5 -29t-91.5 -10q-67 0 -122.5 19.5t-91 51t-60.5 73t-35.5 83t-10.5 83.5q0 100 50.5 211.5t129.5 201.5t185.5 149.5t208.5 59.5q92 0 160.5 -39.5t68.5 -113.5q0 -62 -42.5 -112.5
t-102.5 -79.5t-131 -48.5t-122.5 -26t-82.5 -6.5q-81 0 -125 8q-54 -160 -54 -266q0 -107 56 -163t147 -56q31 0 61 7.5t53.5 17.5t48.5 28.5t40.5 32t35.5 36.5t28.5 34t24 32.5t17.5 24.5zM680 778q0 43 -26.5 71t-80.5 28q-62 0 -122.5 -36t-106.5 -92.5t-79.5 -116
t-53.5 -116.5q70 -8 104 -8q146 0 255.5 81.5t109.5 188.5z" />
    <glyph glyph-name="f" unicode="f" horiz-adv-x="681" 
d="M117 879h194l31 112q65 238 228 401.5t339 163.5q95 0 147 -49.5t52 -107.5q0 -42 -22 -73.5t-70 -31.5q-42 0 -63 16.5t-21 41.5q0 30 24.5 64t24.5 54q0 58 -78 58q-70 0 -133 -39.5t-104.5 -93.5t-78.5 -129.5t-55.5 -126.5t-33.5 -105l-43 -155h252l-9 -29h-252
l-182 -694q-36 -137 -89.5 -257t-120.5 -216t-150.5 -151.5t-171.5 -55.5q-66 0 -117 31t-51 104q0 41 24.5 68.5t71.5 27.5q29 0 44 -11.5t15 -41.5q0 -14 -10 -46t-10 -52q0 -25 17 -38.5t44 -13.5q184 0 318 500l225 846h-194z" />
    <glyph glyph-name="g" unicode="g" horiz-adv-x="1062" 
d="M221 90l262 -12q275 -14 275 -230q0 -56 -21.5 -117t-66 -119t-104.5 -104.5t-144 -75t-178 -28.5q-160 0 -278 77.5t-118 178.5q0 46 22.5 91.5t57.5 80.5t67.5 59.5t63.5 40.5l58 31q-73 19 -103 44q-49 41 -49 118q0 126 146 205l75 41q-61 71 -61 159q0 71 39.5 141
t100.5 120.5t135.5 82t142.5 31.5q92 0 156 -39.5t92 -89.5q18 27 27.5 39t30 32.5t44.5 29t55 8.5q55 0 94 -37t39 -90q0 -39 -22 -61.5t-66 -22.5q-28 0 -47.5 14.5t-19.5 36.5q0 24 20.5 47t20.5 51q0 13 -10.5 23t-28.5 10q-31 0 -63 -30t-56 -78q12 -18 21.5 -49.5
t9.5 -57.5q0 -84 -64 -168t-159.5 -136t-184.5 -52q-125 0 -221 63l-43 -20q-64 -30 -98.5 -68.5t-34.5 -75.5q0 -44 45 -66t141 -28zM268 485q0 -95 41 -133.5t123 -38.5q65 0 117.5 40.5t83.5 103t47 130.5t16 130q0 160 -159 160q-60 0 -112.5 -41.5t-85.5 -103
t-52 -127.5t-19 -120zM156 -43l-58 -45q-58 -46 -86 -104t-28 -140q0 -62 22 -109t59.5 -73.5t81.5 -39.5t93 -13q113 0 215 49.5t161.5 128.5t59.5 164q0 72 -54.5 120t-177.5 52z" />
    <glyph glyph-name="h" unicode="h" horiz-adv-x="1099" 
d="M-8 0l555 1528h-187l9 28h323l-342 -927h4q202 262 375 262q83 0 134.5 -45.5t51.5 -114.5q0 -48 -38 -149l-134 -379q-32 -90 -32 -135q0 -66 53 -66q34 0 66.5 19.5t58 50.5t42.5 58.5t30 55.5l22 -10q-2 -3 -5 -10q-13 -27 -22.5 -44t-33.5 -48.5t-48 -50.5t-62 -34.5
t-81 -15.5q-70 0 -113 31t-43 94q0 40 25 117l172 490q16 47 16 81q0 31 -19 53.5t-60 22.5q-61 0 -142 -56t-158.5 -158t-119.5 -220l-154 -428h-143z" />
    <glyph glyph-name="i" unicode="i" 
d="M66 250l210 600h-182l8 29h326l-242 -695q-30 -88 -30 -123q0 -26 14.5 -42.5t42.5 -16.5q31 0 65 21.5t59.5 53.5t43.5 60t27 49l24 -10l-9 -18t-13.5 -25t-17 -28t-22.5 -31.5t-26.5 -29.5t-33 -28t-38 -22t-45 -16t-51.5 -5q-147 0 -147 123q0 50 37 154zM403 1362
q0 40 28.5 68t68.5 28t68 -28t28 -68t-28 -68t-68 -28t-68.5 28t-28.5 68z" />
    <glyph glyph-name="j" unicode="j" 
d="M131 879h330l-326 -906q-17 -47 -42.5 -103t-70 -128t-93.5 -128.5t-114.5 -96t-131.5 -39.5q-65 0 -118.5 38t-53.5 107q0 38 26 66t66 28q31 0 49 -14.5t18 -40.5q0 -23 -12 -50t-12 -48q0 -28 18.5 -43t50.5 -15q107 0 203 269l391 1075h-186zM436 1362q0 40 28 68
t68 28t68.5 -28t28.5 -68t-28.5 -68t-68.5 -28t-68 28t-28 68z" />
    <glyph glyph-name="k" unicode="k" horiz-adv-x="1062" 
d="M-8 0l547 1528h-183l9 28h327l-352 -987h43q67 0 125 48.5t121 134.5q114 153 223 153q104 0 104 -112q0 -46 -24 -72.5t-62 -26.5q-34 0 -53.5 15t-19.5 41q0 18 8 37t8 32q0 25 -33 25q-23 0 -48 -23.5t-70 -79.5l-52 -61q-37 -48 -75 -80.5t-64 -40.5v-6
q24 -3 38.5 -6t38.5 -14t39.5 -27t31.5 -46t24 -71l53 -272q20 -103 70 -103q79 0 156 185l28 -9q-16 -36 -26.5 -57.5t-33.5 -55.5t-46 -54t-58.5 -35t-76.5 -15q-61 0 -97 31.5t-55 116.5l-55 256q-6 29 -8 37t-8.5 32.5t-11.5 32.5l-15 24t-21 21.5t-28 11t-37 5.5h-45
l-193 -541h-143z" />
    <glyph glyph-name="l" unicode="l" 
d="M348 1556h326l-488 -1372q-30 -88 -30 -123q0 -26 14.5 -42.5t42.5 -16.5q31 0 65 21.5t59.5 53.5t43.5 60t27 49l24 -10l-9 -18t-13.5 -25t-17 -28t-22.5 -31.5t-26.5 -29.5t-33 -28t-38 -22t-45 -16t-51.5 -5q-147 0 -147 123q0 50 37 154l456 1278h-182z" />
    <glyph glyph-name="m" unicode="m" horiz-adv-x="1554" 
d="M-14 0l297 850h-187l8 29h324l-78 -234h4q29 40 65 79t82.5 78.5t101.5 64t106 24.5q75 0 118 -45t43 -115q0 -40 -10 -78h4q26 37 57.5 72t76 75.5t96.5 65.5t102 25q83 0 134.5 -45.5t51.5 -114.5q0 -46 -39 -149l-133 -379q-32 -90 -32 -144q0 -57 53 -57
q34 0 65.5 18.5t58 52.5t40.5 56.5t32 56.5l23 -10q-2 -3 -5 -10q-13 -27 -22.5 -44t-33.5 -48.5t-48 -50.5t-62 -34.5t-81 -15.5q-70 0 -113 31t-43 94q0 48 25 117l172 490q16 47 16 81q0 37 -17.5 56.5t-61.5 19.5q-87 0 -208 -131.5t-184 -302.5l-153 -428h-144l240 662
q29 85 29 118q0 82 -66 82q-39 0 -92 -28t-110 -79.5t-113 -137.5t-92 -189l-154 -428h-143z" />
    <glyph glyph-name="n" unicode="n" horiz-adv-x="1099" 
d="M-8 0l297 850h-187l9 29h323l-84 -252h4q199 264 375 264q83 0 134.5 -45.5t51.5 -114.5q0 -48 -38 -149l-134 -379q-32 -90 -32 -135q0 -66 53 -66q34 0 66.5 19.5t58 50.5t42.5 58.5t30 55.5l22 -10q-2 -3 -5 -10q-13 -27 -22.5 -44t-33.5 -48.5t-48 -50.5t-62 -34.5
t-81 -15.5q-70 0 -113 31t-43 94q0 40 25 117l172 490q16 47 16 81q0 31 -19 53.5t-60 22.5q-61 0 -142 -56t-158.5 -158t-119.5 -220l-154 -428h-143z" />
    <glyph glyph-name="o" unicode="o" horiz-adv-x="985" 
d="M0 322q0 119 51 229.5t129.5 186.5t174.5 121.5t186 45.5q77 0 139 -32.5t98.5 -85t56 -112t19.5 -118.5q0 -113 -51 -222.5t-129.5 -187.5t-173.5 -126t-181 -48q-141 0 -230 103.5t-89 245.5zM135 207q0 -101 48.5 -153t129.5 -52q73 0 140.5 52.5t114.5 132t82 171.5
t52 172.5t17 133.5q0 213 -189 213q-86 0 -163 -74t-126 -181t-77.5 -219t-28.5 -196z" />
    <glyph glyph-name="p" unicode="p" horiz-adv-x="1099" 
d="M-207 -545l492 1395h-191l8 29h324l-43 -134h4q42 60 111.5 110t156.5 50q145 0 222 -103t77 -257q0 -68 -26 -146t-76.5 -153t-116.5 -136.5t-153.5 -99t-180.5 -37.5q-80 0 -137.5 53.5t-70.5 141.5h-5l-251 -713h174l-9 -28h-464l8 28h147zM369 674l-162 -457
q9 -43 21.5 -77.5t34.5 -67.5t58.5 -51.5t84.5 -18.5q81 0 159 72t130 175.5t84 215.5t32 197q0 97 -37.5 156t-122.5 59q-21 0 -41.5 -4.5t-37.5 -10t-36 -17.5t-32 -20.5t-30.5 -25.5t-26 -26t-24 -28t-20.5 -25.5t-19 -25t-15 -20.5z" />
    <glyph glyph-name="q" unicode="q" horiz-adv-x="1099" 
d="M326 -545l266 738l-4 4q-175 -224 -348 -224q-96 0 -168 63.5t-72 176.5q0 81 32 167.5t84.5 161.5t120.5 143t139 116t142 76t127 28q52 0 86.5 -24.5t47 -54.5t14.5 -64h4l39 117h143l-510 -1424h166l-8 -28h-490l8 28h181zM633 326l115 319q16 44 16 86q0 68 -32 107
t-87 39q-59 0 -123 -40.5t-118 -105.5t-103 -146.5t-83.5 -163.5t-54.5 -157.5t-20 -126.5q0 -58 29 -96.5t84 -38.5q54 0 118.5 38t116.5 92t91 107t51 87z" />
    <glyph glyph-name="r" unicode="r" horiz-adv-x="833" 
d="M10 0l221 631q40 114 68 219h-178l8 29h315q-18 -87 -71 -236l4 -4q3 4 23 33t29 41t31.5 40t37.5 42.5t39.5 36t45.5 32t48 19t53 8.5q71 0 113.5 -41t40.5 -94q-1 -42 -21 -67.5t-42 -32.5t-48 -7q-29 0 -47 15t-18 43q0 27 29 54t28 56q0 20 -16 32.5t-41 12.5
q-78 0 -190.5 -140.5t-170.5 -303.5l-147 -418h-144z" />
    <glyph glyph-name="s" unicode="s" horiz-adv-x="720" 
d="M315 319l-102 136q-24 30 -31.5 41t-23.5 37t-21.5 49t-5.5 49q0 101 95 187.5t231 86.5q85 0 137.5 -38t52.5 -97q0 -41 -22 -63.5t-62 -22.5q-30 0 -50.5 17t-20.5 47q0 20 13 41.5t13 33.5q0 54 -69 54q-92 0 -141.5 -50.5t-49.5 -119.5q0 -37 18 -71t60 -91l121 -158
q43 -53 43 -133q0 -53 -22.5 -99.5t-59.5 -79t-83 -56t-93 -35t-90 -11.5q-99 0 -171.5 43.5t-72.5 116.5q0 45 29 69.5t77 24.5q19 0 34 -13.5t15 -31.5q0 -16 -10 -46t-10 -46q0 -88 115 -88q95 0 155 53.5t60 116.5q0 72 -58 147z" />
    <glyph glyph-name="t" unicode="t" horiz-adv-x="606" 
d="M285 879l73 200h144l-74 -200h223l-8 -29h-223l-234 -651q-30 -88 -30 -129q0 -68 65 -68q34 0 69 21.5t61.5 53.5t44 60t26.5 49l24 -10q-1 -1 -9.5 -18t-13.5 -25.5t-16.5 -28t-22.5 -31.5t-27 -29t-34 -28t-39 -22t-46.5 -16t-53.5 -5q-75 0 -115 37t-40 94
q0 55 47 189l200 557h-184l8 29h185z" />
    <glyph glyph-name="u" unicode="u" horiz-adv-x="1062" 
d="M86 850l8 29h330l-236 -676q-32 -91 -32 -127q0 -32 16.5 -53t50.5 -21q71 0 161 70t165.5 176t112.5 211l145 420h143l-241 -695q-31 -91 -31 -123q0 -26 14.5 -42.5t42.5 -16.5q42 0 86.5 38t70 76.5t38.5 69.5l24 -10l-9 -18t-13.5 -25t-17 -28t-22.5 -31.5
t-26.5 -29.5t-33 -28t-38 -22t-45 -16t-51.5 -5q-147 0 -147 123q0 53 33 140l-4 4q-33 -45 -69 -85t-84.5 -84.5t-103 -71t-104.5 -26.5q-89 0 -139.5 42.5t-50.5 119.5q0 14 4.5 36t9 35.5t14 42.5t11.5 34l200 567h-182z" />
    <glyph glyph-name="v" unicode="v" horiz-adv-x="948" 
d="M213 -27l-27 15q25 48 25 94q0 16 -3 33t-5.5 26t-10 30.5t-8.5 25.5l-43 118q-49 123 -49 191q0 168 240 377l43 37l18 -21q-3 -4 -23.5 -25t-35.5 -37.5t-36.5 -46t-35.5 -56.5t-24.5 -63t-10.5 -71q0 -48 10.5 -99.5t22.5 -86.5t35 -95q41 -107 43 -163
q150 117 216 185q151 154 151 280q0 54 -17 92.5t-34 67.5t-17 59q0 33 26 49t68 16q48 0 74 -38t26 -111q0 -123 -79 -241t-197 -218l-104 -90q-30 -26 -77 -61.5t-69 -57.5q-64 -64 -92 -115z" />
    <glyph glyph-name="w" unicode="w" horiz-adv-x="1517" 
d="M944 920l19 -21q-1 -1 -29.5 -30.5t-46 -51t-42 -58t-37.5 -77.5t-13 -82q0 -48 11 -100t22.5 -85t35.5 -96q41 -107 43 -163q150 117 216 185q151 154 151 280q0 54 -17 92.5t-34 67.5t-17 59q0 33 26 49t68 16q48 0 74.5 -38t26.5 -111q0 -64 -24 -130.5t-65.5 -125.5
t-87.5 -108t-100 -95l-104 -90q-30 -26 -77 -61.5t-69 -57.5q-64 -64 -92 -115l-26 15q24 46 24 94q0 13 -1.5 25t-4.5 25.5t-5 20.5t-8 23t-7 21l-43 118q-7 24 -19 61t-16 52q-19 -20 -64 -61.5t-69 -65.5l-105 -90q-29 -25 -76 -61t-69 -58q-67 -67 -92 -119l-27 15
q25 48 25 98q0 16 -3 33t-5.5 26t-10 30.5t-8.5 25.5l-43 118q-49 123 -49 191q0 169 239 377l43 33l19 -21q-1 -1 -17 -16.5t-24 -24t-26.5 -29t-29.5 -36.5t-25.5 -40t-23 -46t-14.5 -49t-6 -54q0 -48 10.5 -99.5t22 -85.5t35.5 -95q40 -107 43 -164q47 37 60.5 47.5
t64 53t73 65.5t61.5 67t57.5 76.5t34 75t15.5 80.5q0 54 -17 92.5t-33.5 67.5t-16.5 59q0 31 26.5 46t67.5 15q41 -3 67.5 -35.5t26.5 -70.5q66 73 131 121z" />
    <glyph glyph-name="x" unicode="x" horiz-adv-x="1138" 
d="M145 651l-28 13q12 24 24 45.5t41 60.5t60 66t77.5 48t96.5 21q40 0 73 -13.5t53.5 -32t36.5 -45t23 -45.5t12 -40q17 23 43 49.5t64 57t87 50t97 19.5q84 0 130 -47.5t46 -114.5q0 -46 -27 -79t-81 -33q-64 0 -64 51q0 30 29 65.5t29 69.5q0 30 -21.5 45t-50.5 15
q-74 0 -147 -94t-121.5 -219.5t-78.5 -239.5t-30 -166q0 -72 27.5 -114t81.5 -42q141 0 262 223l26 -12q-53 -92 -94 -138q-95 -101 -207 -102q-46 0 -83 18.5t-58.5 48t-34 55.5t-18.5 52q-36 -40 -61 -64t-64.5 -53t-84 -43t-95.5 -14q-94 0 -141.5 46.5t-47.5 107.5
q0 58 31.5 87.5t79.5 29.5q25 0 42 -14t17 -40q0 -27 -27.5 -59t-27.5 -70q0 -32 22.5 -45.5t69.5 -13.5q62 0 123.5 54.5t126.5 207.5q45 111 88 253t43 216q0 65 -27.5 104.5t-85.5 39.5q-45 0 -89 -26t-77.5 -66.5t-54.5 -72.5t-35 -61z" />
    <glyph glyph-name="y" unicode="y" horiz-adv-x="948" 
d="M33 635l-29 8q7 30 12.5 50t17.5 55.5t27 59t36 48t50 37t64 12.5q62 0 108.5 -33.5t71 -87t36 -109t11.5 -110.5q0 -180 -45 -395h4l314 565q48 87 74 116q51 54 120 54q46 0 67 -22.5t21 -57.5q0 -38 -25 -63t-65 -25q-39 0 -39 37q0 16 11.5 34t11.5 30q0 29 -29 26
q-25 -2 -54 -36t-73 -113l-373 -676l-118 -223q-40 -75 -74.5 -129t-78 -105.5t-92 -78.5t-99.5 -27q-77 0 -126 38.5t-49 102.5q0 88 97 88q27 0 43 -13.5t16 -37.5q0 -23 -10 -47t-10 -51q0 -22 19.5 -37t49.5 -15q57 0 120.5 74.5t115.5 192.5t86.5 277.5t34.5 316.5
q0 512 -95 512q-34 0 -62.5 -26.5t-47 -70t-28.5 -77t-17 -68.5z" />
    <glyph glyph-name="z" unicode="z" horiz-adv-x="948" 
d="M-53 -8l663 745q-374 13 -387 13q-33 0 -50.5 -13t-25.5 -41l-10 -39l-28 7q9 26 27.5 101.5t23.5 88.5q7 17 16.5 25t32.5 8q40 0 255.5 -8.5t248.5 -8.5q29 0 53 29l20 -16l-634 -707q75 0 161.5 -16t151.5 -49l100 -50q65 -30 113 -30q29 0 45 16t16 41q0 17 -7.5 28
t-29.5 31q-42 31 -54 52q-13 23 -13 49q0 34 25 51.5t57 17.5q92 0 92 -116q0 -118 -69.5 -173t-180.5 -55q-44 0 -180 33l-98 25q-71 18 -156 18q-88 0 -154 -76z" />
    <glyph glyph-name="braceleft" unicode="{" horiz-adv-x="833" 
d="M395 -537l-10 -36q-25 4 -40 6.5t-45.5 11t-50.5 18t-45 27.5t-40.5 40.5t-26 56t-10.5 73.5q0 65 47 236l57 219q21 81 21 118q0 44 -16 79t-36.5 54.5t-54.5 35.5t-55.5 22.5t-54.5 13.5l2 11q52 8 94.5 19t75 27t57 31t44 39t32 42t24 49.5t18.5 53t17 60.5l72 268
q27 99 51 162t59 116.5t81.5 82t111.5 44t156 15.5l-10 -37q-98 1 -162.5 -17.5t-110 -67t-73 -113t-56.5 -174.5l-45 -160l-29 -125q-44 -166 -118.5 -236.5t-231.5 -85.5q81 -5 125 -41q44 -34 61 -79t17 -84q0 -49 -31 -160l-65 -244q0 -1 -6.5 -28.5t-10.5 -45.5t-8 -47
t-4 -51q0 -92 59.5 -142.5t163.5 -56.5z" />
    <glyph glyph-name="bar" unicode="|" horiz-adv-x="454" 
d="M207 -512v2048h41v-2048h-41z" />
    <glyph glyph-name="braceright" unicode="}" horiz-adv-x="833" 
d="M664 449l-2 -11q-68 -11 -119.5 -27t-88.5 -39t-62 -46.5t-43.5 -59.5t-29.5 -68t-24 -81l-74 -271q-35 -125 -70 -201t-88.5 -128t-125 -71.5t-179.5 -18.5l11 36q92 0 152.5 16t109 59.5t81 112.5t64.5 183l43 164q3 9 9.5 35.5t13.5 56.5t8 33q47 167 121.5 236.5
t232.5 82.5q-84 11 -125 43q-73 59 -73 160q0 49 30 162l66 244q30 117 30 176q0 91 -59 139.5t-160 54.5l11 37q254 -35 254 -231q0 -52 -42 -209q-2 -6 -3 -9.5t-2.5 -9t-2.5 -10.5l-59 -219q-18 -75 -18 -119t15 -78t34.5 -53.5t52 -35t55.5 -22t56 -13.5z" />
    <glyph glyph-name="asciitilde" unicode="~" horiz-adv-x="1214" 
d="M1057 655h37q-8 -26 -14 -43t-19.5 -49t-27 -53.5t-36 -48.5t-47.5 -43t-59.5 -27.5t-73.5 -11.5q-58 0 -176 45l-250 96q-113 45 -178 45q-43 0 -79.5 -18t-57 -35t-43 -59t-27.5 -54.5t-20 -56.5q-3 -7 -4 -10h-37q8 28 13.5 45t19 49t26.5 53t35.5 47.5t47.5 42
t61 26.5t77 11q53 0 178 -43l254 -96q121 -47 168 -47q155 0 232 235z" />
    <glyph glyph-name="uni00A0" unicode="&#xa0;" horiz-adv-x="491" 
 />
    <glyph glyph-name="exclamdown" unicode="&#xa1;" horiz-adv-x="645" 
d="M403 524l-184 -1022q-18 -98 -96 -98q-37 0 -63.5 20t-26.5 60q0 29 28 108l328 932h14zM575 819q0 -40 -28 -68t-68 -28t-68 28t-28 68t28 68t68 28t68 -28t28 -68z" />
    <glyph glyph-name="cent" unicode="&#xa2;" horiz-adv-x="987" 
d="M258 78l416 790q-32 9 -66 9q-74 0 -139 -46.5t-109.5 -120t-77.5 -163t-48 -176t-15 -158.5q0 -80 39 -135zM141 -145l84 161q-71 38 -110 109.5t-39 157.5q0 103 43.5 213.5t116 201t178 149t219.5 58.5q43 0 57 -4l82 156l29 -13l-76 -147q127 -32 127 -156
q0 -108 -104 -108q-66 0 -66 47q0 10 27.5 57t27.5 78q0 35 -30 45l-426 -807q54 -51 143 -51q54 0 104.5 21t89 56t65.5 68.5t48 69.5l29 -16q-31 -45 -60.5 -79t-74.5 -71t-104 -57.5t-128 -20.5q-73 0 -139 29l-84 -160z" />
    <glyph glyph-name="sterling" unicode="&#xa3;" horiz-adv-x="1214" 
d="M995 250l25 -12q-140 -267 -318 -267q-70 0 -120 21.5t-150 85.5l-57 37q-10 -16 -17 -25.5t-26.5 -31t-39 -34t-50 -23.5t-64.5 -11q-66 0 -105.5 32.5t-39.5 83.5q0 57 44.5 86t110.5 29q79 0 195 -37q43 89 43 156q0 81 -20.5 235t-22.5 177h-199l9 28h186
q-14 158 -14 193q0 125 69 243.5t186 193.5t246 75q119 0 197 -61t78 -152q0 -58 -25.5 -98.5t-83.5 -40.5q-32 0 -50.5 14t-18.5 37q0 38 31.5 86t31.5 86q0 51 -46.5 75.5t-113.5 24.5q-72 0 -124.5 -23.5t-89 -67t-62 -117.5t-40.5 -162t-26 -214l-8 -92h311l-8 -28h-305
l-25 -275q-19 -206 -77 -299q168 -43 338 -43q31 0 58.5 3t49 8.5t38.5 11.5t30.5 15.5t23 16.5t17.5 18t12 16t9.5 15t6.5 11zM61 109q0 -43 36.5 -67t84.5 -24q56 0 100 36t68 77q-80 62 -166 62q-123 0 -123 -84z" />
    <glyph glyph-name="currency" unicode="&#xa4;" horiz-adv-x="1138" 
d="M154 731q0 75 28 150t80 131l-131 131l27 26l131 -131q125 109 280 109q154 0 279 -109l133 131l27 -26l-131 -131q108 -124 108 -281q0 -160 -108 -280l131 -132l-27 -26l-133 131q-58 -55 -133 -82t-148 -27q-53 0 -99.5 11t-83 32t-54.5 34t-41 32l-131 -131l-27 26
l129 132q-106 120 -106 280zM197 731q0 -155 108 -264t264 -109q154 0 263.5 109t109.5 264q0 154 -109.5 263.5t-263.5 109.5q-156 0 -264 -110t-108 -263z" />
    <glyph glyph-name="yen" unicode="&#xa5;" horiz-adv-x="987" 
d="M242 29l149 559h-403l6 28h405l23 78l-31 178h-325l6 29h313l-104 529h-189l8 28h547l-8 -28h-195l123 -707l488 707h-162l8 28h336l-8 -28h-133l-367 -529h315l-10 -29h-325l-123 -178l-23 -78h404l-9 -28h-403l-149 -559h198l-8 -29h-551l6 29h191z" />
    <glyph glyph-name="brokenbar" unicode="&#xa6;" horiz-adv-x="454" 
d="M248 -358h-41v716h41v-716zM248 666h-41v716h41v-716z" />
    <glyph glyph-name="section" unicode="&#xa7;" horiz-adv-x="1062" 
d="M600 883l137 -107q86 -67 120 -125.5t34 -128.5q0 -68 -30 -134.5t-68.5 -112.5t-90.5 -89.5t-80.5 -62t-54.5 -33.5q38 -33 69.5 -90.5t31.5 -126.5q0 -84 -37.5 -167.5t-102 -150.5t-159.5 -109t-201 -42q-147 0 -231 68.5t-84 165.5q0 58 29 92t77 34q35 0 56.5 -18
t21.5 -49q0 -21 -14.5 -61.5t-14.5 -71.5q0 -60 51.5 -95.5t122.5 -35.5q90 0 172.5 48t134.5 134.5t52 187.5q0 79 -37 133.5t-121 120.5l-137 105q-90 69 -128 136.5t-38 147.5q0 115 52.5 195t164.5 160l100 71q-71 80 -71 189q0 115 68.5 214t176.5 154.5t224 55.5
q120 0 195 -64t75 -151q0 -137 -102 -137q-34 0 -55 19t-21 48t25.5 70t25.5 80q0 54 -46.5 80t-107.5 26q-81 0 -159.5 -40t-131.5 -113.5t-53 -157.5q0 -142 160 -262zM416 852l-80 -59q-92 -69 -137 -127t-45 -131q0 -109 110 -197l170 -135q69 -52 111 -94
q23 12 49.5 29.5t64 49.5t67 67.5t50.5 84.5t21 98q0 61 -31 107t-94 96l-140 111q-97 78 -116 100z" />
    <glyph glyph-name="dieresis" unicode="&#xa8;" 
d="M176 1362q0 40 28 68t68 28t68.5 -28t28.5 -68t-28.5 -68t-68.5 -28t-68 28t-28 68zM553 1362q0 40 28 68t68 28t68 -28t28 -68t-28 -68t-68 -28t-68 28t-28 68z" />
    <glyph glyph-name="copyright" unicode="&#xa9;" horiz-adv-x="1705" 
d="M96 729q0 153 59.5 292.5t160.5 241t241 162t295 60.5q154 0 294.5 -60t242 -161.5t161.5 -241.5t60 -293t-60 -293.5t-161 -242t-241.5 -162t-295.5 -60.5q-155 1 -295 61.5t-241 162t-160.5 241.5t-59.5 293zM137 729q0 -145 56 -277.5t151.5 -229t228 -153.5
t279.5 -57q146 0 279 57t229 153t152.5 228.5t56.5 278.5q0 145 -57 277.5t-153 228.5t-228.5 152.5t-278.5 56.5q-147 0 -279.5 -57t-228 -153.5t-151.5 -228.5t-56 -276zM1169 565v-262h-18q-23 27 -53 27q-16 0 -90 -22.5t-138 -22.5q-164 0 -288 121q-142 142 -142 333
q0 122 56.5 227.5t158 169.5t224.5 64q58 0 120 -23.5t80 -23.5q31 0 56 25h18v-246h-14q-12 53 -29 92.5t-47 78t-80 59t-117 20.5q-54 0 -97.5 -15.5t-72.5 -40t-50.5 -62t-33.5 -74.5t-19 -84t-9 -84.5t-2 -82.5q0 -126 20 -213.5t59.5 -135t88.5 -67.5t116 -20
q36 0 66.5 5.5t54 13t44.5 22t35 27t27 34t21 36.5t16.5 41t13 41t11.5 42h14z" />
    <glyph glyph-name="ordfeminine" unicode="&#xaa;" horiz-adv-x="659" 
d="M680 1425l-145 -370q-31 -80 -31 -107q0 -37 35 -37q32 0 61.5 24t42 43.5t19.5 35.5l18 -8q-9 -18 -21.5 -35.5t-33 -39t-51 -35t-64.5 -13.5q-42 0 -65 18t-23 51q0 18 16 80h-4q-15 -20 -33 -40t-49.5 -47.5t-73 -44.5t-85.5 -17q-61 0 -103.5 40t-42.5 117
q0 71 46 146t111.5 130t137.5 90.5t123 35.5q43 0 69.5 -23t26.5 -55h4l21 61h94zM453 1104l90 227q0 88 -72 88q-62 0 -125 -48t-106.5 -116t-71 -141t-27.5 -125q0 -40 17.5 -59t56.5 -19q64 0 137.5 65.5t100.5 127.5z" />
    <glyph glyph-name="guillemotleft" unicode="&#xab;" horiz-adv-x="833" 
d="M666 709v-29q-108 -8 -185.5 -97t-77.5 -239q0 -34 10.5 -64t24.5 -49t33 -35t31.5 -23t25.5 -13l-12 -29q-16 5 -33.5 12t-53.5 30t-63 50.5t-48 75.5t-21 104q0 60 24 110t62 84t87.5 58.5t98.5 37t97 16.5zM410 735v-28q-108 -8 -185.5 -97t-77.5 -239q0 -42 14.5 -77
t37.5 -56.5t39.5 -32.5t33.5 -19l-12 -28q-16 5 -33.5 12t-53.5 30t-63 50.5t-48 75.5t-21 104q0 60 24 110t62 83.5t87.5 58t98.5 37t97 16.5z" />
    <glyph glyph-name="logicalnot" unicode="&#xac;" horiz-adv-x="1214" 
d="M1010 297h-41v352h-942v37h983v-389z" />
    <glyph glyph-name="uni00AD" unicode="&#xad;" horiz-adv-x="757" 
d="M106 377l33 123h357l-33 -123h-357z" />
    <glyph glyph-name="registered" unicode="&#xae;" horiz-adv-x="1003" 
d="M195 1104q0 157 111 269t269 112q157 0 269 -112t112 -269q0 -158 -112 -269.5t-269 -111.5q-158 0 -269 111.5t-111 269.5zM469 915v385h-63v9h106q9 0 27.5 1t27.5 1q73 0 105 -25q37 -27 37 -72q0 -10 -3.5 -21.5t-13 -26t-31 -26t-51.5 -14.5v-2q92 -16 105 -65
q4 -16 6.5 -56.5t5.5 -52.5q9 -39 33 -39q18 0 31 13l4 -6q-20 -15 -50 -15q-42 0 -59 21t-20 65l-4 53q-6 76 -80 76h-58v-203h64v-8h-182v8h63zM524 1300v-174h51q34 0 52 19.5t18 68.5q0 53 -23 71t-61 18q-25 0 -37 -3zM215 1104q0 -149 105.5 -255t254.5 -106t255 106
t106 255t-106 254.5t-255 105.5t-254.5 -105.5t-105.5 -254.5z" />
    <glyph glyph-name="macron" unicode="&#xaf;" 
d="M190 1294h576l-25 -61h-575z" />
    <glyph glyph-name="degree" unicode="&#xb0;" horiz-adv-x="819" 
d="M293 1208q0 116 80.5 196.5t195.5 80.5t196 -80.5t81 -196.5q0 -115 -80.5 -195.5t-196.5 -80.5q-115 0 -195.5 80t-80.5 196zM334 1208q0 -98 68.5 -166.5t166.5 -68.5t167 68.5t69 166.5t-69 167t-167 69t-166.5 -69t-68.5 -167z" />
    <glyph glyph-name="plusminus" unicode="&#xb1;" horiz-adv-x="1214" 
d="M498 135v404h-471v36h471v408h41v-408h471v-36h-471v-404h-41zM27 0v37h983v-37h-983z" />
    <glyph glyph-name="two.superior" unicode="&#xb2;" horiz-adv-x="589" 
d="M512 563h-520l-8 23l374 368q193 178 193 308q0 61 -35.5 99t-103.5 38q-60 0 -99 -20t-39 -44q0 -21 2.5 -31t2.5 -22q0 -30 -16.5 -49t-49.5 -19q-53 0 -53 60q0 54 75.5 103.5t202.5 49.5q94 0 156.5 -51.5t62.5 -136.5q0 -73 -49 -135.5t-147 -138.5l-355 -303v-7
h302q43 0 69.5 11.5t36.5 42.5l16 36h33z" />
    <glyph glyph-name="three.superior" unicode="&#xb3;" horiz-adv-x="589" 
d="M217 981l-6 33q132 22 207 63q56 27 89.5 84.5t33.5 124.5q0 56 -24.5 84.5t-80.5 28.5q-106 0 -106 -103q0 -21 -14.5 -38t-41.5 -17q-59 0 -59 43q0 55 64.5 99t156.5 44q94 0 152.5 -44t58.5 -111q0 -41 -23.5 -79t-56.5 -64t-76.5 -48.5t-76 -34t-62.5 -20.5v-4
q40 0 75.5 -7.5t69.5 -25.5t54 -52.5t20 -82.5q0 -51 -34 -108.5t-87.5 -103.5t-124.5 -76.5t-139 -30.5q-83 0 -121 25t-38 54q0 18 14.5 30.5t32.5 12.5q23 0 37.5 -10.5t29.5 -38.5q15 -18 23.5 -25.5t24 -13.5t38.5 -6q56 0 112 45.5t91 115.5t35 138q0 60 -36 95.5
t-103 35.5t-109 -12z" />
    <glyph glyph-name="acute" unicode="&#xb4;" 
d="M330 1130l282 285q31 33 54 48.5t47 15.5q26 0 43.5 -17t17.5 -43q0 -25 -17 -44.5t-71 -51.5l-328 -193h-28z" />
    <glyph glyph-name="mu" unicode="&#xb5;" horiz-adv-x="1062" 
d="M86 850l8 29h330l-236 -676q-32 -91 -32 -127q0 -32 16.5 -53t50.5 -21q71 0 161 70t165.5 176t112.5 211l145 420h143l-241 -695q-31 -91 -31 -123q0 -26 14.5 -42.5t42.5 -16.5q42 0 86.5 38t70 76.5t38.5 69.5l24 -10l-9 -18t-13.5 -25t-17 -28t-22.5 -31.5
t-26.5 -29.5t-33 -28t-38 -22t-45 -16t-51.5 -5q-147 0 -147 123q0 53 33 140l-4 4q-33 -45 -69 -85t-84.5 -84.5t-103 -71t-104.5 -26.5q-77 0 -98 66l-211 -612h-133l491 1423h-182z" />
    <glyph glyph-name="paragraph" unicode="&#xb6;" horiz-adv-x="1175" 
d="M874 1458h519l-11 -28h-159l-404 -1129q-33 -92 -60.5 -154t-71.5 -137t-105 -137.5t-140 -114.5q-97 -64 -208.5 -99.5t-206.5 -35.5q-59 0 -104 18t-68 46.5t-34 57t-11 54.5q0 48 35 80.5t96 32.5q37 0 63.5 -15t26.5 -47q0 -7 -1 -13t-2.5 -10t-5 -11.5t-5.5 -10.5
t-8 -13l-9 -15q-27 -45 -27 -60q7 -39 47 -39q41 0 105 38t119 114q87 119 211 471l92 254q-48 5 -75.5 10t-74.5 22.5t-88 45.5q-84 58 -127 153t-43 195q0 44 7.5 87t30 94.5t58.5 95t97.5 84.5t142.5 67q77 25 190.5 37t208.5 12zM674 301l405 1129h-188l-404 -1129
q-49 -136 -84.5 -223t-79 -170.5t-86.5 -131.5t-98.5 -81t-122.5 -43q69 2 132 18t113 40t96.5 63t80.5 75t67.5 89t55 92t46 96.5t36.5 90.5t31 85z" />
    <glyph glyph-name="periodcentered" unicode="&#xb7;" 
d="M111 526q0 40 28 68.5t68 28.5t68 -28.5t28 -68.5t-28 -68t-68 -28t-68 28t-28 68z" />
    <glyph glyph-name="cedilla" unicode="&#xb8;" 
d="M211 -8h41l-160 -152l4 -4q55 31 111 31q58 0 101.5 -37t43.5 -111q0 -98 -71 -160.5t-168 -62.5q-49 0 -91.5 20t-62.5 40l18 24q21 -17 33.5 -25.5t39.5 -19t54 -10.5q37 0 64.5 22t42 56t21 67.5t6.5 63.5q0 92 -76 92q-52 0 -90 -27l-25 33z" />
    <glyph glyph-name="one.superior" unicode="&#xb9;" horiz-adv-x="589" 
d="M127 592h125l217 737q-119 -70 -219 -108l-8 26q59 23 152 74.5t169 105.5h31l-242 -835h137l-8 -29h-362z" />
    <glyph glyph-name="ordmasculine" unicode="&#xba;" horiz-adv-x="591" 
d="M137 1092q0 95 56 177.5t138.5 127.5t164.5 45q100 0 154.5 -65t54.5 -144q0 -90 -56 -172.5t-138 -130t-161 -47.5q-95 0 -154 62t-59 147zM231 1024q0 -119 115 -119q59 0 111.5 46.5t84 112t50 128.5t18.5 104q0 57 -30 90t-93 33q-55 0 -105 -42.5t-82 -104.5
t-50.5 -129t-18.5 -119z" />
    <glyph glyph-name="guillemotright" unicode="&#xbb;" horiz-adv-x="833" 
d="M-29 158v28q108 8 185 97t77 239q0 42 -14 77t-37 56.5t-39.5 32.5t-33.5 19l12 28q16 -5 33.5 -12t53.5 -30t63 -50.5t48 -75.5t21 -104q0 -60 -24 -110t-62 -83.5t-87.5 -58t-98.5 -37t-97 -16.5zM225 129v29q108 8 185 97t77 239q0 34 -10.5 64t-24.5 49t-33 35
t-31.5 23t-25.5 13l13 29q15 -5 33 -12.5t54 -30t63 -50.5t48 -76t21 -104q0 -60 -24 -110t-62 -83.5t-87.5 -58t-98.5 -37t-97 -16.5z" />
    <glyph glyph-name="onequarter" unicode="&#xbc;" horiz-adv-x="1476" 
d="M127 592h125l217 737q-119 -70 -219 -108l-8 26q59 23 152 74.5t169 105.5h31l-242 -835h137l-8 -29h-362zM301 -20l885 1478l37 -20l-885 -1479zM1087 29l54 182h-357q44 104 451 549q71 72 90 86q29 19 66 18q59 0 59 -35q0 -23 -43 -47l-117 -86l-90 -73
q-229 -193 -360 -383h305l84 305h106l-84 -305h140l-9 -29h-137l-51 -182h104l-8 -29h-309l8 29h98z" />
    <glyph glyph-name="onehalf" unicode="&#xbd;" horiz-adv-x="1476" 
d="M127 592h125l217 737q-119 -70 -219 -108l-8 26q59 23 152 74.5t169 105.5h31l-242 -835h137l-8 -29h-362zM301 -20l885 1478l37 -20l-885 -1479zM1280 0h-520l-8 23l374 368q193 178 193 307q0 61 -35.5 99.5t-103.5 38.5q-60 0 -99 -20t-39 -44q0 -21 2.5 -31t2.5 -22
q0 -30 -16.5 -49t-49.5 -19q-53 0 -53 60q0 54 75.5 103.5t202.5 49.5q94 0 156.5 -51.5t62.5 -136.5q0 -73 -49.5 -136t-146.5 -139l-355 -303v-6h302q44 0 70 11t36 42l16 37h33z" />
    <glyph glyph-name="threequarters" unicode="&#xbe;" horiz-adv-x="1476" 
d="M217 981l-6 33q132 22 207 63q56 27 89.5 84.5t33.5 124.5q0 56 -24.5 84.5t-80.5 28.5q-106 0 -106 -103q0 -21 -14.5 -38t-41.5 -17q-59 0 -59 43q0 55 64.5 99t156.5 44q94 0 152.5 -44t58.5 -111q0 -41 -23.5 -79t-56.5 -64t-76.5 -48.5t-76 -34t-62.5 -20.5v-4
q40 0 75.5 -7.5t69.5 -25.5t54 -52.5t20 -82.5q0 -51 -34 -108.5t-87.5 -103.5t-124.5 -76.5t-139 -30.5q-83 0 -121 25t-38 54q0 18 14.5 30.5t32.5 12.5q23 0 37.5 -10.5t29.5 -38.5q15 -18 23.5 -25.5t24 -13.5t38.5 -6q56 0 112 45.5t91 115.5t35 138q0 60 -36 95.5
t-103 35.5t-109 -12zM301 -20l885 1478l37 -20l-885 -1479zM1087 29l54 182h-357q44 104 451 549q71 72 90 86q29 19 66 18q59 0 59 -35q0 -23 -43 -47l-117 -86l-90 -73q-229 -193 -360 -383h305l84 305h106l-84 -305h140l-9 -29h-137l-51 -182h104l-8 -29h-309l8 29h98z
" />
    <glyph glyph-name="questiondown" unicode="&#xbf;" horiz-adv-x="833" 
d="M567 522l-28 -110q-10 -41 -16 -62t-24.5 -57t-45.5 -68l-160 -184q-94 -108 -137 -220t-43 -202q0 -96 52.5 -141t133.5 -45q99 0 138.5 51t39.5 149q0 34 20.5 55t63.5 21q33 0 52.5 -26t19.5 -52q0 -81 -94.5 -154t-235.5 -73q-159 0 -246.5 81t-87.5 208
q0 197 162 319l158 117q3 2 30 22.5t33.5 26t30 25t32.5 30l27 31.5t27 38t20 40.5t17 48.5l35 131h26zM731 819q0 -40 -28 -68t-68 -28t-68 28t-28 68t28 68t68 28t68 -28t28 -68z" />
    <glyph glyph-name="Agrave" unicode="&#xc0;" horiz-adv-x="1478" 
d="M-180 0l8 29h176l1028 1462h47l37 -1462h221l-8 -29h-631l9 29h223l-12 573h-472l-401 -573h207l-8 -29h-424zM918 631l-9 622h-4l-438 -622h451zM1118 1581l-272 215q-45 36 -45 68q0 29 18 47t51 18q26 0 42.5 -14t33.5 -41l203 -293h-31z" />
    <glyph glyph-name="Aacute" unicode="&#xc1;" horiz-adv-x="1478" 
d="M-180 0l8 29h176l1028 1462h47l37 -1462h221l-8 -29h-631l9 29h223l-12 573h-472l-401 -573h207l-8 -29h-424zM918 631l-9 622h-4l-438 -622h451zM969 1581l282 285q60 63 101 63q26 0 43.5 -16.5t17.5 -42.5q0 -25 -17 -44.5t-71 -51.5l-328 -193h-28z" />
    <glyph glyph-name="Acircumflex" unicode="&#xc2;" horiz-adv-x="1478" 
d="M-180 0l8 29h176l1028 1462h47l37 -1462h221l-8 -29h-631l9 29h223l-12 573h-472l-401 -573h207l-8 -29h-424zM918 631l-9 622h-4l-438 -622h451zM758 1581l329 344h76l180 -344h-28l-207 217l-317 -217h-33z" />
    <glyph glyph-name="Atilde" unicode="&#xc3;" horiz-adv-x="1478" 
d="M-180 0l8 29h176l1028 1462h47l37 -1462h221l-8 -29h-631l9 29h223l-12 573h-472l-401 -573h207l-8 -29h-424zM918 631l-9 622h-4l-438 -622h451zM805 1630h-29q13 89 73 146t132 57q14 0 26.5 -2t26 -7t20 -7.5t21.5 -10l17 -8.5l79 -43q58 -22 89 -22q46 0 81.5 35
t49.5 71h26q-5 -20 -12.5 -42.5t-24.5 -53.5t-38 -55t-54 -41t-71 -17q-68 0 -127 33l-54 29q-5 3 -20 11.5t-21.5 11.5t-18 8t-21.5 6.5t-21 1.5q-50 0 -84.5 -33.5t-44.5 -67.5z" />
    <glyph glyph-name="Adieresis" unicode="&#xc4;" horiz-adv-x="1478" 
d="M-180 0l8 29h176l1028 1462h47l37 -1462h221l-8 -29h-631l9 29h223l-12 573h-472l-401 -573h207l-8 -29h-424zM918 631l-9 622h-4l-438 -622h451zM815 1772q0 40 28 68t68 28t68.5 -28t28.5 -68t-28.5 -68.5t-68.5 -28.5t-68 28.5t-28 68.5zM1192 1772q0 40 28 68t68 28
t68 -28t28 -68t-28 -68.5t-68 -28.5t-68 28.5t-28 68.5z" />
    <glyph glyph-name="Aring" unicode="&#xc5;" horiz-adv-x="1478" 
d="M-180 0l8 29h176l1028 1462h47l37 -1462h221l-8 -29h-631l9 29h223l-12 573h-472l-401 -573h207l-8 -29h-424zM918 631l-9 622h-4l-438 -622h451zM1313 1790q0 -86 -70.5 -161t-150.5 -75q-64 0 -100 44.5t-36 101.5q0 83 74 156t154 73q55 0 92 -39t37 -100zM1243 1815
q0 92 -72 92q-55 0 -100 -78t-45 -150q0 -49 15 -75.5t53 -26.5q57 0 103 80.5t46 157.5z" />
    <glyph glyph-name="AE" unicode="&#xc6;" horiz-adv-x="2009" 
d="M872 29l95 573h-504l-445 -573h211l-8 -29h-442l8 29h190l1084 1401h-213l8 28h1081l-118 -334h-29q18 93 18 146q0 84 -41.5 122t-128.5 38h-352l-108 -633h149q160 0 260 225h29l-160 -537h-29q7 94 7 107q0 33 -8 62t-26.5 55.5t-54 42.5t-85.5 16h-86l-123 -739h270
q46 0 90 13.5t78 32.5t69.5 51t58.5 57.5t50 64.5t39.5 59.5t32 54.5t22.5 39h29l-143 -401h-1004l8 29h221zM975 631l133 801h-6l-619 -801h492z" />
    <glyph glyph-name="Ccedilla" unicode="&#xc7;" horiz-adv-x="1327" 
d="M1436 1458l-142 -395h-26q12 81 12 139q0 125 -87.5 189.5t-225.5 64.5q-88 0 -172 -45.5t-151.5 -121.5t-127 -174.5t-103.5 -206.5t-75.5 -214.5t-47.5 -201t-16 -164.5q0 -162 90.5 -245t256.5 -83q86 0 162 31t130.5 82.5t90 99.5t63.5 102l27 -14
q-62 -112 -125 -176q-149 -154 -353 -154h-26l-139 -131l4 -4q55 31 110 31q58 0 102 -37.5t44 -110.5q0 -98 -71.5 -160.5t-168.5 -62.5q-49 0 -91.5 20t-62.5 40l19 24q21 -17 33.5 -25.5t39.5 -19t54 -10.5q37 0 64.5 22t41.5 56t20.5 67.5t6.5 63.5q0 92 -76 92
q-52 0 -90 -27l-24 33l149 141q-92 8 -166 44t-124 90.5t-83 127t-48 152t-15 168.5q0 144 53.5 287t143 256.5t200 202t230.5 136.5t227 48q79 0 146.5 -20t117 -40t82.5 -20q57 0 86 59z" />
    <glyph glyph-name="Egrave" unicode="&#xc8;" horiz-adv-x="1402" 
d="M39 29l502 1401h-238l8 28h1139l-125 -348h-29q25 77 25 147q0 83 -36 128t-128 45h-432l-227 -633h192q32 0 62.5 9.5t54 23.5t47 36.5t39 41.5t32.5 45.5t25.5 42t19.5 37t13 24.5h29l-215 -596h-29q27 74 27 149t-45 116.5t-123 41.5h-140l-264 -739h479
q214 0 417 364q4 5 5 8h29l-143 -401h-1192l8 29h213zM1081 1581l-272 215q-45 36 -45 68q0 29 18.5 47t51.5 18q26 0 42 -14t33 -41l203 -293h-31z" />
    <glyph glyph-name="Eacute" unicode="&#xc9;" horiz-adv-x="1402" 
d="M39 29l502 1401h-238l8 28h1139l-125 -348h-29q25 77 25 147q0 83 -36 128t-128 45h-432l-227 -633h192q32 0 62.5 9.5t54 23.5t47 36.5t39 41.5t32.5 45.5t25.5 42t19.5 37t13 24.5h29l-215 -596h-29q27 74 27 149t-45 116.5t-123 41.5h-140l-264 -739h479
q214 0 417 364q4 5 5 8h29l-143 -401h-1192l8 29h213zM932 1581l282 285q60 63 101 63q26 0 43.5 -16.5t17.5 -42.5q0 -25 -17 -44.5t-71 -51.5l-327 -193h-29z" />
    <glyph glyph-name="Ecircumflex" unicode="&#xca;" horiz-adv-x="1402" 
d="M39 29l502 1401h-238l8 28h1139l-125 -348h-29q25 77 25 147q0 83 -36 128t-128 45h-432l-227 -633h192q32 0 62.5 9.5t54 23.5t47 36.5t39 41.5t32.5 45.5t25.5 42t19.5 37t13 24.5h29l-215 -596h-29q27 74 27 149t-45 116.5t-123 41.5h-140l-264 -739h479
q214 0 417 364q4 5 5 8h29l-143 -401h-1192l8 29h213zM680 1581l330 344h75l181 -344h-29l-207 217l-317 -217h-33z" />
    <glyph glyph-name="Edieresis" unicode="&#xcb;" horiz-adv-x="1402" 
d="M39 29l502 1401h-238l8 28h1139l-125 -348h-29q25 77 25 147q0 83 -36 128t-128 45h-432l-227 -633h192q32 0 62.5 9.5t54 23.5t47 36.5t39 41.5t32.5 45.5t25.5 42t19.5 37t13 24.5h29l-215 -596h-29q27 74 27 149t-45 116.5t-123 41.5h-140l-264 -739h479
q214 0 417 364q4 5 5 8h29l-143 -401h-1192l8 29h213zM727 1772q0 40 28 68t68 28t68.5 -28t28.5 -68t-28.5 -68.5t-68.5 -28.5t-68 28.5t-28 68.5zM1104 1772q0 40 28 68t68 28t68 -28t28 -68t-28 -68.5t-68 -28.5t-68 28.5t-28 68.5z" />
    <glyph glyph-name="Igrave" unicode="&#xcc;" horiz-adv-x="796" 
d="M-170 0l8 29h211l504 1401h-236l9 28h635l-9 -28h-215l-501 -1401h233l-8 -29h-631zM778 1581l-272 215q-45 36 -45 68q0 29 18 47t51 18q26 0 42.5 -14t33.5 -41l203 -293h-31z" />
    <glyph glyph-name="Iacute" unicode="&#xcd;" horiz-adv-x="796" 
d="M-170 0l8 29h211l504 1401h-236l9 28h635l-9 -28h-215l-501 -1401h233l-8 -29h-631zM629 1581l282 285q60 63 101 63q26 0 43.5 -16.5t17.5 -42.5q0 -25 -17 -44.5t-71 -51.5l-328 -193h-28z" />
    <glyph glyph-name="Icircumflex" unicode="&#xce;" horiz-adv-x="796" 
d="M-170 0l8 29h211l504 1401h-236l9 28h635l-9 -28h-215l-501 -1401h233l-8 -29h-631zM408 1581l329 344h76l180 -344h-28l-207 217l-318 -217h-32z" />
    <glyph glyph-name="Idieresis" unicode="&#xcf;" horiz-adv-x="796" 
d="M-170 0l8 29h211l504 1401h-236l9 28h635l-9 -28h-215l-501 -1401h233l-8 -29h-631zM475 1772q0 40 28 68t68 28t68.5 -28t28.5 -68t-28.5 -68.5t-68.5 -28.5t-68 28.5t-28 68.5zM852 1772q0 40 28 68t68 28t68 -28t28 -68t-28 -68.5t-68 -28.5t-68 28.5t-28 68.5z" />
    <glyph glyph-name="Eth" unicode="&#xd0;" horiz-adv-x="1630" 
d="M49 29l266 739h-235l10 29h236l227 633h-236l9 28h618q141 0 250.5 -45t175.5 -123.5t99.5 -176.5t33.5 -212q0 -109 -33 -219.5t-92.5 -211t-148.5 -188t-195.5 -152t-238.5 -101.5t-273 -37q-58 0 -172 4q-118 4 -174 4h-346l8 29h211zM737 1430l-225 -633h303l-10 -29
h-303l-264 -737q32 -1 115 -6t130 -5q109 0 192.5 23.5t184.5 87.5q144 91 252 244.5t163.5 333.5t55.5 362q0 110 -46 191.5t-116 117.5q-100 50 -256 50h-176z" />
    <glyph glyph-name="Ntilde" unicode="&#xd1;" horiz-adv-x="1441" 
d="M887 -29l-352 1385h-5l-473 -1327h234l-8 -29h-476l9 29h211l499 1401h-233l8 28h387l291 -1155h4l401 1127h-235l8 28h479l-8 -28h-211l-516 -1459h-14zM786 1630h-28q13 89 73 146t132 57q14 0 26.5 -2t25.5 -6.5t20 -7.5t21 -10t17 -9l80 -43q58 -22 88 -22
q46 0 81.5 35t49.5 71h27q-4 -20 -12 -42.5t-25 -53.5t-38 -55t-54.5 -41t-71.5 -17q-68 0 -127 33l-53 29q-5 3 -17 9.5t-17.5 9.5t-16 7.5t-17.5 7t-16.5 4t-18.5 1.5q-50 0 -84.5 -33.5t-44.5 -67.5z" />
    <glyph glyph-name="Ograve" unicode="&#xd2;" horiz-adv-x="1593" 
d="M123 559q0 115 36.5 232t99 218t148.5 189.5t182.5 151.5t202.5 99t207 36q103 0 186 -36t136.5 -94.5t89.5 -137t51 -160t15 -166.5q0 -130 -47.5 -265t-133.5 -250.5t-195.5 -207.5t-243 -144.5t-267.5 -52.5q-211 0 -339 154.5t-128 433.5zM279 324q0 -324 323 -324
q100 0 191.5 45.5t161 121.5t129.5 175t101.5 205.5t71 213.5t43 198.5t13.5 160.5q0 163 -79 249.5t-239 86.5q-95 0 -184 -44t-159 -118t-131 -171t-105 -204t-75 -215t-46.5 -205t-15.5 -175zM1176 1581l-273 215q-45 36 -45 68q0 29 18.5 47t51.5 18q26 0 42.5 -14
t33.5 -41l202 -293h-30z" />
    <glyph glyph-name="Oacute" unicode="&#xd3;" horiz-adv-x="1593" 
d="M123 559q0 115 36.5 232t99 218t148.5 189.5t182.5 151.5t202.5 99t207 36q103 0 186 -36t136.5 -94.5t89.5 -137t51 -160t15 -166.5q0 -130 -47.5 -265t-133.5 -250.5t-195.5 -207.5t-243 -144.5t-267.5 -52.5q-211 0 -339 154.5t-128 433.5zM279 324q0 -324 323 -324
q100 0 191.5 45.5t161 121.5t129.5 175t101.5 205.5t71 213.5t43 198.5t13.5 160.5q0 163 -79 249.5t-239 86.5q-95 0 -184 -44t-159 -118t-131 -171t-105 -204t-75 -215t-46.5 -205t-15.5 -175zM1026 1581l283 285q31 33 53.5 48t46.5 15q26 0 43.5 -16.5t17.5 -42.5
q0 -25 -17 -44.5t-71 -51.5l-327 -193h-29z" />
    <glyph glyph-name="Ocircumflex" unicode="&#xd4;" horiz-adv-x="1593" 
d="M123 559q0 115 36.5 232t99 218t148.5 189.5t182.5 151.5t202.5 99t207 36q103 0 186 -36t136.5 -94.5t89.5 -137t51 -160t15 -166.5q0 -130 -47.5 -265t-133.5 -250.5t-195.5 -207.5t-243 -144.5t-267.5 -52.5q-211 0 -339 154.5t-128 433.5zM279 324q0 -324 323 -324
q100 0 191.5 45.5t161 121.5t129.5 175t101.5 205.5t71 213.5t43 198.5t13.5 160.5q0 163 -79 249.5t-239 86.5q-95 0 -184 -44t-159 -118t-131 -171t-105 -204t-75 -215t-46.5 -205t-15.5 -175zM805 1581l330 344h75l181 -344h-29l-207 217l-317 -217h-33z" />
    <glyph glyph-name="Otilde" unicode="&#xd5;" horiz-adv-x="1593" 
d="M123 559q0 115 36.5 232t99 218t148.5 189.5t182.5 151.5t202.5 99t207 36q103 0 186 -36t136.5 -94.5t89.5 -137t51 -160t15 -166.5q0 -130 -47.5 -265t-133.5 -250.5t-195.5 -207.5t-243 -144.5t-267.5 -52.5q-211 0 -339 154.5t-128 433.5zM279 324q0 -324 323 -324
q100 0 191.5 45.5t161 121.5t129.5 175t101.5 205.5t71 213.5t43 198.5t13.5 160.5q0 163 -79 249.5t-239 86.5q-95 0 -184 -44t-159 -118t-131 -171t-105 -204t-75 -215t-46.5 -205t-15.5 -175zM862 1630h-28q13 89 72.5 146t131.5 57q14 0 26.5 -2t26 -7t20 -7.5t21.5 -10
l17 -8.5l80 -43q58 -22 88 -22q46 0 81.5 35t49.5 71h27q-4 -20 -12 -42.5t-25 -53.5t-38 -55t-54.5 -41t-71.5 -17q-68 0 -127 33l-53 29q-5 3 -17 9.5t-17.5 9.5t-16 7.5t-17.5 7t-16.5 4t-18.5 1.5q-50 0 -84.5 -33.5t-44.5 -67.5z" />
    <glyph glyph-name="Odieresis" unicode="&#xd6;" horiz-adv-x="1593" 
d="M123 559q0 115 36.5 232t99 218t148.5 189.5t182.5 151.5t202.5 99t207 36q103 0 186 -36t136.5 -94.5t89.5 -137t51 -160t15 -166.5q0 -130 -47.5 -265t-133.5 -250.5t-195.5 -207.5t-243 -144.5t-267.5 -52.5q-211 0 -339 154.5t-128 433.5zM279 324q0 -324 323 -324
q100 0 191.5 45.5t161 121.5t129.5 175t101.5 205.5t71 213.5t43 198.5t13.5 160.5q0 163 -79 249.5t-239 86.5q-95 0 -184 -44t-159 -118t-131 -171t-105 -204t-75 -215t-46.5 -205t-15.5 -175zM872 1772q0 40 28.5 68t68.5 28t68 -28t28 -68t-28 -68.5t-68 -28.5
t-68.5 28.5t-28.5 68.5zM1249 1772q0 40 28.5 68t68.5 28t68 -28t28 -68t-28 -68.5t-68 -28.5t-68.5 28.5t-28.5 68.5z" />
    <glyph glyph-name="multiply" unicode="&#xd7;" horiz-adv-x="1214" 
d="M944 39l-426 426l-426 -426l-26 29l423 424l-423 423l26 29l426 -426l426 426l27 -29l-424 -423l424 -424z" />
    <glyph glyph-name="Oslash" unicode="&#xd8;" horiz-adv-x="1593" 
d="M381 61l784 1358q-70 37 -170 37q-95 0 -184 -44t-159 -118t-131 -171t-105 -204t-75 -215t-46.5 -205t-15.5 -175q0 -186 102 -263zM1196 1403l-788 -1358q70 -45 194 -45q100 0 191.5 45.5t161 121.5t129.5 175t101.5 205.5t71 213.5t43 198.5t13.5 160.5
q0 203 -117 283zM270 -127l92 158q-114 67 -176.5 201.5t-62.5 326.5q0 115 36.5 232t99 218t148.5 189.5t182.5 151.5t202.5 99t207 36q96 0 185 -35l84 145l28 -16l-82 -143q133 -69 198 -220t65 -325q0 -130 -47.5 -265t-133.5 -250.5t-195.5 -207.5t-243 -144.5
t-267.5 -52.5q-114 0 -199 43l-92 -157z" />
    <glyph glyph-name="Ugrave" unicode="&#xd9;" horiz-adv-x="1517" 
d="M293 1430l8 28h633l-8 -28h-215l-314 -875q-34 -95 -48.5 -159.5t-14.5 -137.5q0 -110 71.5 -184t198.5 -74q97 0 179 30.5t138 77t103 115t75 132t52 139.5l291 936h-234l9 28h479l-8 -28h-213l-301 -963q-80 -255 -221.5 -375.5t-364.5 -120.5q-90 0 -163 22t-119 56.5
t-77 80.5t-44 91.5t-13 91.5q0 82 20 162t64 201l270 754h-233zM1139 1581l-273 215q-45 36 -45 68q0 29 18.5 47t51.5 18q26 0 42.5 -14t33.5 -41l202 -293h-30z" />
    <glyph glyph-name="Uacute" unicode="&#xda;" horiz-adv-x="1517" 
d="M293 1430l8 28h633l-8 -28h-215l-314 -875q-34 -95 -48.5 -159.5t-14.5 -137.5q0 -110 71.5 -184t198.5 -74q97 0 179 30.5t138 77t103 115t75 132t52 139.5l291 936h-234l9 28h479l-8 -28h-213l-301 -963q-80 -255 -221.5 -375.5t-364.5 -120.5q-90 0 -163 22t-119 56.5
t-77 80.5t-44 91.5t-13 91.5q0 82 20 162t64 201l270 754h-233zM989 1581l283 285q31 33 53.5 48t46.5 15q27 0 44.5 -16.5t17.5 -42.5q0 -25 -17 -44.5t-71 -51.5l-328 -193h-29z" />
    <glyph glyph-name="Ucircumflex" unicode="&#xdb;" horiz-adv-x="1517" 
d="M293 1430l8 28h633l-8 -28h-215l-314 -875q-34 -95 -48.5 -159.5t-14.5 -137.5q0 -110 71.5 -184t198.5 -74q97 0 179 30.5t138 77t103 115t75 132t52 139.5l291 936h-234l9 28h479l-8 -28h-213l-301 -963q-80 -255 -221.5 -375.5t-364.5 -120.5q-90 0 -163 22t-119 56.5
t-77 80.5t-44 91.5t-13 91.5q0 82 20 162t64 201l270 754h-233zM778 1581l330 344h76l180 -344h-29l-207 217l-317 -217h-33z" />
    <glyph glyph-name="Udieresis" unicode="&#xdc;" horiz-adv-x="1517" 
d="M293 1430l8 28h633l-8 -28h-215l-314 -875q-34 -95 -48.5 -159.5t-14.5 -137.5q0 -110 71.5 -184t198.5 -74q97 0 179 30.5t138 77t103 115t75 132t52 139.5l291 936h-234l9 28h479l-8 -28h-213l-301 -963q-80 -255 -221.5 -375.5t-364.5 -120.5q-90 0 -163 22t-119 56.5
t-77 80.5t-44 91.5t-13 91.5q0 82 20 162t64 201l270 754h-233zM836 1772q0 40 28 68t68 28t68 -28t28 -68t-28 -68.5t-68 -28.5t-68 28.5t-28 68.5zM1212 1772q0 40 28.5 68t68.5 28t68 -28t28 -68t-28 -68.5t-68 -28.5t-68.5 28.5t-28.5 68.5z" />
    <glyph glyph-name="Yacute" unicode="&#xdd;" horiz-adv-x="1327" 
d="M115 29h229l225 633l-145 768h-223l8 28h631l-9 -28h-227l133 -703l625 703h-201l8 28h402l-8 -28h-160l-651 -736l-240 -665h236l-9 -29h-633zM893 1581l283 285q31 33 53.5 48t46.5 15q26 0 43.5 -16.5t17.5 -42.5q0 -25 -17 -44.5t-71 -51.5l-327 -193h-29z" />
    <glyph glyph-name="Thorn" unicode="&#xde;" horiz-adv-x="1290" 
d="M637 1182l-275 -770q105 -17 166 -17q106 0 199 44.5t156.5 117t100 166t36.5 190.5q0 132 -80 200.5t-223 68.5h-80zM39 29l504 1401h-236l8 28h635l-8 -28h-215l-78 -220h68q228 0 359.5 -107t131.5 -267q0 -89 -41.5 -167t-109.5 -132t-155 -93.5t-179 -58t-180 -18.5
q-105 0 -191 16l-127 -354h234l-8 -29h-631l8 29h211z" />
    <glyph glyph-name="germandbls" unicode="&#xdf;" horiz-adv-x="1138" 
d="M31 14l284 965q46 155 109.5 268.5t140 180t159 97.5t175.5 31q98 0 164.5 -59.5t66.5 -175.5q0 -207 -169 -311l-97 -60q-60 -38 -86 -73.5t-26 -77.5q0 -60 49 -156l106 -215q54 -111 54 -170q0 -82 -54.5 -149t-133.5 -101.5t-161 -34.5q-116 0 -185 57.5t-69 112.5
q0 41 32.5 64.5t72.5 23.5q26 0 45.5 -12t19.5 -35q0 -20 -17 -45t-17 -49q0 -88 131 -88q87 0 148 52.5t61 133.5q0 12 -1 22.5t-3.5 22.5t-4 20t-7.5 22.5t-8 20.5t-11 24t-11.5 23.5t-13.5 27.5l-14 28l-76 152q-37 71 -52.5 111.5t-15.5 78.5q0 63 42.5 114t140.5 103
l108 58q195 103 195 307q0 92 -55.5 148.5t-147.5 56.5q-117 0 -231 -122t-181 -339l-307 -1010q-40 -128 -108.5 -240t-144.5 -185t-154 -114.5t-142 -41.5q-73 0 -121.5 38.5t-48.5 98.5q0 90 86 90q70 0 70 -49q0 -17 -10 -45.5t-10 -48.5q0 -26 15.5 -41t41.5 -15
q98 0 203.5 140t173.5 370z" />
    <glyph glyph-name="agrave" unicode="&#xe0;" horiz-adv-x="1099" 
d="M967 879l-224 -621q-45 -126 -45 -190q0 -25 13.5 -39.5t38.5 -14.5q38 0 72.5 22t59 56.5t37 57t21.5 43.5l27 -15q-11 -24 -23.5 -45.5t-37 -52.5t-51 -53t-66 -38t-82.5 -16q-136 0 -136 125q0 51 23 115h-4q-38 -47 -67 -78.5t-79 -74t-107.5 -65t-119.5 -22.5
q-92 0 -156.5 68t-64.5 195q0 95 46 196t119 183.5t158.5 149t170 103.5t147.5 37t105 -35.5t42 -91.5h4l35 101h144zM618 309l109 301q39 104 39 142q0 20 -5.5 40t-17.5 40t-37 32.5t-59 12.5q-78 0 -157 -53.5t-140 -137t-110 -181.5t-75 -192t-26 -163q0 -148 111 -148
q55 0 119.5 37t114.5 88.5t86.5 101t47.5 80.5zM745 1130l-272 216q-45 36 -45 67q0 29 18.5 47.5t51.5 18.5q26 0 42 -14t33 -42l203 -293h-31z" />
    <glyph glyph-name="aacute" unicode="&#xe1;" horiz-adv-x="1099" 
d="M967 879l-224 -621q-45 -126 -45 -190q0 -25 13.5 -39.5t38.5 -14.5q38 0 72.5 22t59 56.5t37 57t21.5 43.5l27 -15q-11 -24 -23.5 -45.5t-37 -52.5t-51 -53t-66 -38t-82.5 -16q-136 0 -136 125q0 51 23 115h-4q-38 -47 -67 -78.5t-79 -74t-107.5 -65t-119.5 -22.5
q-92 0 -156.5 68t-64.5 195q0 95 46 196t119 183.5t158.5 149t170 103.5t147.5 37t105 -35.5t42 -91.5h4l35 101h144zM618 309l109 301q39 104 39 142q0 20 -5.5 40t-17.5 40t-37 32.5t-59 12.5q-78 0 -157 -53.5t-140 -137t-110 -181.5t-75 -192t-26 -163q0 -148 111 -148
q55 0 119.5 37t114.5 88.5t86.5 101t47.5 80.5zM596 1130l283 285q32 33 54 48.5t46 15.5q26 0 43.5 -17t17.5 -43q0 -25 -17 -44.5t-71 -51.5l-327 -193h-29z" />
    <glyph glyph-name="acircumflex" unicode="&#xe2;" horiz-adv-x="1099" 
d="M967 879l-224 -621q-45 -126 -45 -190q0 -25 13.5 -39.5t38.5 -14.5q38 0 72.5 22t59 56.5t37 57t21.5 43.5l27 -15q-11 -24 -23.5 -45.5t-37 -52.5t-51 -53t-66 -38t-82.5 -16q-136 0 -136 125q0 51 23 115h-4q-38 -47 -67 -78.5t-79 -74t-107.5 -65t-119.5 -22.5
q-92 0 -156.5 68t-64.5 195q0 95 46 196t119 183.5t158.5 149t170 103.5t147.5 37t105 -35.5t42 -91.5h4l35 101h144zM618 309l109 301q39 104 39 142q0 20 -5.5 40t-17.5 40t-37 32.5t-59 12.5q-78 0 -157 -53.5t-140 -137t-110 -181.5t-75 -192t-26 -163q0 -148 111 -148
q55 0 119.5 37t114.5 88.5t86.5 101t47.5 80.5zM385 1130l330 345h76l180 -345h-29l-207 218l-317 -218h-33z" />
    <glyph glyph-name="atilde" unicode="&#xe3;" horiz-adv-x="1099" 
d="M967 879l-224 -621q-45 -126 -45 -190q0 -25 13.5 -39.5t38.5 -14.5q38 0 72.5 22t59 56.5t37 57t21.5 43.5l27 -15q-11 -24 -23.5 -45.5t-37 -52.5t-51 -53t-66 -38t-82.5 -16q-136 0 -136 125q0 51 23 115h-4q-38 -47 -67 -78.5t-79 -74t-107.5 -65t-119.5 -22.5
q-92 0 -156.5 68t-64.5 195q0 95 46 196t119 183.5t158.5 149t170 103.5t147.5 37t105 -35.5t42 -91.5h4l35 101h144zM618 309l109 301q39 104 39 142q0 20 -5.5 40t-17.5 40t-37 32.5t-59 12.5q-78 0 -157 -53.5t-140 -137t-110 -181.5t-75 -192t-26 -163q0 -148 111 -148
q55 0 119.5 37t114.5 88.5t86.5 101t47.5 80.5zM432 1180h-29q13 89 73 145.5t132 56.5q12 0 24 -2t20 -3.5t19.5 -6.5t16.5 -7t17 -8l14 -7l80 -43q61 -23 88 -23q45 0 81 35.5t50 71.5h26q-5 -20 -12.5 -42.5t-24.5 -53.5t-38 -55t-54 -41t-71 -17q-69 0 -127 32l-53 29
q-5 3 -17 9.5t-17.5 9.5t-16 7.5t-17.5 7t-16.5 4t-18.5 1.5q-50 0 -84.5 -33t-44.5 -67z" />
    <glyph glyph-name="adieresis" unicode="&#xe4;" horiz-adv-x="1099" 
d="M967 879l-224 -621q-45 -126 -45 -190q0 -25 13.5 -39.5t38.5 -14.5q38 0 72.5 22t59 56.5t37 57t21.5 43.5l27 -15q-11 -24 -23.5 -45.5t-37 -52.5t-51 -53t-66 -38t-82.5 -16q-136 0 -136 125q0 51 23 115h-4q-38 -47 -67 -78.5t-79 -74t-107.5 -65t-119.5 -22.5
q-92 0 -156.5 68t-64.5 195q0 95 46 196t119 183.5t158.5 149t170 103.5t147.5 37t105 -35.5t42 -91.5h4l35 101h144zM618 309l109 301q39 104 39 142q0 20 -5.5 40t-17.5 40t-37 32.5t-59 12.5q-78 0 -157 -53.5t-140 -137t-110 -181.5t-75 -192t-26 -163q0 -148 111 -148
q55 0 119.5 37t114.5 88.5t86.5 101t47.5 80.5zM442 1362q0 40 28.5 68t68.5 28t68 -28t28 -68t-28 -68t-68 -28t-68.5 28t-28.5 68zM819 1362q0 40 28 68t68 28t68.5 -28t28.5 -68t-28.5 -68t-68.5 -28t-68 28t-28 68z" />
    <glyph glyph-name="aring" unicode="&#xe5;" horiz-adv-x="1099" 
d="M967 879l-224 -621q-45 -126 -45 -190q0 -25 13.5 -39.5t38.5 -14.5q38 0 72.5 22t59 56.5t37 57t21.5 43.5l27 -15q-11 -24 -23.5 -45.5t-37 -52.5t-51 -53t-66 -38t-82.5 -16q-136 0 -136 125q0 51 23 115h-4q-38 -47 -67 -78.5t-79 -74t-107.5 -65t-119.5 -22.5
q-92 0 -156.5 68t-64.5 195q0 95 46 196t119 183.5t158.5 149t170 103.5t147.5 37t105 -35.5t42 -91.5h4l35 101h144zM618 309l109 301q39 104 39 142q0 20 -5.5 40t-17.5 40t-37 32.5t-59 12.5q-78 0 -157 -53.5t-140 -137t-110 -181.5t-75 -192t-26 -163q0 -148 111 -148
q55 0 119.5 37t114.5 88.5t86.5 101t47.5 80.5zM940 1380q0 -86 -70.5 -160.5t-150.5 -74.5q-64 0 -99.5 44t-35.5 101q0 83 73.5 156.5t153.5 73.5q55 0 92 -39.5t37 -100.5zM870 1405q0 92 -71 92q-55 0 -100.5 -77.5t-45.5 -149.5q0 -49 15 -76t53 -27q57 0 103 80.5
t46 157.5z" />
    <glyph glyph-name="ae" unicode="&#xe6;" horiz-adv-x="1517" 
d="M1294 215l25 -14q-2 -2 -16.5 -24t-27.5 -38.5t-36.5 -43t-50.5 -45.5t-61 -38t-77.5 -29t-91.5 -10q-76 0 -139.5 27.5t-102.5 71t-61 91.5t-24 93h-4q-27 -42 -63 -84.5t-88.5 -90.5t-119 -78t-133.5 -30q-92 0 -156.5 68t-64.5 195q0 95 46 196t119 183.5t158.5 149
t170 103.5t147.5 37t105.5 -35.5t42.5 -91.5h4l34 101h144l-49 -134l6 -4q30 35 52 56t60.5 50t86.5 43.5t104 14.5q78 0 143.5 -40t65.5 -113q0 -62 -42.5 -112.5t-102.5 -79.5t-131 -48.5t-122.5 -26t-82.5 -6.5q-81 0 -125 8q-54 -160 -54 -266q0 -107 56 -163t147 -56
q31 0 61 7.5t53.5 17.5t48.5 28.5t40.5 32t35.5 36.5t28.5 34t24 32.5t17.5 24.5zM1315 778q0 43 -26.5 71t-80.5 28q-62 0 -122.5 -36t-106.5 -92.5t-79.5 -116t-53.5 -116.5q70 -8 104 -8q146 0 255.5 81.5t109.5 188.5zM625 309l108 301q39 104 39 142q0 20 -5.5 40
t-17.5 40t-37 32.5t-59 12.5q-78 0 -157 -53.5t-140 -137t-110 -181.5t-75 -192t-26 -163q0 -148 111 -148q55 0 119.5 37t115 88.5t87 101t47.5 80.5z" />
    <glyph glyph-name="ccedilla" unicode="&#xe7;" horiz-adv-x="833" 
d="M160 -168l147 141q-132 10 -209.5 98.5t-77.5 211.5q0 137 82.5 281.5t220.5 242.5t283 98q79 0 135 -38.5t56 -125.5q0 -108 -105 -108q-65 0 -65 51q0 34 27.5 67.5t27.5 67.5q0 58 -88 58q-75 0 -145 -46.5t-120 -120.5t-88.5 -162.5t-57.5 -176t-19 -158.5
q0 -92 53 -151.5t152 -59.5q54 0 104.5 21t89 56t65.5 68.5t48 69.5l29 -16q-25 -35 -46 -62t-56 -60t-70.5 -54.5t-85 -36.5t-103.5 -15l-139 -133l4 -4q55 31 110 31q58 0 102 -37.5t44 -110.5q0 -98 -71.5 -160.5t-168.5 -62.5q-49 0 -91 20t-62 40l18 24
q21 -17 33.5 -25.5t39.5 -19t54 -10.5q37 0 64.5 22t41.5 56t20.5 67.5t6.5 63.5q0 92 -76 92q-52 0 -90 -27z" />
    <glyph glyph-name="egrave" unicode="&#xe8;" horiz-adv-x="872" 
d="M659 215l25 -14q-2 -3 -16.5 -24.5t-27.5 -38t-36 -43t-50 -45.5t-61 -38t-77.5 -29t-91.5 -10q-67 0 -122.5 19.5t-91 51t-60.5 73t-35.5 83t-10.5 83.5q0 100 50.5 211.5t129.5 201.5t185.5 149.5t208.5 59.5q92 0 160.5 -39.5t68.5 -113.5q0 -62 -42.5 -112.5
t-102.5 -79.5t-131 -48.5t-122.5 -26t-82.5 -6.5q-81 0 -125 8q-54 -160 -54 -266q0 -107 56 -163t147 -56q31 0 61 7.5t53.5 17.5t48.5 28.5t40.5 32t35.5 36.5t28.5 34t24 32.5t17.5 24.5zM680 778q0 43 -26.5 71t-80.5 28q-62 0 -122.5 -36t-106.5 -92.5t-79.5 -116
t-53.5 -116.5q70 -8 104 -8q146 0 255.5 81.5t109.5 188.5zM631 1130l-273 216q-45 36 -45 67q0 29 18.5 47.5t51.5 18.5q26 0 42.5 -14.5t33.5 -41.5l203 -293h-31z" />
    <glyph glyph-name="eacute" unicode="&#xe9;" horiz-adv-x="872" 
d="M659 215l25 -14q-2 -3 -16.5 -24.5t-27.5 -38t-36 -43t-50 -45.5t-61 -38t-77.5 -29t-91.5 -10q-67 0 -122.5 19.5t-91 51t-60.5 73t-35.5 83t-10.5 83.5q0 100 50.5 211.5t129.5 201.5t185.5 149.5t208.5 59.5q92 0 160.5 -39.5t68.5 -113.5q0 -62 -42.5 -112.5
t-102.5 -79.5t-131 -48.5t-122.5 -26t-82.5 -6.5q-81 0 -125 8q-54 -160 -54 -266q0 -107 56 -163t147 -56q31 0 61 7.5t53.5 17.5t48.5 28.5t40.5 32t35.5 36.5t28.5 34t24 32.5t17.5 24.5zM680 778q0 43 -26.5 71t-80.5 28q-62 0 -122.5 -36t-106.5 -92.5t-79.5 -116
t-53.5 -116.5q70 -8 104 -8q146 0 255.5 81.5t109.5 188.5zM481 1130l283 285q32 33 54 48.5t46 15.5q26 0 44 -17t18 -43q0 -25 -17 -44.5t-71 -51.5l-328 -193h-29z" />
    <glyph glyph-name="ecircumflex" unicode="&#xea;" horiz-adv-x="872" 
d="M659 215l25 -14q-2 -3 -16.5 -24.5t-27.5 -38t-36 -43t-50 -45.5t-61 -38t-77.5 -29t-91.5 -10q-67 0 -122.5 19.5t-91 51t-60.5 73t-35.5 83t-10.5 83.5q0 100 50.5 211.5t129.5 201.5t185.5 149.5t208.5 59.5q92 0 160.5 -39.5t68.5 -113.5q0 -62 -42.5 -112.5
t-102.5 -79.5t-131 -48.5t-122.5 -26t-82.5 -6.5q-81 0 -125 8q-54 -160 -54 -266q0 -107 56 -163t147 -56q31 0 61 7.5t53.5 17.5t48.5 28.5t40.5 32t35.5 36.5t28.5 34t24 32.5t17.5 24.5zM680 778q0 43 -26.5 71t-80.5 28q-62 0 -122.5 -36t-106.5 -92.5t-79.5 -116
t-53.5 -116.5q70 -8 104 -8q146 0 255.5 81.5t109.5 188.5zM270 1130l330 345h76l180 -345h-29l-206 218l-318 -218h-33z" />
    <glyph glyph-name="edieresis" unicode="&#xeb;" horiz-adv-x="872" 
d="M659 215l25 -14q-2 -3 -16.5 -24.5t-27.5 -38t-36 -43t-50 -45.5t-61 -38t-77.5 -29t-91.5 -10q-67 0 -122.5 19.5t-91 51t-60.5 73t-35.5 83t-10.5 83.5q0 100 50.5 211.5t129.5 201.5t185.5 149.5t208.5 59.5q92 0 160.5 -39.5t68.5 -113.5q0 -62 -42.5 -112.5
t-102.5 -79.5t-131 -48.5t-122.5 -26t-82.5 -6.5q-81 0 -125 8q-54 -160 -54 -266q0 -107 56 -163t147 -56q31 0 61 7.5t53.5 17.5t48.5 28.5t40.5 32t35.5 36.5t28.5 34t24 32.5t17.5 24.5zM680 778q0 43 -26.5 71t-80.5 28q-62 0 -122.5 -36t-106.5 -92.5t-79.5 -116
t-53.5 -116.5q70 -8 104 -8q146 0 255.5 81.5t109.5 188.5zM328 1362q0 40 28 68t68 28t68 -28t28 -68t-28 -68t-68 -28t-68 28t-28 68zM705 1362q0 40 28 68t68 28t68 -28t28 -68t-28 -68t-68 -28t-68 28t-28 68z" />
    <glyph glyph-name="igrave" unicode="&#xec;" 
d="M66 250l210 600h-182l8 29h326l-242 -695q-30 -88 -30 -123q0 -26 14.5 -42.5t42.5 -16.5q31 0 65 21.5t59.5 53.5t43.5 60t27 49l24 -10l-9 -18t-13.5 -25t-17 -28t-22.5 -31.5t-26.5 -29.5t-33 -28t-38 -22t-45 -16t-51.5 -5q-147 0 -147 123q0 50 37 154zM479 1130
l-272 216q-45 36 -45 67q0 29 18 47.5t51 18.5q26 0 42.5 -14.5t33.5 -41.5l203 -293h-31z" />
    <glyph glyph-name="iacute" unicode="&#xed;" 
d="M66 250l210 600h-182l8 29h326l-242 -695q-30 -88 -30 -123q0 -26 14.5 -42.5t42.5 -16.5q31 0 65 21.5t59.5 53.5t43.5 60t27 49l24 -10l-9 -18t-13.5 -25t-17 -28t-22.5 -31.5t-26.5 -29.5t-33 -28t-38 -22t-45 -16t-51.5 -5q-147 0 -147 123q0 50 37 154zM330 1130
l282 285q31 33 54 48.5t47 15.5q26 0 43.5 -17t17.5 -43q0 -25 -17 -44.5t-71 -51.5l-328 -193h-28z" />
    <glyph glyph-name="icircumflex" unicode="&#xee;" 
d="M66 250l210 600h-182l8 29h326l-242 -695q-30 -88 -30 -123q0 -26 14.5 -42.5t42.5 -16.5q31 0 65 21.5t59.5 53.5t43.5 60t27 49l24 -10l-9 -18t-13.5 -25t-17 -28t-22.5 -31.5t-26.5 -29.5t-33 -28t-38 -22t-45 -16t-51.5 -5q-147 0 -147 123q0 50 37 154zM119 1130
l330 345h75l181 -345h-29l-207 218l-317 -218h-33z" />
    <glyph glyph-name="idieresis" unicode="&#xef;" 
d="M66 250l210 600h-182l8 29h326l-242 -695q-30 -88 -30 -123q0 -26 14.5 -42.5t42.5 -16.5q31 0 65 21.5t59.5 53.5t43.5 60t27 49l24 -10l-9 -18t-13.5 -25t-17 -28t-22.5 -31.5t-26.5 -29.5t-33 -28t-38 -22t-45 -16t-51.5 -5q-147 0 -147 123q0 50 37 154zM176 1362
q0 40 28 68t68 28t68.5 -28t28.5 -68t-28.5 -68t-68.5 -28t-68 28t-28 68zM553 1362q0 40 28 68t68 28t68 -28t28 -68t-28 -68t-68 -28t-68 28t-28 68z" />
    <glyph glyph-name="eth" unicode="&#xf0;" horiz-adv-x="985" 
d="M307 1188l271 72q-36 67 -89.5 135t-99.5 108l23 23q117 -80 237 -248l264 72l9 -27l-258 -70q30 -42 58.5 -93.5t63 -130t55.5 -178.5t21 -202q0 -131 -36 -244.5t-93.5 -191t-129.5 -133t-145 -81.5t-139 -26q-141 0 -230 103.5t-89 245.5q0 119 51 229.5t129.5 186.5
t174.5 121.5t186 45.5q65 0 111 -29.5t65 -70.5l4 4q-10 126 -47 237.5t-84 188.5l-275 -74zM135 207q0 -101 48.5 -153t129.5 -52q73 0 140.5 52.5t114.5 132t82 171.5t52 172.5t17 133.5q0 213 -189 213q-86 0 -163 -74t-126 -181t-77.5 -219t-28.5 -196z" />
    <glyph glyph-name="ntilde" unicode="&#xf1;" horiz-adv-x="1099" 
d="M-8 0l297 850h-187l9 29h323l-84 -252h4q199 264 375 264q83 0 134.5 -45.5t51.5 -114.5q0 -48 -38 -149l-134 -379q-32 -90 -32 -135q0 -66 53 -66q34 0 66.5 19.5t58 50.5t42.5 58.5t30 55.5l22 -10q-2 -3 -5 -10q-13 -27 -22.5 -44t-33.5 -48.5t-48 -50.5t-62 -34.5
t-81 -15.5q-70 0 -113 31t-43 94q0 40 25 117l172 490q16 47 16 81q0 31 -19 53.5t-60 22.5q-61 0 -142 -56t-158.5 -158t-119.5 -220l-154 -428h-143zM432 1180h-29q13 89 73 145.5t132 56.5q12 0 24 -2t20 -3.5t19.5 -6.5t16.5 -7t17 -8l14 -7l80 -43q61 -23 88 -23
q45 0 81 35.5t50 71.5h26q-5 -20 -12.5 -42.5t-24.5 -53.5t-38 -55t-54 -41t-71 -17q-69 0 -127 32l-53 29q-5 3 -17 9.5t-17.5 9.5t-16 7.5t-17.5 7t-16.5 4t-18.5 1.5q-50 0 -84.5 -33t-44.5 -67z" />
    <glyph glyph-name="ograve" unicode="&#xf2;" horiz-adv-x="985" 
d="M0 322q0 119 51 229.5t129.5 186.5t174.5 121.5t186 45.5q77 0 139 -32.5t98.5 -85t56 -112t19.5 -118.5q0 -113 -51 -222.5t-129.5 -187.5t-173.5 -126t-181 -48q-141 0 -230 103.5t-89 245.5zM135 207q0 -101 48.5 -153t129.5 -52q73 0 140.5 52.5t114.5 132t82 171.5
t52 172.5t17 133.5q0 213 -189 213q-86 0 -163 -74t-126 -181t-77.5 -219t-28.5 -196zM688 1130l-272 216q-45 36 -45 67q0 29 18 47.5t51 18.5q26 0 42.5 -14.5t33.5 -41.5l203 -293h-31z" />
    <glyph glyph-name="oacute" unicode="&#xf3;" horiz-adv-x="985" 
d="M0 322q0 119 51 229.5t129.5 186.5t174.5 121.5t186 45.5q77 0 139 -32.5t98.5 -85t56 -112t19.5 -118.5q0 -113 -51 -222.5t-129.5 -187.5t-173.5 -126t-181 -48q-141 0 -230 103.5t-89 245.5zM135 207q0 -101 48.5 -153t129.5 -52q73 0 140.5 52.5t114.5 132t82 171.5
t52 172.5t17 133.5q0 213 -189 213q-86 0 -163 -74t-126 -181t-77.5 -219t-28.5 -196zM539 1130l282 285q31 33 54 48.5t47 15.5q26 0 43.5 -17t17.5 -43q0 -25 -17 -44.5t-71 -51.5l-328 -193h-28z" />
    <glyph glyph-name="ocircumflex" unicode="&#xf4;" horiz-adv-x="985" 
d="M0 322q0 119 51 229.5t129.5 186.5t174.5 121.5t186 45.5q77 0 139 -32.5t98.5 -85t56 -112t19.5 -118.5q0 -113 -51 -222.5t-129.5 -187.5t-173.5 -126t-181 -48q-141 0 -230 103.5t-89 245.5zM135 207q0 -101 48.5 -153t129.5 -52q73 0 140.5 52.5t114.5 132t82 171.5
t52 172.5t17 133.5q0 213 -189 213q-86 0 -163 -74t-126 -181t-77.5 -219t-28.5 -196zM328 1130l329 345h76l180 -345h-28l-207 218l-318 -218h-32z" />
    <glyph glyph-name="otilde" unicode="&#xf5;" horiz-adv-x="985" 
d="M0 322q0 119 51 229.5t129.5 186.5t174.5 121.5t186 45.5q77 0 139 -32.5t98.5 -85t56 -112t19.5 -118.5q0 -113 -51 -222.5t-129.5 -187.5t-173.5 -126t-181 -48q-141 0 -230 103.5t-89 245.5zM135 207q0 -101 48.5 -153t129.5 -52q73 0 140.5 52.5t114.5 132t82 171.5
t52 172.5t17 133.5q0 213 -189 213q-86 0 -163 -74t-126 -181t-77.5 -219t-28.5 -196zM375 1180h-29q13 89 73 145.5t132 56.5q12 0 24 -2t20 -3.5t19.5 -6.5t16.5 -7t17 -8l14 -7l79 -43q61 -23 88 -23q46 0 82 35.5t50 71.5h26q-4 -20 -12 -42.5t-25 -53.5t-38 -55
t-54.5 -41t-71.5 -17q-69 0 -127 32l-53 29q-5 3 -20 11.5t-21.5 11.5t-18 8t-21.5 6.5t-21 1.5q-50 0 -84.5 -33t-44.5 -67z" />
    <glyph glyph-name="odieresis" unicode="&#xf6;" horiz-adv-x="985" 
d="M0 322q0 119 51 229.5t129.5 186.5t174.5 121.5t186 45.5q77 0 139 -32.5t98.5 -85t56 -112t19.5 -118.5q0 -113 -51 -222.5t-129.5 -187.5t-173.5 -126t-181 -48q-141 0 -230 103.5t-89 245.5zM135 207q0 -101 48.5 -153t129.5 -52q73 0 140.5 52.5t114.5 132t82 171.5
t52 172.5t17 133.5q0 213 -189 213q-86 0 -163 -74t-126 -181t-77.5 -219t-28.5 -196zM385 1362q0 40 28 68t68 28t68.5 -28t28.5 -68t-28.5 -68t-68.5 -28t-68 28t-28 68zM762 1362q0 40 28 68t68 28t68 -28t28 -68t-28 -68t-68 -28t-68 28t-28 68z" />
    <glyph glyph-name="divide" unicode="&#xf7;" horiz-adv-x="1214" 
d="M1010 473h-983v37h983v-37zM518 80q-40 0 -68 28t-28 68t28 68t68 28t68 -28t28 -68t-28 -68t-68 -28zM518 903q40 0 68 -28t28 -68t-28 -68t-68 -28t-68 28t-28 68t28 68t68 28z" />
    <glyph glyph-name="oslash" unicode="&#xf8;" horiz-adv-x="985" 
d="M182 57l465 789q-47 31 -117 31q-86 0 -163 -74t-126 -181t-77.5 -219t-28.5 -196q0 -100 47 -150zM668 825l-463 -788q44 -35 108 -35q73 0 140.5 52.5t114.5 132t82 171.5t52 172.5t17 133.5q0 107 -51 161zM78 -123l82 141q-74 44 -117 126.5t-43 177.5
q0 119 51 229.5t129.5 186.5t174.5 121.5t186 45.5q67 0 125 -28l79 137l25 -15l-80 -135q79 -43 121.5 -130t42.5 -177q0 -113 -51 -222.5t-129.5 -187.5t-173.5 -126t-181 -48q-75 0 -135 31l-82 -141z" />
    <glyph glyph-name="ugrave" unicode="&#xf9;" horiz-adv-x="1062" 
d="M86 850l8 29h330l-236 -676q-32 -91 -32 -127q0 -32 16.5 -53t50.5 -21q71 0 161 70t165.5 176t112.5 211l145 420h143l-241 -695q-31 -91 -31 -123q0 -26 14.5 -42.5t42.5 -16.5q42 0 86.5 38t70 76.5t38.5 69.5l24 -10l-9 -18t-13.5 -25t-17 -28t-22.5 -31.5
t-26.5 -29.5t-33 -28t-38 -22t-45 -16t-51.5 -5q-147 0 -147 123q0 53 33 140l-4 4q-33 -45 -69 -85t-84.5 -84.5t-103 -71t-104.5 -26.5q-89 0 -139.5 42.5t-50.5 119.5q0 14 4.5 36t9 35.5t14 42.5t11.5 34l200 567h-182zM727 1130l-272 216q-45 36 -45 67q0 29 18 47.5
t51 18.5q26 0 42.5 -14.5t33.5 -41.5l203 -293h-31z" />
    <glyph glyph-name="uacute" unicode="&#xfa;" horiz-adv-x="1062" 
d="M86 850l8 29h330l-236 -676q-32 -91 -32 -127q0 -32 16.5 -53t50.5 -21q71 0 161 70t165.5 176t112.5 211l145 420h143l-241 -695q-31 -91 -31 -123q0 -26 14.5 -42.5t42.5 -16.5q42 0 86.5 38t70 76.5t38.5 69.5l24 -10l-9 -18t-13.5 -25t-17 -28t-22.5 -31.5
t-26.5 -29.5t-33 -28t-38 -22t-45 -16t-51.5 -5q-147 0 -147 123q0 53 33 140l-4 4q-33 -45 -69 -85t-84.5 -84.5t-103 -71t-104.5 -26.5q-89 0 -139.5 42.5t-50.5 119.5q0 14 4.5 36t9 35.5t14 42.5t11.5 34l200 567h-182zM578 1130l282 285q31 33 54 48.5t47 15.5
q26 0 43.5 -17t17.5 -43q0 -25 -17 -44.5t-71 -51.5l-328 -193h-28z" />
    <glyph glyph-name="ucircumflex" unicode="&#xfb;" horiz-adv-x="1062" 
d="M86 850l8 29h330l-236 -676q-32 -91 -32 -127q0 -32 16.5 -53t50.5 -21q71 0 161 70t165.5 176t112.5 211l145 420h143l-241 -695q-31 -91 -31 -123q0 -26 14.5 -42.5t42.5 -16.5q42 0 86.5 38t70 76.5t38.5 69.5l24 -10l-9 -18t-13.5 -25t-17 -28t-22.5 -31.5
t-26.5 -29.5t-33 -28t-38 -22t-45 -16t-51.5 -5q-147 0 -147 123q0 53 33 140l-4 4q-33 -45 -69 -85t-84.5 -84.5t-103 -71t-104.5 -26.5q-89 0 -139.5 42.5t-50.5 119.5q0 14 4.5 36t9 35.5t14 42.5t11.5 34l200 567h-182zM367 1130l329 345h76l180 -345h-28l-207 218
l-318 -218h-32z" />
    <glyph glyph-name="udieresis" unicode="&#xfc;" horiz-adv-x="1062" 
d="M86 850l8 29h330l-236 -676q-32 -91 -32 -127q0 -32 16.5 -53t50.5 -21q71 0 161 70t165.5 176t112.5 211l145 420h143l-241 -695q-31 -91 -31 -123q0 -26 14.5 -42.5t42.5 -16.5q42 0 86.5 38t70 76.5t38.5 69.5l24 -10l-9 -18t-13.5 -25t-17 -28t-22.5 -31.5
t-26.5 -29.5t-33 -28t-38 -22t-45 -16t-51.5 -5q-147 0 -147 123q0 53 33 140l-4 4q-33 -45 -69 -85t-84.5 -84.5t-103 -71t-104.5 -26.5q-89 0 -139.5 42.5t-50.5 119.5q0 14 4.5 36t9 35.5t14 42.5t11.5 34l200 567h-182zM424 1362q0 40 28 68t68 28t68 -28t28 -68
t-28 -68t-68 -28t-68 28t-28 68zM801 1362q0 40 28 68t68 28t68 -28t28 -68t-28 -68t-68 -28t-68 28t-28 68z" />
    <glyph glyph-name="yacute" unicode="&#xfd;" horiz-adv-x="948" 
d="M33 635l-29 8q7 30 12.5 50t17.5 55.5t27 59t36 48t50 37t64 12.5q62 0 108.5 -33.5t71 -87t36 -109t11.5 -110.5q0 -180 -45 -395h4l314 565q48 87 74 116q51 54 120 54q46 0 67 -22.5t21 -57.5q0 -38 -25 -63t-65 -25q-39 0 -39 37q0 16 11.5 34t11.5 30q0 29 -29 26
q-25 -2 -54 -36t-73 -113l-373 -676l-118 -223q-40 -75 -74.5 -129t-78 -105.5t-92 -78.5t-99.5 -27q-77 0 -126 38.5t-49 102.5q0 88 97 88q27 0 43 -13.5t16 -37.5q0 -23 -10 -47t-10 -51q0 -22 19.5 -37t49.5 -15q57 0 120.5 74.5t115.5 192.5t86.5 277.5t34.5 316.5
q0 512 -95 512q-34 0 -62.5 -26.5t-47 -70t-28.5 -77t-17 -68.5zM520 1130l283 285q32 33 54 48.5t46 15.5q26 0 44 -17t18 -43q0 -25 -17 -44.5t-71 -51.5l-328 -193h-29z" />
    <glyph glyph-name="thorn" unicode="&#xfe;" horiz-adv-x="1099" 
d="M-207 -545l737 2073h-186l8 28h326l-291 -806h4q38 57 107.5 106t156.5 49q145 0 222 -103t77 -257q0 -68 -26 -146t-76.5 -153t-116.5 -136.5t-153.5 -99t-180.5 -37.5q-80 0 -137.5 53.5t-70.5 141.5h-5l-251 -713h174l-9 -28h-464l8 28h147zM369 674l-162 -457
q9 -43 21.5 -77.5t34.5 -67.5t58.5 -51.5t84.5 -18.5q81 0 159 72t130 175.5t84 215.5t32 197q0 97 -37.5 156t-122.5 59q-21 0 -41.5 -4.5t-37.5 -10t-36 -17.5t-32 -20.5t-30.5 -25.5t-26 -26t-24 -28t-20.5 -25.5t-19 -25t-15 -20.5z" />
    <glyph glyph-name="ydieresis" unicode="&#xff;" horiz-adv-x="948" 
d="M33 635l-29 8q7 30 12.5 50t17.5 55.5t27 59t36 48t50 37t64 12.5q62 0 108.5 -33.5t71 -87t36 -109t11.5 -110.5q0 -180 -45 -395h4l314 565q48 87 74 116q51 54 120 54q46 0 67 -22.5t21 -57.5q0 -38 -25 -63t-65 -25q-39 0 -39 37q0 16 11.5 34t11.5 30q0 29 -29 26
q-25 -2 -54 -36t-73 -113l-373 -676l-118 -223q-40 -75 -74.5 -129t-78 -105.5t-92 -78.5t-99.5 -27q-77 0 -126 38.5t-49 102.5q0 88 97 88q27 0 43 -13.5t16 -37.5q0 -23 -10 -47t-10 -51q0 -22 19.5 -37t49.5 -15q57 0 120.5 74.5t115.5 192.5t86.5 277.5t34.5 316.5
q0 512 -95 512q-34 0 -62.5 -26.5t-47 -70t-28.5 -77t-17 -68.5zM346 1362q0 40 28 68t68 28t68.5 -28t28.5 -68t-28.5 -68t-68.5 -28t-68 28t-28 68zM723 1362q0 40 28 68t68 28t68 -28t28 -68t-28 -68t-68 -28t-68 28t-28 68z" />
    <glyph glyph-name="dotlessi" unicode="&#x131;" 
d="M66 250l210 600h-182l8 29h326l-242 -695q-30 -88 -30 -123q0 -26 14.5 -42.5t42.5 -16.5q31 0 65 21.5t59.5 53.5t43.5 60t27 49l24 -10l-9 -18t-13.5 -25t-17 -28t-22.5 -31.5t-26.5 -29.5t-33 -28t-38 -22t-45 -16t-51.5 -5q-147 0 -147 123q0 50 37 154z" />
    <glyph glyph-name="Lslash" unicode="&#x141;" horiz-adv-x="1290" 
d="M41 29l235 655l-276 -129l14 41l277 127l252 707h-236l8 28h635l-8 -28h-215l-217 -605l401 187l-14 -41l-401 -187l-271 -755h480q44 0 89 17t80 41t72.5 63t61.5 68.5t52 73t38.5 61.5t27.5 48h29l-143 -401h-1192l8 29h213z" />
    <glyph glyph-name="lslash" unicode="&#x142;" 
d="M348 1556h326l-234 -657l219 100l-14 -38l-219 -101l-240 -676q-30 -88 -30 -123q0 -26 14.5 -42.5t42.5 -16.5q31 0 65 21.5t59.5 53.5t43.5 60t27 49l24 -10l-9 -18t-13.5 -25t-17 -28t-22.5 -31.5t-26.5 -29.5t-33 -28t-38 -22t-45 -16t-51.5 -5q-147 0 -147 123
q0 50 37 154l190 532l-221 -102l14 39l221 102l252 707h-182z" />
    <glyph glyph-name="OE" unicode="&#x152;" horiz-adv-x="2123" 
d="M981 29h416q64 0 124 27t103.5 65.5t83.5 90.5t64 91.5t45 78.5q7 13 10 19h28l-143 -401h-797q-71 0 -124 -4q-110 -8 -125 -8q-249 0 -388 154t-139 405q0 97 29.5 203t83 208.5t133 195t174 163t213.5 112t244 41.5q131 0 219 -8q44 -4 184 -4h731l-122 -348h-29
q20 82 20 158q0 162 -153 162h-381l-230 -633h181q35 0 66.5 9.5t58 29.5t47 38.5t41.5 48.5t31.5 46.5t26.5 45.5t19 34h25l-203 -570h-26q18 65 18 127q0 162 -168 162h-125zM797 33l499 1384q-39 10 -109 17.5t-114 7.5q-213 0 -354 -113q-96 -77 -178 -208.5t-132 -269
t-78 -264t-28 -212.5q0 -101 26.5 -172t76.5 -111.5t113.5 -58t146.5 -17.5q61 0 131 17z" />
    <glyph glyph-name="oe" unicode="&#x153;" horiz-adv-x="1554" 
d="M1337 215l25 -14q-2 -2 -16.5 -24t-27.5 -38.5t-36.5 -43t-50.5 -45.5t-61 -38t-77.5 -29t-91.5 -10q-57 0 -106 14.5t-80.5 35t-56.5 48t-37 49t-19 42.5q-65 -72 -165 -130.5t-203 -58.5q-141 0 -230.5 103.5t-89.5 245.5q0 119 51 229.5t129.5 186.5t174.5 121.5
t186 45.5q64 0 115 -19.5t84.5 -55t54.5 -70.5t39 -80q30 33 51.5 54.5t65.5 57.5t83.5 57.5t95 38.5t111.5 17q92 0 161 -39.5t69 -113.5q0 -62 -42.5 -112.5t-102.5 -79.5t-131 -48.5t-122.5 -26t-82.5 -6.5q-81 0 -125 8q-54 -160 -54 -266q0 -107 56 -163t147 -56
q31 0 61 7.5t53.5 17.5t48.5 28.5t40.5 32t35.5 36.5t28.5 34t24 32.5t17.5 24.5zM150 207q0 -101 48.5 -153t129.5 -52q73 0 140.5 52.5t114 132t81.5 171.5t52 172.5t17 133.5q0 213 -188 213q-86 0 -163 -74t-126 -181t-77.5 -219t-28.5 -196zM1358 778q0 43 -26.5 71
t-80.5 28q-62 0 -122.5 -36t-106.5 -92.5t-79.5 -116t-53.5 -116.5q70 -8 104 -8q146 0 255.5 81.5t109.5 188.5z" />
    <glyph glyph-name="Scaron" unicode="&#x160;" horiz-adv-x="1214" 
d="M-100 -4l145 407h27q-27 -79 -27 -120q0 -89 56.5 -155t139.5 -97t175 -31q178 0 280.5 95.5t102.5 246.5q0 72 -31.5 130.5t-95.5 117.5l-146 133q-106 96 -158.5 182.5t-52.5 190.5q0 112 67 202.5t173.5 138.5t228.5 48q72 0 138 -18.5t117 -37t87 -18.5q52 0 74 53
l31 -6l-141 -391h-25q18 69 18 121q0 72 -24 125.5t-66 83.5t-94 44.5t-115 14.5q-148 0 -240.5 -75t-92.5 -193q0 -79 41.5 -142t117.5 -131l183 -163q178 -160 178 -330q0 -79 -36.5 -157.5t-104.5 -144.5t-179.5 -107.5t-247.5 -41.5q-85 0 -161.5 21t-135 42t-100.5 21
q-29 0 -51 -19t-27 -46zM670 1925h28l207 -217l318 217h34l-329 -344h-78z" />
    <glyph glyph-name="scaron" unicode="&#x161;" horiz-adv-x="720" 
d="M315 319l-102 136q-24 30 -31.5 41t-23.5 37t-21.5 49t-5.5 49q0 101 95 187.5t231 86.5q85 0 137.5 -38t52.5 -97q0 -41 -22 -63.5t-62 -22.5q-30 0 -50.5 17t-20.5 47q0 20 13 41.5t13 33.5q0 54 -69 54q-92 0 -141.5 -50.5t-49.5 -119.5q0 -37 18 -71t60 -91l121 -158
q43 -53 43 -133q0 -53 -22.5 -99.5t-59.5 -79t-83 -56t-93 -35t-90 -11.5q-99 0 -171.5 43.5t-72.5 116.5q0 45 29 69.5t77 24.5q19 0 34 -13.5t15 -31.5q0 -16 -10 -46t-10 -46q0 -88 115 -88q95 0 155 53.5t60 116.5q0 72 -58 147zM289 1475h28l207 -218l318 218h35
l-330 -345h-78z" />
    <glyph glyph-name="Ydieresis" unicode="&#x178;" horiz-adv-x="1327" 
d="M115 29h229l225 633l-145 768h-223l8 28h631l-9 -28h-227l133 -703l625 703h-201l8 28h402l-8 -28h-160l-651 -736l-240 -665h236l-9 -29h-633zM729 1772q0 40 28 68t68 28t68.5 -28t28.5 -68t-28.5 -68.5t-68.5 -28.5t-68 28.5t-28 68.5zM1106 1772q0 40 28 68t68 28
t68 -28t28 -68t-28 -68.5t-68 -28.5t-68 28.5t-28 68.5z" />
    <glyph glyph-name="Zcaron" unicode="&#x17d;" horiz-adv-x="1327" 
d="M-102 0l1237 1430h-437q-219 0 -417 -371h-29l141 399h981l-1237 -1429h559q208 0 416 372h29l-146 -401h-1097zM649 1925h29l207 -217l317 217h35l-330 -344h-78z" />
    <glyph glyph-name="zcaron" unicode="&#x17e;" horiz-adv-x="948" 
d="M-53 -8l663 745q-374 13 -387 13q-33 0 -50.5 -13t-25.5 -41l-10 -39l-28 7q9 26 27.5 101.5t23.5 88.5q7 17 16.5 25t32.5 8q40 0 255.5 -8.5t248.5 -8.5q29 0 53 29l20 -16l-634 -707q75 0 161.5 -16t151.5 -49l100 -50q65 -30 113 -30q29 0 45 16t16 41q0 17 -7.5 28
t-29.5 31q-42 31 -54 52q-13 23 -13 49q0 34 25 51.5t57 17.5q92 0 92 -116q0 -118 -69.5 -173t-180.5 -55q-44 0 -180 33l-98 25q-71 18 -156 18q-88 0 -154 -76zM281 1475h28l207 -218l318 218h34l-329 -345h-78z" />
    <glyph glyph-name="florin" unicode="&#x192;" horiz-adv-x="1138" 
d="M195 713h270l86 221q59 150 147.5 275t193.5 200.5t202 75.5q100 0 154.5 -45t54.5 -131q0 -121 -97 -121q-36 0 -57 17.5t-21 47.5q0 26 30 69t30 73q0 61 -90 61q-59 0 -107 -31.5t-102 -116.5t-111 -231l-143 -364h260l-8 -29h-264l-148 -401q-34 -93 -72 -182.5
t-87 -190.5t-102.5 -184.5t-111 -153t-121 -108.5t-124.5 -39q-91 0 -131.5 43t-40.5 98q0 96 86 96q34 0 51.5 -15.5t17.5 -41.5q0 -29 -25.5 -57t-25.5 -52q0 -21 18.5 -32t49.5 -11q74 0 140.5 83t121.5 231l334 917h-267z" />
    <glyph glyph-name="circumflex" unicode="&#x2c6;" 
d="M119 1130l330 345h75l181 -345h-29l-207 218l-317 -218h-33z" />
    <glyph glyph-name="caron" unicode="&#x2c7;" 
d="M213 1475h29l207 -218l317 218h35l-330 -345h-78z" />
    <glyph glyph-name="uni02C9" unicode="&#x2c9;" 
d="M190 1294h576l-25 -61h-575z" />
    <glyph glyph-name="breve" unicode="&#x2d8;" 
d="M154 1460h28q1 -35 14 -69.5t39 -66.5t73 -51.5t108 -19.5q202 0 291 207h28q-10 -35 -16.5 -56.5t-22 -61t-31.5 -65t-42.5 -57t-57 -50t-73.5 -31.5t-93 -13q-65 0 -112.5 26t-72 61.5t-39 86t-18 86t-3.5 74.5z" />
    <glyph glyph-name="dotaccent" unicode="&#x2d9;" 
d="M408 1362q0 40 28 68t68 28t68 -28t28 -68t-28 -68t-68 -28t-68 28t-28 68z" />
    <glyph glyph-name="ring" unicode="&#x2da;" 
d="M674 1380q0 -86 -70.5 -160.5t-150.5 -74.5q-64 0 -100 44t-36 101q0 83 74 156.5t154 73.5q55 0 92 -39.5t37 -100.5zM604 1405q0 92 -72 92q-55 0 -100 -77.5t-45 -149.5q0 -49 15 -76t53 -27q57 0 103 80.5t46 157.5z" />
    <glyph glyph-name="ogonek" unicode="&#x2db;" 
d="M281 0h45q-105 -75 -162.5 -135t-57.5 -115q0 -46 29 -75t74 -29q23 0 46 8t28.5 11.5t23.5 15.5l15 -25q-2 -1 -24 -16t-38 -23.5t-49 -17.5t-70 -9q-83 0 -130.5 39t-47.5 99q0 106 180 198z" />
    <glyph glyph-name="tilde" unicode="&#x2dc;" 
d="M166 1180h-29q13 89 73 145.5t132 56.5q12 0 24 -2t20 -3.5t19.5 -6.5t16.5 -7t17 -8l14 -7l79 -43q61 -23 89 -23q45 0 81 35.5t50 71.5h26q-5 -20 -12.5 -42.5t-24.5 -53.5t-38 -55t-54 -41t-71 -17q-69 0 -127 32l-54 29q-5 3 -20 11.5t-21.5 11.5t-18 8t-21.5 6.5
t-21 1.5q-50 0 -84.5 -33t-44.5 -67z" />
    <glyph glyph-name="hungarumlaut" unicode="&#x2dd;" 
d="M137 1130l283 285q32 33 54 48.5t46 15.5q26 0 44 -17t18 -43q0 -25 -17 -44.5t-71 -51.5l-328 -193h-29zM522 1130l283 285q32 33 54 48.5t46 15.5q26 0 44 -17t18 -43q0 -25 -17 -44.5t-71 -51.5l-328 -193h-29z" />
    <glyph glyph-name="uni03A9" unicode="&#x3a9;" horiz-adv-x="1290" 
d="M1135 250l-95 -250h-405l-4 31q14 20 66 90t81.5 111.5t79 119t80.5 138.5t62 141t47 155q30 160 24 274t-47.5 186.5t-99.5 106t-131 33.5q-79 0 -153.5 -35t-143 -106.5t-124.5 -191t-89 -277.5q-17 -83 -19.5 -169t5 -156t25.5 -146.5t34.5 -130t37.5 -117.5l3 -9
t3 -8t3 -9l-19 -31h-401l16 250l37 4q6 -98 28 -128t75 -30h196q-229 332 -153 692q41 195 142 344.5t234 227.5t277 78q223 0 329 -171t44 -464q-73 -337 -453 -707h197q60 0 89.5 26.5t80.5 131.5z" />
    <glyph glyph-name="uni03BC" unicode="&#x3bc;" horiz-adv-x="1062" 
d="M86 850l8 29h330l-236 -676q-32 -91 -32 -127q0 -32 16.5 -53t50.5 -21q71 0 161 70t165.5 176t112.5 211l145 420h143l-241 -695q-31 -91 -31 -123q0 -26 14.5 -42.5t42.5 -16.5q42 0 86.5 38t70 76.5t38.5 69.5l24 -10l-9 -18t-13.5 -25t-17 -28t-22.5 -31.5
t-26.5 -29.5t-33 -28t-38 -22t-45 -16t-51.5 -5q-147 0 -147 123q0 53 33 140l-4 4q-33 -45 -69 -85t-84.5 -84.5t-103 -71t-104.5 -26.5q-77 0 -98 66l-211 -612h-133l491 1423h-182z" />
    <glyph glyph-name="pi" unicode="&#x3c0;" horiz-adv-x="1019" 
d="M979 952l37 -18q-15 -33 -33.5 -62.5t-27.5 -40.5t-31 -38q-38 -7 -138 -7q-13 -43 -30.5 -117t-30.5 -134.5t-31.5 -151.5t-25.5 -123q-23 -88 -13 -140t60 -52q29 0 54 15.5t60 53.5l19 -33q-94 -129 -205 -129q-36 0 -59.5 11.5t-38 39.5t-14.5 78.5t16 124.5
q50 228 141 562q-115 4 -311 4l-10 -47q-35 -163 -81 -305.5t-87 -229.5t-70 -137t-45 -66q-65 -29 -107 -35l-2 29q64 64 122 166.5t100 218t71 216t49 194.5q-48 0 -85 -6t-72.5 -24t-50.5 -28t-56 -39l-18 33q2 2 18.5 17.5t22 20.5t24 20.5t28 22t30 20t35.5 19.5
t37.5 15.5t43.5 13.5t46.5 7.5t52.5 3.5q59 0 219 -4t260 -4q46 0 70 12t57 53z" />
    <glyph glyph-name="endash" unicode="&#x2013;" horiz-adv-x="1024" 
d="M-55 430l8 29h1024l-8 -29h-1024z" />
    <glyph glyph-name="emdash" unicode="&#x2014;" horiz-adv-x="2048" 
d="M211 430l8 29h1516l-9 -29h-1515z" />
    <glyph glyph-name="quoteleft" unicode="&#x2018;" 
d="M618 1556l9 -26q-27 -10 -56.5 -26t-66.5 -43.5t-60.5 -67.5t-23.5 -84q0 -47 10 -70q3 1 10.5 4.5t12.5 5.5q20 4 36 4q36 0 58 -25.5t22 -58.5q0 -51 -27.5 -79.5t-80.5 -28.5q-61 0 -98 42.5t-37 108.5q0 67 26 125t61 93.5t81 65t73.5 41.5t50.5 19z" />
    <glyph glyph-name="quoteright" unicode="&#x2019;" 
d="M334 1061l-8 26q26 10 56 26.5t66.5 43.5t60 67.5t23.5 84.5q0 46 -10 69q-3 -1 -10 -4.5t-12 -5.5q-20 -4 -37 -4q-36 0 -58 25.5t-22 58.5q0 50 28 79t81 29q61 0 98 -42.5t37 -108.5q0 -67 -26.5 -125t-61.5 -93.5t-81 -65t-73.5 -41.5t-50.5 -19z" />
    <glyph glyph-name="quotesinglbase" unicode="&#x201a;" 
d="M-8 -330l-8 27q27 10 56.5 26t66 43.5t60 67.5t23.5 84q0 47 -10 70q-3 -1 -10 -5t-12 -6q-20 -4 -37 -4q-36 0 -58 25.5t-22 58.5q0 51 28 80t81 29q61 0 98 -43t37 -109q0 -67 -26.5 -125t-61.5 -93.5t-81 -65t-73.5 -41.5t-50.5 -19z" />
    <glyph glyph-name="quotedblleft" unicode="&#x201c;" horiz-adv-x="909" 
d="M975 1556l8 -26q-27 -10 -56.5 -26t-66.5 -43.5t-60.5 -67.5t-23.5 -84q0 -47 10 -70q3 1 10.5 4.5t12.5 5.5q20 4 37 4q36 0 58 -25.5t22 -58.5q0 -50 -28 -79t-81 -29q-61 0 -98 42.5t-37 108.5q0 67 26.5 125t61.5 93.5t81 65t73.5 41.5t50.5 19zM653 1556l9 -26
q-27 -10 -56.5 -26t-66.5 -43.5t-60.5 -67.5t-23.5 -84q0 -47 10 -70q3 1 10 4.5t12 5.5q20 4 37 4q36 0 58 -25.5t22 -58.5q0 -51 -27.5 -79.5t-80.5 -28.5q-61 0 -98.5 43t-37.5 108q0 67 26.5 125t61.5 93.5t81 65t73.5 41.5t50.5 19z" />
    <glyph glyph-name="quotedblright" unicode="&#x201d;" horiz-adv-x="909" 
d="M690 1061l-8 26q20 7 43 18.5t53.5 32t54 44t40 57.5t16.5 70q0 46 -10 69q-3 -1 -10.5 -4.5t-12.5 -5.5q-20 -4 -37 -4q-36 0 -58 25.5t-22 58.5q0 50 28 79t81 29q61 0 98 -42.5t37 -108.5q0 -67 -26.5 -125t-61.5 -93.5t-81 -65t-73.5 -41.5t-50.5 -19zM369 1061
l-9 26q20 7 43 18.5t53.5 32t54 44t40 57.5t16.5 70q0 46 -10 69q-3 -1 -10 -4.5t-12 -5.5q-20 -4 -37 -4q-36 0 -58 25.5t-22 58.5q0 51 27.5 79.5t80.5 28.5q61 0 98.5 -43t37.5 -108q0 -67 -26.5 -125t-61.5 -93.5t-81 -65t-73.5 -41.5t-50.5 -19z" />
    <glyph glyph-name="quotedblbase" unicode="&#x201e;" horiz-adv-x="909" 
d="M317 -330l-8 27q27 10 56.5 26t66.5 43.5t60.5 67.5t23.5 84q0 47 -10 70q-3 -1 -10.5 -5t-12.5 -6q-20 -4 -37 -4q-36 0 -57.5 25.5t-21.5 58.5q0 51 27.5 80t80.5 29q61 0 98 -43t37 -109q0 -67 -26.5 -125t-61.5 -93.5t-81 -65t-73.5 -41.5t-50.5 -19zM-4 -330l-8 27
q27 10 56.5 26t66.5 43.5t60.5 67.5t23.5 84t-11 70q-3 -1 -10 -5t-12 -6q-20 -4 -37 -4q-36 0 -58 25.5t-22 58.5q0 51 28 80t81 29q61 0 98 -43t37 -109q0 -67 -26.5 -125t-61.5 -93.5t-81 -65t-73.5 -41.5t-50.5 -19z" />
    <glyph glyph-name="dagger" unicode="&#x2020;" horiz-adv-x="1062" 
d="M184 -573l160 587q49 175 49 285q0 35 -9 61.5t-19.5 40t-32.5 35.5q62 26 108.5 93t73.5 153l49 156l23 82h-64q-107 0 -188 -35q-6 -3 -23.5 -12.5t-25 -13t-22.5 -7.5t-30 -4q-39 0 -62.5 26t-23.5 62q0 39 24 65.5t65 26.5q22 0 36.5 -5t34 -17.5t27.5 -16.5
q76 -41 219 -41h41l22 82q37 131 33 236q-1 31 -6.5 73.5t-5.5 57.5q0 46 26.5 67t67.5 21q33 0 59.5 -18t26.5 -52q0 -11 -1 -20t-4 -18l-5 -15t-8.5 -16t-9 -14t-12 -17.5t-13.5 -18.5q-71 -107 -119 -270l-22 -78h57q135 0 215 41q11 5 31.5 17t35 17t33.5 5
q39 0 62.5 -24.5t23.5 -63.5t-23.5 -65.5t-62.5 -26.5q-20 0 -33.5 4t-35 16.5t-29.5 16.5q-81 35 -209 35h-74l-20 -80q-43 -165 -43 -267q0 -54 15 -82.5t46 -54.5q-56 -35 -82 -62q-79 -82 -129 -263l-188 -684h-29z" />
    <glyph glyph-name="daggerdbl" unicode="&#x2021;" horiz-adv-x="1062" 
d="M614 920l-20 -80q-43 -165 -43 -267q0 -54 15 -82.5t46 -54.5q-62 -26 -108.5 -93t-73.5 -153l-49 -155l-23 -82h64q107 0 188 35q6 3 23.5 12.5t25 13t22.5 7.5t30 4q39 0 62.5 -26t23.5 -62q0 -39 -23.5 -66t-64.5 -27q-22 0 -37 5t-34.5 17.5t-27.5 16.5
q-76 41 -219 41h-41l-22 -65q-37 -131 -33 -236q1 -31 6.5 -73.5t5.5 -57.5q0 -46 -26.5 -67t-67.5 -21q-33 0 -59.5 18t-26.5 52q0 13 2 24t4 18t9 19t9.5 16t13.5 20t15 21q70 107 119 271l23 61h-58q-135 0 -215 -41q-11 -5 -31.5 -17t-35 -17t-33.5 -5q-39 0 -62.5 24.5
t-23.5 63.5t23.5 66t62.5 27q20 0 33.5 -4t35 -16.5t29.5 -16.5q81 -35 209 -35h74l20 80q43 165 43 266q0 54 -15 82.5t-46 54.5q62 26 108.5 93t73.5 153l49 156l23 82h-64q-107 0 -188 -35q-6 -3 -23.5 -12.5t-25 -13t-22.5 -7.5t-30 -4q-39 0 -62.5 26t-23.5 62
q0 39 24 65.5t65 26.5q22 0 36.5 -5t34 -17.5t27.5 -16.5q76 -41 219 -41h41l22 82q37 131 33 236q-1 31 -6.5 73.5t-5.5 57.5q0 46 26.5 67t67.5 21q33 0 59.5 -18t26.5 -52q0 -11 -1 -20t-4 -18l-5 -15t-8.5 -16t-9 -14t-12 -17.5t-13.5 -18.5q-71 -107 -119 -270l-22 -78
h57q135 0 215 41q11 5 31.5 17t35 17t33.5 5q39 0 62.5 -24.5t23.5 -63.5t-23.5 -65.5t-62.5 -26.5q-20 0 -33.5 4t-35 16.5t-29.5 16.5q-81 35 -209 35h-74z" />
    <glyph glyph-name="bullet" unicode="&#x2022;" horiz-adv-x="1024" 
d="M147 729q0 151 107 258t258 107t258 -107t107 -258t-107 -257.5t-258 -106.5t-258 106.5t-107 257.5z" />
    <glyph glyph-name="ellipsis" unicode="&#x2026;" horiz-adv-x="2048" 
d="M246 70q0 40 28 68t68 28t68 -28t28 -68t-28 -68.5t-68 -28.5t-68 28.5t-28 68.5zM928 70q0 40 28 68t68 28t68 -28t28 -68t-28 -68.5t-68 -28.5t-68 28.5t-28 68.5zM1610 70q0 40 28 68t68 28t68 -28t28 -68t-28 -68.5t-68 -28.5t-68 28.5t-28 68.5z" />
    <glyph glyph-name="perthousand" unicode="&#x2030;" horiz-adv-x="2048" 
d="M1311 225q0 45 15 100.5t47.5 114.5t77 108t110 80t139.5 31q115 0 181.5 -71t66.5 -176q0 -73 -27.5 -149.5t-76.5 -142t-126.5 -107.5t-167.5 -42q-106 0 -172.5 66t-66.5 188zM205 0l887 1481l34 -23l-886 -1483zM1425 160q0 -71 33.5 -115.5t104.5 -44.5
q64 0 115.5 45.5t79 108t46 135t24 119.5t5.5 69q0 154 -141 154q-70 0 -124 -47.5t-84 -121.5t-44.5 -151.5t-14.5 -150.5zM215 942q0 -72 33 -116t104 -44q64 0 115.5 45.5t79.5 108t46.5 135.5t24 120t5.5 69q0 153 -142 153q-70 0 -124 -47.5t-83.5 -121.5t-44 -151.5
t-14.5 -150.5zM100 1008q0 45 15 100.5t47.5 114.5t77 108t110 80t139.5 31q66 0 116 -21.5t77.5 -57.5t41 -78.5t13.5 -90.5q0 -73 -27.5 -149.5t-76 -141.5t-126 -107t-167.5 -42q-114 0 -177 65t-63 189zM590 225q0 45 15 100.5t47.5 114.5t77 108t110 80t139.5 31
q115 0 181.5 -71t66.5 -176q0 -73 -27.5 -149.5t-76.5 -142t-126.5 -107.5t-167.5 -42q-106 0 -172.5 66t-66.5 188zM705 160q0 -72 33 -116t104 -44q64 0 115.5 45.5t79 108t46 135t24 119.5t5.5 69q0 154 -141 154q-70 0 -124 -47.5t-83.5 -121.5t-44 -151.5t-14.5 -150.5
z" />
    <glyph glyph-name="guilsinglleft" unicode="&#x2039;" 
d="M410 735v-28q-108 -8 -185.5 -97t-77.5 -239q0 -42 14.5 -77t37.5 -56.5t39.5 -32.5t33.5 -19l-12 -28q-16 5 -33.5 12t-53.5 30t-63 50.5t-48 75.5t-21 104q0 60 24 110t62 83.5t87.5 58t98.5 37t97 16.5z" />
    <glyph glyph-name="guilsinglright" unicode="&#x203a;" 
d="M-29 158v28q108 8 185 97t77 239q0 42 -14 77t-37 56.5t-39.5 32.5t-33.5 19l12 28q16 -5 33.5 -12t53.5 -30t63 -50.5t48 -75.5t21 -104q0 -60 -24 -110t-62 -83.5t-87.5 -58t-98.5 -37t-97 -16.5z" />
    <glyph glyph-name="fraction" unicode="&#x2044;" horiz-adv-x="303" 
d="M-338 -20l885 1478l37 -20l-885 -1479z" />
    <glyph glyph-name="Euro" unicode="&#x20ac;" horiz-adv-x="987" 
d="M1096 1415l-125 -334h-31q0 5 1 15.5t1 15.5q2 18 2 57t-10 91q-9 45 -31 79q-12 22 -43 45q-47 29 -96 29q-119 0 -221 -127q-60 -74 -112.5 -179t-86.5 -206h530l-12 -29h-526q-21 -60 -41 -137q-13 -50 -27 -119h500l-8 -28h-498q-29 -156 -29 -262q0 -26 2 -58.5
t15.5 -96.5t38.5 -99q54 -72 143 -72q100 0 182 76q66 57 123 170l27 -15q-3 -5 -8 -16t-8 -16q-43 -81 -101 -136q-51 -48 -110 -71q-53 -21 -113 -21q-117 0 -199 92q-123 137 -123 447q0 35 2 51q0 4 1 13.5t1 13.5h-135l11 28h127q16 138 59 256h-119l10 29h119
q8 23 35 84q36 74 76 133q82 119 220.5 221.5t262.5 102.5q38 0 72 -12q22 -8 71 -39q4 -2 12.5 -7.5t12.5 -7.5q24 -12 41 -12q23 0 39 8q25 12 45 49z" />
    <glyph glyph-name="afii61289" unicode="&#x2113;" horiz-adv-x="724" 
d="M553 195l27 -25q-136 -195 -322 -195q-120 0 -158 80q-22 42 -22 107.5t24 183.5l43 195l-131 -95l-14 39l158 119l51 248q60 276 101 385.5t116 181.5q76 82 154 82q71 0 95.5 -75.5t-1.5 -184.5q-65 -309 -404 -616l-47 -226q-21 -99 -23.5 -166.5t13.5 -105t43 -53
t68 -15.5q113 0 229 136zM346 979l-59 -277q114 117 200 265t113 278q20 89 7 146t-58 57q-55 0 -102 -108.5t-101 -360.5z" />
    <glyph glyph-name="trademark" unicode="&#x2122;" horiz-adv-x="2009" 
d="M813 659h-350v23h115v754h-62q-15 0 -25 -0.5t-28.5 -4.5t-32.5 -11t-32 -21t-32.5 -33.5t-28.5 -50t-24 -68.5h-18v211h684v-211h-18q-14 53 -35 90.5t-41 56t-46.5 29t-42.5 12t-38 1.5h-62v-754h117v-23zM1040 682h117v754h-117v22h250l205 -592l205 592h244v-22h-117
v-754h117v-23h-351v23h115v727l-264 -760l-262 754v-721h116v-23h-258v23z" />
    <glyph glyph-name="Omega" unicode="&#x2126;" horiz-adv-x="1290" 
d="M1135 250l-95 -250h-405l-4 31q14 20 66 90t81.5 111.5t79 119t80.5 138.5t62 141t47 155q30 160 24 274t-47.5 186.5t-99.5 106t-131 33.5q-79 0 -153.5 -35t-143 -106.5t-124.5 -191t-89 -277.5q-17 -83 -19.5 -169t5 -156t25.5 -146.5t34.5 -130t37.5 -117.5l3 -9
t3 -8t3 -9l-19 -31h-401l16 250l37 4q6 -98 28 -128t75 -30h196q-229 332 -153 692q41 195 142 344.5t234 227.5t277 78q223 0 329 -171t44 -464q-73 -337 -453 -707h197q60 0 89.5 26.5t80.5 131.5z" />
    <glyph glyph-name="estimated" unicode="&#x212e;" horiz-adv-x="1929" 
d="M1860 684h-1321q-11 0 -11 -8v-400q0 -25 17 -45q99 -102 227.5 -159.5t271.5 -57.5q155 0 291.5 64.5t235.5 177.5h117q-111 -130 -282 -206.5t-364 -76.5q-222 0 -409.5 98.5t-296.5 267t-109 366.5q0 200 109 368.5t296.5 266.5t409.5 98q167 0 318.5 -58t261 -156
t174 -233.5t64.5 -285.5v-21zM1559 737v402q0 28 -19 47q-100 98 -227.5 153.5t-268.5 55.5t-269.5 -57t-227.5 -158q-19 -19 -19 -50v-393q0 -3 3.5 -7.5t7.5 -4.5h1011q9 0 9 12z" />
    <glyph glyph-name="partialdiff" unicode="&#x2202;" horiz-adv-x="937" 
d="M508 862h2q71 0 132.5 -36.5t90.5 -108.5q43 142 58 213q38 162 20 330q-12 88 -68.5 158.5t-142.5 70.5q-122 0 -256 -96q-22 -5 -32 29t7 63q130 80 261 80q120 0 191.5 -73t105.5 -214q48 -189 -15 -467q-25 -124 -75.5 -268t-118.5 -254q-193 -314 -416 -314
q-146 0 -209.5 108t-24.5 300q39 184 172 328q63 65 150 108t168 43zM522 795h-2q-127 0 -241 -123q-110 -136 -158 -350q-13 -75 -6 -140.5t45 -110t98 -44.5q75 0 145 61.5t127 155.5q57 89 94.5 175.5t80.5 217.5q-11 55 -61 106.5t-122 51.5z" />
    <glyph glyph-name="Delta" unicode="&#x2206;" horiz-adv-x="1124" 
d="M913 0h-993l6 35l760 1384l55 19l179 -1403zM786 74l-141 1153l-627 -1153h768z" />
    <glyph glyph-name="product" unicode="&#x220f;" horiz-adv-x="1355" 
d="M1305 1413v-43q-42 -3 -66.5 -5.5t-45 -8.5t-29.5 -12t-15 -20t-7 -28t-1 -41v-1259q0 -83 25.5 -105.5t133.5 -29.5v-41h-426v41q42 3 63 5t42 8t29 13t15 23.5t8 34.5t1 51v1304q0 38 -12 49t-51 11h-426q-41 0 -52.5 -9t-11.5 -44v-1311q0 -33 0.5 -47.5t5.5 -32.5
t12.5 -24t25.5 -13.5t40.5 -10.5t61.5 -7v-41h-412v41q107 9 131.5 29.5t24.5 105.5v1259q0 39 -3 56.5t-21 31.5t-46.5 18t-91.5 9v43h1098z" />
    <glyph glyph-name="summation" unicode="&#x2211;" horiz-adv-x="1138" 
d="M1096 143l-74 -323h-813v35l422 747l-412 774v37h805q0 -16 3 -60.5t8.5 -115.5t8.5 -115l-43 -8q-17 112 -53 186q-18 35 -54 47.5t-138 12.5h-389l368 -684l-418 -750h486q44 0 67.5 1.5t49 10t38.5 21t30.5 41t30.5 63t32 93.5z" />
    <glyph glyph-name="minus" unicode="&#x2212;" horiz-adv-x="1214" 
d="M27 473v37h983v-37h-983z" />
    <glyph glyph-name="uni2215" unicode="&#x2215;" horiz-adv-x="303" 
d="M-338 -20l885 1478l37 -20l-885 -1479z" />
    <glyph glyph-name="uni2219" unicode="&#x2219;" 
d="M111 526q0 40 28 68.5t68 28.5t68 -28.5t28 -68.5t-28 -68t-68 -28t-68 28t-28 68z" />
    <glyph glyph-name="radical" unicode="&#x221a;" horiz-adv-x="1157" 
d="M1118 1833l-295 -2114l-28 -18l-404 1120l-160 -76l-16 56l256 121l328 -934h4l252 1863z" />
    <glyph glyph-name="infinity" unicode="&#x221e;" horiz-adv-x="1441" 
d="M1354 592v-2q0 -126 -81.5 -206.5t-193.5 -80.5q-83 0 -157.5 51t-178.5 168q-46 -52 -75.5 -82t-75 -66.5t-93 -53.5t-100.5 -17q-113 0 -191.5 81.5t-78.5 199.5q0 123 79 203.5t202 80.5q94 0 173 -57.5t167 -161.5q91 102 133 136q99 83 209 83q118 0 190 -76.5
t72 -199.5zM410 383h2q25 0 48.5 6t47.5 20t41.5 25.5t42.5 35.5t36 35.5t37.5 40.5t32.5 36q-27 33 -32 38.5t-30 35.5t-35 38t-33.5 30t-39 29.5t-39 19.5t-46 16t-46.5 4q-84 0 -134 -62t-48 -149q0 -85 54.5 -142t140.5 -57zM1083 793h-2q-35 0 -69.5 -13.5t-68.5 -41.5
t-55 -48t-54.5 -57t-40.5 -45q107 -116 165 -160.5t127 -44.5q83 0 134 61t51 140q0 97 -52.5 153t-134.5 56z" />
    <glyph glyph-name="integral" unicode="&#x222b;" horiz-adv-x="829" 
d="M463 51l-37 864q-8 146 -2 259.5t15.5 198.5t30.5 146t43 100t53 62t60.5 32t65.5 9q35 0 65 -20t31 -55q0 -30 -19 -47t-46 -17q-29 0 -51 33t-45 33q-15 0 -29 -9t-28.5 -33.5t-25 -62.5t-15 -102t-1.5 -146l35 -798q4 -142 4.5 -254.5t-10 -200t-22.5 -152.5t-33 -111
t-42 -75.5t-48.5 -46t-53 -23t-55.5 -6.5q-44 0 -71 23t-27 55q-1 31 21 50.5t57 19.5q24 0 46.5 -34t43.5 -34q46 0 71.5 94t18.5 248z" />
    <glyph glyph-name="approxequal" unicode="&#x2248;" horiz-adv-x="1019" 
d="M887 838l53 -43q-79 -177 -227 -177q-48 0 -90 17t-115 59q-104 64 -166 64q-57 0 -97 -36.5t-77 -103.5l-59 44q40 83 103.5 129.5t139.5 46.5q25 0 48.5 -4.5t48 -15t37.5 -17t38 -22t29 -17.5q3 -2 21.5 -12.5t22 -12.5t19 -10.5t21 -10t18.5 -7t21.5 -7t20 -3
t22.5 -1.5q52 0 90.5 34t77.5 106zM887 537l53 -43q-79 -177 -227 -177q-33 0 -68 11t-59.5 23t-77.5 42q-104 64 -166 64q-57 0 -97 -37t-77 -103l-59 41q40 84 103.5 131.5t139.5 47.5q26 0 50 -4.5t47.5 -15t37 -17.5t37.5 -21.5t29 -17.5q4 -2 27.5 -15.5t29 -16.5
t24.5 -12t29 -11.5t25.5 -5.5t30.5 -3q51 0 89 34t79 106z" />
    <glyph glyph-name="notequal" unicode="&#x2260;" horiz-adv-x="1054" 
d="M766 967l-80 -176h277v-84h-310l-121 -265h431v-82h-463l-94 -208l-64 28l80 180h-264v82h299l116 265h-415v84h448l94 206z" />
    <glyph glyph-name="lessequal" unicode="&#x2264;" horiz-adv-x="1087" 
d="M989 223l-790 420v84l790 420v-100l-700 -357v-6l700 -360v-101zM995 59h-805v84h805v-84z" />
    <glyph glyph-name="greaterequal" unicode="&#x2265;" horiz-adv-x="1085" 
d="M201 1147l790 -420v-84l-790 -420v101l700 358v4l-700 361v100zM993 59h-803v84h803v-84z" />
    <glyph glyph-name="lozenge" unicode="&#x25ca;" horiz-adv-x="1171" 
d="M1079 690l-362 -817h-99l-364 817l367 819h96zM987 690l-315 725h-6l-318 -723l318 -727h6z" />
    <glyph glyph-name="zero.taboldstyle" unicode="&#xf643;" horiz-adv-x="987" 
d="M518 905q158 0 248 -98.5t90 -255.5q0 -78 -24.5 -160.5t-71 -157t-108.5 -133.5t-144 -94t-170 -35q-71 0 -129 23t-95 59t-62.5 82.5t-36.5 91t-11 86.5q0 142 70 279t190 225t254 88zM514 877q-78 0 -142.5 -54t-103.5 -134t-66 -177t-37.5 -176.5t-10.5 -138.5
q0 -102 48.5 -149.5t149.5 -47.5q62 0 114.5 34t88 88t63.5 123.5t44 136.5t27 132t14.5 105t3.5 59q0 199 -193 199z" />
    <glyph glyph-name="one.taboldstyle" unicode="&#xf644;" horiz-adv-x="987" 
d="M78 0l8 29h160l221 821h-170l8 29h477l-8 -29h-164l-221 -821h168l-8 -29h-471z" />
    <glyph glyph-name="two.taboldstyle" unicode="&#xf645;" horiz-adv-x="987" 
d="M709 0h-738l-6 16q119 124 412 328q86 60 142.5 122t80 118.5t30.5 94.5t7 81q0 76 -43 114.5t-117 38.5q-82 0 -133 -31t-51 -65q0 -42 7 -63.5t7 -46.5q0 -32 -25 -49t-63 -17q-37 0 -60.5 19.5t-23.5 54.5q0 14 6 34t19.5 46.5t40.5 51.5t63 47t93 35t126 13
q153 0 235.5 -68.5t82.5 -173.5q0 -50 -18.5 -94.5t-44 -76.5t-72.5 -67.5t-84 -57.5t-99 -56q-253 -139 -340 -209v-4h510q22 0 37.5 6t24.5 18.5t12.5 22.5t7.5 27h29z" />
    <glyph glyph-name="three.taboldstyle" unicode="&#xf646;" horiz-adv-x="987" 
d="M240 709l-9 30q2 0 40 8t52 11.5t51 13.5t60.5 19t55.5 23.5t59 31.5q88 54 138 152t50 216q0 98 -43 148.5t-123 50.5q-176 0 -176 -174q0 -58 -19.5 -84.5t-68.5 -26.5q-67 0 -67 72q0 93 97 167.5t238 74.5q133 0 229.5 -75.5t96.5 -184.5q0 -50 -19.5 -97t-50 -84
t-74 -71.5t-83.5 -58.5t-88 -47t-78 -34.5t-62 -23.5l3 -4q48 0 91.5 -7t89.5 -26.5t79 -50t54 -80.5t21 -115q0 -67 -35 -142.5t-97.5 -144t-140.5 -124t-173 -88.5t-186 -33q-67 0 -118 13.5t-77 34.5t-38.5 42.5t-12.5 42.5q0 30 21 45.5t50 15.5t49.5 -13t43.5 -56
q32 -57 58 -76.5t85 -19.5q104 0 200.5 81.5t152 201.5t55.5 235q0 106 -55.5 173.5t-157.5 67.5q-38 0 -93 -11t-75 -19z" />
    <glyph glyph-name="four.taboldstyle" unicode="&#xf647;" horiz-adv-x="987" 
d="M791 690l-177 -661h232l-8 -29h-232l-110 -416q-35 13 -74 13q-43 0 -82 -13l111 416h-564q72 138 195.5 321t282.5 367l143 168l182 213q78 92 111 115.5t86 23.5q92 0 92 -47q0 -16 -20 -37t-99 -88q-311 -258 -569 -526q-197 -200 -354 -481h522l176 661h156z" />
    <glyph glyph-name="five.taboldstyle" unicode="&#xf648;" horiz-adv-x="987" 
d="M244 772l178 651q139 -10 344 -10q105 0 166 66l18 -15q-2 -3 -17 -28.5t-23 -36.5t-26 -35t-35 -37t-40.5 -28t-51.5 -22t-59 -7h-88q-101 0 -196 10l-103 -365q241 -7 359 -103.5t118 -254.5q0 -108 -56 -220.5t-145 -199.5t-209 -142.5t-239 -55.5q-64 0 -117 12
t-89.5 39.5t-36.5 66.5q0 34 21 56t52 22q13 0 24 -2.5t19 -5.5t15.5 -10t12 -11t10 -13.5t7 -13t6 -14.5t5.5 -12q10 -24 20.5 -37.5t37.5 -24.5t69 -11q77 0 155.5 40.5t141 108t102 165.5t39.5 204q0 73 -24.5 125t-60.5 80.5t-92 44.5t-102.5 20t-109.5 4z" />
    <glyph glyph-name="six.taboldstyle" unicode="&#xf649;" horiz-adv-x="987" 
d="M33 336q0 114 33 244t88 251t131.5 233t159.5 195t175.5 133t176.5 50q103 0 165 -48.5t62 -107.5q0 -43 -25.5 -63.5t-64.5 -20.5q-37 0 -59.5 19t-22.5 45q0 17 4 34.5t4 36.5q0 32 -30 48t-76 16q-52 0 -99.5 -25.5t-84.5 -65.5t-74 -103.5t-65 -125t-60 -143.5
l-49 -125l4 -4q103 78 213 78q127 0 217 -103.5t90 -253.5q0 -96 -42 -197t-110 -180.5t-161 -130.5t-187 -51q-81 0 -143 30t-98 82t-54 115.5t-18 137.5zM160 201q0 -92 43.5 -146.5t134.5 -54.5q144 0 227 150q52 95 94.5 252t42.5 245q0 97 -45 154t-133 57
q-98 0 -223 -104q-56 -134 -98.5 -293.5t-42.5 -259.5z" />
    <glyph glyph-name="seven.taboldstyle" unicode="&#xf64a;" horiz-adv-x="987" 
d="M63 565l82 314h713q-2 -16 -6.5 -35t-8.5 -35.5t-12.5 -39.5t-14 -37.5t-17 -41.5t-17 -39t-19.5 -41t-18 -37.5t-19 -39t-17 -35.5l-471 -961q-30 -62 -59 -81t-77 -19q-94 0 -94 55q0 18 11.5 38.5t39.5 59.5l551 824q98 147 176 321h-532q-24 0 -44.5 -5.5t-34.5 -12
t-26.5 -22t-19 -25.5t-15 -33t-11.5 -33.5l-11 -38.5h-29z" />
    <glyph glyph-name="eight.taboldstyle" unicode="&#xf64b;" horiz-adv-x="987" 
d="M616 795l82 -70q75 -65 114.5 -132.5t39.5 -156.5q0 -50 -19.5 -110.5t-60 -123t-95.5 -114t-134.5 -84.5t-167.5 -33q-156 0 -264.5 107t-108.5 252q0 121 87.5 219t217.5 164l101 51q-56 48 -87.5 83t-55 90t-23.5 122q0 71 25.5 138.5t72.5 122.5t120.5 88.5
t160.5 33.5q60 0 117.5 -18t105.5 -52t77 -89.5t29 -123.5q0 -28 -6 -55t-15 -49t-25.5 -45t-30.5 -39.5t-38.5 -36.5t-40.5 -32t-45 -30t-44.5 -26.5t-46 -26t-42.5 -24.5zM543 651l-113 92l-45 -24q-75 -41 -129 -99t-79.5 -120t-36.5 -115t-11 -104q0 -118 67.5 -199.5
t178.5 -81.5q70 0 129.5 23t99.5 60.5t68 86t40.5 98.5t12.5 99q0 48 -11.5 86t-40.5 74t-53.5 58.5t-76.5 65.5zM502 885l90 -72q109 59 170 162.5t61 234.5q0 203 -202 203q-118 0 -191.5 -76.5t-73.5 -195.5q0 -80 31 -134.5t115 -121.5z" />
    <glyph glyph-name="nine.taboldstyle" unicode="&#xf64c;" horiz-adv-x="987" 
d="M510 -43l37 106l-4 5q-103 -78 -217 -78q-133 0 -220.5 102t-87.5 254q0 96 42 197t110 180.5t161 130.5t187 51q81 0 143 -29.5t98 -81.5t54 -115.5t18 -137.5q0 -115 -30 -244t-81 -250.5t-123 -233.5t-153 -195.5t-174 -133t-182 -49.5q-126 0 -187 46.5t-61 108.5
q0 84 90 84q37 0 59.5 -18.5t22.5 -44.5q0 -17 -4 -35t-4 -37q0 -21 10 -34.5t30 -19.5t38 -7.5t45 -1.5q127 0 207.5 102.5t175.5 378.5zM162 254q0 -236 178 -236q111 0 229 109q8 26 43 128.5t48.5 149.5t29 129.5t15.5 151.5q0 93 -45 142t-146 49q-70 0 -130 -44.5
t-99.5 -113.5t-68 -154t-41.5 -164.5t-13 -146.5z" />
    <glyph glyph-name="cent.taboldstyle" unicode="&#xf654;" horiz-adv-x="987" 
d="M258 78l416 790q-32 9 -66 9q-74 0 -139 -46.5t-109.5 -120t-77.5 -163t-48 -176t-15 -158.5q0 -80 39 -135zM141 -145l84 161q-71 38 -110 109.5t-39 157.5q0 103 43.5 213.5t116 201t178 149t219.5 58.5q43 0 57 -4l82 156l29 -13l-76 -147q127 -32 127 -156
q0 -108 -104 -108q-66 0 -66 47q0 10 27.5 57t27.5 78q0 35 -30 45l-426 -807q54 -51 143 -51q54 0 104.5 21t89 56t65.5 68.5t48 69.5l29 -16q-31 -45 -60.5 -79t-74.5 -71t-104 -57.5t-128 -20.5q-73 0 -139 29l-84 -160z" />
    <glyph glyph-name="dollar.oldstyle" unicode="&#xf724;" horiz-adv-x="1290" 
d="M674 870l157 586q-168 0 -263 -77t-95 -216q0 -70 38 -131.5t132 -136.5zM651 674l-182 -674q112 0 199 29.5t137 78.5t75 106t25 118q0 76 -34 134t-121 128zM0 0l109 406h28q-8 -54 -8 -91q0 -51 18.5 -102.5t55 -97.5t98 -77.5t139.5 -37.5l187 694l-78 64
q-203 164 -203 342q0 125 62.5 212t164.5 130q63 26 119.5 34.5t147.5 8.5l30 114h29l-31 -116q80 -6 156 -35.5t121 -32.5q29 0 48.5 14.5t25.5 36.5l28 -8l-98 -373h-33q10 57 10 93q0 47 -12 89t-40 82.5t-82.5 68.5t-131.5 36l-162 -604l115 -92q62 -50 94.5 -80
t68 -74.5t50 -92.5t14.5 -108q0 -130 -83.5 -236.5t-219.5 -158.5q-96 -37 -276 -37l-41 -147h-29l41 147q-60 4 -113.5 18t-85 28.5t-63 26t-53.5 11.5q-57 0 -88 -63z" />
    <glyph glyph-name="zero.oldstyle" unicode="&#xf730;" horiz-adv-x="987" 
d="M518 905q158 0 248 -98.5t90 -255.5q0 -78 -24.5 -160.5t-71 -157t-108.5 -133.5t-144 -94t-170 -35q-71 0 -129 23t-95 59t-62.5 82.5t-36.5 91t-11 86.5q0 142 70 279t190 225t254 88zM514 877q-78 0 -142.5 -54t-103.5 -134t-66 -177t-37.5 -176.5t-10.5 -138.5
q0 -102 48.5 -149.5t149.5 -47.5q62 0 114.5 34t88 88t63.5 123.5t44 136.5t27 132t14.5 105t3.5 59q0 199 -193 199z" />
    <glyph glyph-name="one.oldstyle" unicode="&#xf731;" horiz-adv-x="684" 
d="M-74 0l8 29h160l221 821h-170l9 29h477l-8 -29h-164l-221 -821h168l-9 -29h-471z" />
    <glyph glyph-name="two.oldstyle" unicode="&#xf732;" horiz-adv-x="909" 
d="M670 0h-738l-6 16q119 124 412 328q86 60 142.5 122t80 118.5t30.5 94.5t7 81q0 76 -43 114.5t-117 38.5q-82 0 -133 -31t-51 -65q0 -42 7 -63.5t7 -46.5q0 -32 -25 -49t-63 -17q-37 0 -60.5 19.5t-23.5 54.5q0 14 6 34t19.5 46.5t40.5 51.5t63 47t93 35t126 13
q153 0 235.5 -68.5t82.5 -173.5q0 -50 -18.5 -94.5t-44 -76.5t-72.5 -67.5t-84 -57.5t-99 -56q-253 -139 -340 -209v-4h510q22 0 37.5 6t24.5 18.5t12.5 22.5t7.5 27h29z" />
    <glyph glyph-name="three.oldstyle" unicode="&#xf733;" horiz-adv-x="987" 
d="M240 709l-9 30q2 0 40 8t52 11.5t51 13.5t60.5 19t55.5 23.5t59 31.5q88 54 138 152t50 216q0 98 -43 148.5t-123 50.5q-176 0 -176 -174q0 -58 -19.5 -84.5t-68.5 -26.5q-67 0 -67 72q0 93 97 167.5t238 74.5q133 0 229.5 -75.5t96.5 -184.5q0 -50 -19.5 -97t-50 -84
t-74 -71.5t-83.5 -58.5t-88 -47t-78 -34.5t-62 -23.5l3 -4q48 0 91.5 -7t89.5 -26.5t79 -50t54 -80.5t21 -115q0 -67 -35 -142.5t-97.5 -144t-140.5 -124t-173 -88.5t-186 -33q-67 0 -118 13.5t-77 34.5t-38.5 42.5t-12.5 42.5q0 30 21 45.5t50 15.5t49.5 -13t43.5 -56
q32 -57 58 -76.5t85 -19.5q104 0 200.5 81.5t152 201.5t55.5 235q0 106 -55.5 173.5t-157.5 67.5q-38 0 -93 -11t-75 -19z" />
    <glyph glyph-name="four.oldstyle" unicode="&#xf734;" horiz-adv-x="987" 
d="M791 690l-177 -661h232l-8 -29h-232l-110 -416q-35 13 -74 13q-43 0 -82 -13l111 416h-564q72 138 195.5 321t282.5 367l143 168l182 213q78 92 111 115.5t86 23.5q92 0 92 -47q0 -16 -20 -37t-99 -88q-311 -258 -569 -526q-197 -200 -354 -481h522l176 661h156z" />
    <glyph glyph-name="five.oldstyle" unicode="&#xf735;" horiz-adv-x="987" 
d="M244 772l178 651q139 -10 344 -10q105 0 166 66l18 -15q-2 -3 -17 -28.5t-23 -36.5t-26 -35t-35 -37t-40.5 -28t-51.5 -22t-59 -7h-88q-101 0 -196 10l-103 -365q241 -7 359 -103.5t118 -254.5q0 -108 -56 -220.5t-145 -199.5t-209 -142.5t-239 -55.5q-64 0 -117 12
t-89.5 39.5t-36.5 66.5q0 34 21 56t52 22q13 0 24 -2.5t19 -5.5t15.5 -10t12 -11t10 -13.5t7 -13t6 -14.5t5.5 -12q10 -24 20.5 -37.5t37.5 -24.5t69 -11q77 0 155.5 40.5t141 108t102 165.5t39.5 204q0 73 -24.5 125t-60.5 80.5t-92 44.5t-102.5 20t-109.5 4z" />
    <glyph glyph-name="six.oldstyle" unicode="&#xf736;" horiz-adv-x="987" 
d="M33 336q0 114 33 244t88 251t131.5 233t159.5 195t175.5 133t176.5 50q103 0 165 -48.5t62 -107.5q0 -43 -25.5 -63.5t-64.5 -20.5q-37 0 -59.5 19t-22.5 45q0 17 4 34.5t4 36.5q0 32 -30 48t-76 16q-52 0 -99.5 -25.5t-84.5 -65.5t-74 -103.5t-65 -125t-60 -143.5
l-49 -125l4 -4q103 78 213 78q127 0 217 -103.5t90 -253.5q0 -96 -42 -197t-110 -180.5t-161 -130.5t-187 -51q-81 0 -143 30t-98 82t-54 115.5t-18 137.5zM160 201q0 -92 43.5 -146.5t134.5 -54.5q144 0 227 150q52 95 94.5 252t42.5 245q0 97 -45 154t-133 57
q-98 0 -223 -104q-56 -134 -98.5 -293.5t-42.5 -259.5z" />
    <glyph glyph-name="seven.oldstyle" unicode="&#xf737;" horiz-adv-x="987" 
d="M63 565l82 314h713q-2 -16 -6.5 -35t-8.5 -35.5t-12.5 -39.5t-14 -37.5t-17 -41.5t-17 -39t-19.5 -41t-18 -37.5t-19 -39t-17 -35.5l-471 -961q-30 -62 -59 -81t-77 -19q-94 0 -94 55q0 18 11.5 38.5t39.5 59.5l551 824q98 147 176 321h-532q-24 0 -44.5 -5.5t-34.5 -12
t-26.5 -22t-19 -25.5t-15 -33t-11.5 -33.5l-11 -38.5h-29z" />
    <glyph glyph-name="eight.oldstyle" unicode="&#xf738;" horiz-adv-x="987" 
d="M616 795l82 -70q75 -65 114.5 -132.5t39.5 -156.5q0 -50 -19.5 -110.5t-60 -123t-95.5 -114t-134.5 -84.5t-167.5 -33q-156 0 -264.5 107t-108.5 252q0 121 87.5 219t217.5 164l101 51q-56 48 -87.5 83t-55 90t-23.5 122q0 71 25.5 138.5t72.5 122.5t120.5 88.5
t160.5 33.5q60 0 117.5 -18t105.5 -52t77 -89.5t29 -123.5q0 -28 -6 -55t-15 -49t-25.5 -45t-30.5 -39.5t-38.5 -36.5t-40.5 -32t-45 -30t-44.5 -26.5t-46 -26t-42.5 -24.5zM543 651l-113 92l-45 -24q-75 -41 -129 -99t-79.5 -120t-36.5 -115t-11 -104q0 -118 67.5 -199.5
t178.5 -81.5q70 0 129.5 23t99.5 60.5t68 86t40.5 98.5t12.5 99q0 48 -11.5 86t-40.5 74t-53.5 58.5t-76.5 65.5zM502 885l90 -72q109 59 170 162.5t61 234.5q0 203 -202 203q-118 0 -191.5 -76.5t-73.5 -195.5q0 -80 31 -134.5t115 -121.5z" />
    <glyph glyph-name="nine.oldstyle" unicode="&#xf739;" horiz-adv-x="987" 
d="M510 -43l37 106l-4 5q-103 -78 -217 -78q-133 0 -220.5 102t-87.5 254q0 96 42 197t110 180.5t161 130.5t187 51q81 0 143 -29.5t98 -81.5t54 -115.5t18 -137.5q0 -115 -30 -244t-81 -250.5t-123 -233.5t-153 -195.5t-174 -133t-182 -49.5q-126 0 -187 46.5t-61 108.5
q0 84 90 84q37 0 59.5 -18.5t22.5 -44.5q0 -17 -4 -35t-4 -37q0 -21 10 -34.5t30 -19.5t38 -7.5t45 -1.5q127 0 207.5 102.5t175.5 378.5zM162 254q0 -236 178 -236q111 0 229 109q8 26 43 128.5t48.5 149.5t29 129.5t15.5 151.5q0 93 -45 142t-146 49q-70 0 -130 -44.5
t-99.5 -113.5t-68 -154t-41.5 -164.5t-13 -146.5z" />
    <glyph glyph-name="cent.oldstyle" unicode="&#xf7a2;" horiz-adv-x="987" 
d="M258 78l416 790q-32 9 -66 9q-74 0 -139 -46.5t-109.5 -120t-77.5 -163t-48 -176t-15 -158.5q0 -80 39 -135zM141 -145l84 161q-71 38 -110 109.5t-39 157.5q0 103 43.5 213.5t116 201t178 149t219.5 58.5q43 0 57 -4l82 156l29 -13l-76 -147q127 -32 127 -156
q0 -108 -104 -108q-66 0 -66 47q0 10 27.5 57t27.5 78q0 35 -30 45l-426 -807q54 -51 143 -51q54 0 104.5 21t89 56t65.5 68.5t48 69.5l29 -16q-31 -45 -60.5 -79t-74.5 -71t-104 -57.5t-128 -20.5q-73 0 -139 29l-84 -160z" />
    </font>
</defs>
</svg>
