<?xml version="1.0" standalone="no"?>
<!DOCTYPE svg PUBLIC "-//W3C//DTD SVG 1.1//EN" "http://www.w3.org/Graphics/SVG/1.1/DTD/svg11.dtd" >
<svg xmlns="http://www.w3.org/2000/svg" xmlns:xlink="http://www.w3.org/1999/xlink" version="1.1">
<metadata>
Created by FontForge 20170731 at Thu May 27 05:26:54 2021
 By Aleksey,,,
Copyright (C) 2000, 2007 Hoefler &#38; Frere-Jones. http://www.typography.com
</metadata>
<defs>
<font id="Gotham-Black" horiz-adv-x="1024" >
  <font-face 
    font-family="Gotham Black"
    font-weight="425"
    font-stretch="normal"
    units-per-em="2048"
    panose-1="2 0 6 4 4 0 0 2 0 4"
    ascent="1638"
    descent="-410"
    x-height="1108"
    cap-height="1434"
    bbox="-115 -643 2580 2136"
    underline-thickness="40"
    underline-position="-312"
    unicode-range="U+0020-FB04"
  />
<missing-glyph 
d="M0 -410v2048h1024v-2048h-1024zM145 1536l367 -799l367 799h-734zM102 -156l353 770l-353 770v-1540zM922 1384l-353 -770l353 -770v1540zM512 492l-367 -799h734z" />
    <glyph glyph-name="f_f" unicode="ff" horiz-adv-x="1654" 
d="M1001 0v797h-131v299h131v30q0 192 95 287q93 96 288 96q152 0 254 -30v-275q-74 23 -145 23q-111 0 -111 -105v-26h254v-299h-247v-797h-388zM174 0v797h-129v305h129v24q0 193 94 287q96 96 289 96q152 0 254 -30v-275q-74 23 -145 23q-111 0 -111 -105v-26h254v-299
h-248v-797h-387z" />
    <glyph glyph-name="fi" unicode="fi" horiz-adv-x="1441" 
d="M932 1208v287h405v-287h-405zM174 1102v24q0 193 94 287q96 96 289 96q152 0 254 -30v-275q-74 23 -145 23q-111 0 -111 -105v-26h254v-299h-248v-797h-387v797h-129v305h129zM940 0v1108h389v-1108h-389z" />
    <glyph glyph-name="fl" unicode="fl" horiz-adv-x="1441" 
d="M174 0v797h-129v305h129v24q0 193 94 287q96 96 289 96q152 0 254 -30v-275q-74 23 -145 23q-111 0 -111 -105v-26h254v-299h-248v-797h-387zM940 0v1495h389v-1495h-389z" />
    <glyph glyph-name="f_f_i" unicode="ffi" horiz-adv-x="2269" 
d="M1759 1208v287h406v-287h-406zM1001 0v797h-131v299h131v30q0 192 95 287q93 96 288 96q152 0 254 -30v-275q-74 23 -145 23q-111 0 -111 -105v-26h254v-299h-247v-797h-388zM174 0v797h-129v305h129v24q0 193 94 287q96 96 289 96q152 0 254 -30v-275q-74 23 -145 23
q-111 0 -111 -105v-26h254v-299h-248v-797h-387zM1767 0v1108h390v-1108h-390z" />
    <glyph glyph-name="f_f_l" unicode="ffl" horiz-adv-x="2269" 
d="M1001 0v797h-131v299h131v30q0 192 95 287q93 96 288 96q152 0 254 -30v-275q-74 23 -145 23q-111 0 -111 -105v-26h254v-299h-247v-797h-388zM174 0v797h-129v305h129v24q0 193 94 287q96 96 289 96q152 0 254 -30v-275q-74 23 -145 23q-111 0 -111 -105v-26h254v-299
h-248v-797h-387zM1767 0v1495h390v-1495h-390z" />
    <glyph glyph-name=".notdef" 
d="M0 -410v2048h1024v-2048h-1024zM145 1536l367 -799l367 799h-734zM102 -156l353 770l-353 770v-1540zM922 1384l-353 -770l353 -770v1540zM512 492l-367 -799h734z" />
    <glyph glyph-name=".null" horiz-adv-x="0" 
 />
    <glyph glyph-name="nonmarkingreturn" horiz-adv-x="682" 
 />
    <glyph glyph-name="space" unicode=" " horiz-adv-x="567" 
 />
    <glyph glyph-name="exclam" unicode="!" horiz-adv-x="663" 
d="M229 467l-118 793v174h442v-174l-119 -793h-205zM129 0v348h406v-348h-406z" />
    <glyph glyph-name="quotedbl" unicode="&#x22;" horiz-adv-x="1099" 
d="M594 698l47 736h418v-11l-260 -725h-205zM70 698l45 736h417v-11l-260 -725h-202z" />
    <glyph glyph-name="numbersign" unicode="#" horiz-adv-x="1445" 
d="M172 0l47 276h-160v330h217l39 230h-188v329h246l45 269h297l-47 -269h260l45 269h297l-45 -269h159v-329h-217l-39 -230h189v-330h-244l-49 -276h-297l49 276h-260l-47 -276h-297zM563 598h275l41 246h-273z" />
    <glyph glyph-name="dollar" unicode="$" horiz-adv-x="1363" 
d="M604 -201v205q-151 15 -294.5 67.5t-258.5 135.5l185 272q199 -139 380 -168v246q-129 30 -218 66t-153.5 88t-95 123t-30.5 165v5q0 184 128.5 299.5t360.5 132.5v116h213v-122q235 -25 432 -160l-168 -275q-120 85 -274 123v-237q254 -59 371.5 -161t117.5 -286v-4
q0 -184 -130.5 -296.5t-352.5 -133.5v-201h-213zM618 915v222q-139 -11 -139 -103v-4q0 -41 29 -67t110 -48zM809 299q137 15 137 104v5q0 42 -29.5 67.5t-107.5 48.5v-225z" />
    <glyph glyph-name="percent" unicode="%" horiz-adv-x="1841" 
d="M440 682q-163 0 -265.5 110.5t-102.5 272.5v4q0 162 102.5 273.5t267.5 111.5q164 0 266.5 -111t102.5 -272v-4q0 -162 -104 -273.5t-267 -111.5zM1399 -20q-162 0 -265.5 111t-103.5 271v5q0 162 103 273.5t268 111.5q164 0 266 -110.5t102 -272.5v-4
q0 -160 -104 -272.5t-266 -112.5zM442 907q52 0 85.5 45t33.5 113v4q0 68 -34.5 114t-86.5 46q-53 0 -85.5 -44.5t-32.5 -113.5v-4q0 -69 34.5 -114.5t85.5 -45.5zM1401 205q52 0 85.5 44.5t33.5 112.5v5q0 69 -34 114t-87 45q-55 0 -87 -43.5t-32 -113.5v-4
q0 -67 35 -113.5t86 -46.5zM834 772l501 662h277l-617 -789l-489 -645h-277z" />
    <glyph glyph-name="ampersand" unicode="&#x26;" horiz-adv-x="1429" 
d="M1128 -29l-147 150q-192 -146 -426 -146q-225 0 -368.5 111.5t-143.5 302.5v4q0 271 291 402q-94 134 -94 274v4q0 163 123 276t327 113q192 0 309 -104t117 -264v-4q0 -243 -280 -373l159 -156q66 96 135 227l263 -131q-96 -177 -189 -303l193 -190zM649 895
q152 67 152 176v4q0 52 -30.5 83.5t-80.5 31.5q-51 0 -83 -35t-32 -92v-4q0 -72 74 -164zM608 268q78 0 170 62l-235 239q-103 -62 -103 -155v-4q0 -63 47 -102.5t121 -39.5z" />
    <glyph glyph-name="quotesingle" unicode="'" horiz-adv-x="581" 
d="M70 698l45 736h426v-11l-260 -725h-211z" />
    <glyph glyph-name="parenleft" unicode="(" horiz-adv-x="911" 
d="M688 -289q-147 77 -255.5 164t-186.5 193.5t-117 236t-39 283.5t39 283.5t117 236t186 193t256 163.5l162 -241q-200 -138 -289.5 -286.5t-89.5 -348.5t89.5 -348.5t289.5 -286.5z" />
    <glyph glyph-name="parenright" unicode=")" horiz-adv-x="911" 
d="M223 -289l-162 242q200 138 289.5 286.5t89.5 348.5t-89.5 348.5t-289.5 286.5l162 241q148 -77 256 -163.5t186 -193t117 -236t39 -283.5t-39 -283.5t-117 -236t-186.5 -193.5t-255.5 -164z" />
    <glyph glyph-name="asterisk" unicode="*" horiz-adv-x="870" 
d="M328 694l51 271l-211 -181l-111 189l260 92l-260 92l111 191l211 -181l-51 271h215l-51 -271l210 181l111 -191l-260 -92l260 -92l-111 -189l-210 181l51 -271h-215z" />
    <glyph glyph-name="plus" unicode="+" horiz-adv-x="1310" 
d="M477 193v356h-360v344h360v356h357v-356h360v-344h-360v-356h-357z" />
    <glyph glyph-name="comma" unicode="," horiz-adv-x="581" 
d="M72 -338l-31 150q103 12 155.5 60.5t49.5 131.5h-158v399h406v-325q0 -217 -109 -313.5t-313 -102.5z" />
    <glyph glyph-name="hyphen" unicode="-" horiz-adv-x="835" 
d="M82 469v342h672v-342h-672z" />
    <glyph glyph-name="period" unicode="." horiz-adv-x="581" 
d="M88 0v399h406v-399h-406z" />
    <glyph glyph-name="slash" unicode="/" horiz-adv-x="1095" 
d="M-78 -262l907 1896h316l-907 -1896h-316z" />
    <glyph glyph-name="zero" unicode="0" horiz-adv-x="1495" 
d="M745 -29q-199 0 -351.5 101.5t-231 269t-78.5 371.5v4q0 152 47.5 287.5t132 237t211 161t275.5 59.5q198 0 350.5 -101t231.5 -268.5t79 -371.5v-4q0 -152 -47 -288t-131.5 -237.5t-211 -161t-276.5 -59.5zM750 324q119 0 190.5 108.5t71.5 280.5v4q0 171 -74.5 282
t-192.5 111t-190 -108t-72 -281v-4q0 -173 74 -283t193 -110z" />
    <glyph glyph-name="one" unicode="1" horiz-adv-x="864" 
d="M334 0v1073l-242 -55l-76 307l420 119h289v-1444h-391z" />
    <glyph glyph-name="two" unicode="2" horiz-adv-x="1277" 
d="M68 0v299l536 410q101 79 142.5 136.5t41.5 121.5q0 67 -43.5 106t-115.5 39q-70 0 -134 -42t-151 -142l-268 223q123 160 253.5 233.5t329.5 73.5q235 0 382 -127t147 -330v-4q0 -84 -20.5 -152t-67 -128t-101.5 -108.5t-143 -112.5l-246 -172h592v-324h-1134z" />
    <glyph glyph-name="three" unicode="3" horiz-adv-x="1271" 
d="M647 -29q-381 0 -610 254l250 250q161 -164 342 -164q84 0 134 40t50 106v4q0 69 -60.5 108t-172.5 39h-168l-58 207l330 297h-549v322h1036v-285l-342 -293q81 -18 145.5 -48.5t116.5 -78t80.5 -117.5t28.5 -159v-4q0 -216 -155.5 -347t-397.5 -131z" />
    <glyph glyph-name="four" unicode="4" horiz-adv-x="1411" 
d="M786 0v279h-694l-65 280l743 885h401v-869h183v-296h-183v-279h-385zM444 573h342v412z" />
    <glyph glyph-name="five" unicode="5" horiz-adv-x="1290" 
d="M621 -29q-182 0 -322 58.5t-260 169.5l227 266q186 -156 348 -156q98 0 154.5 45.5t56.5 122.5v4q0 76 -58 121t-153 45q-110 0 -229 -72l-235 132l40 727h959v-328h-645l-12 -217q109 51 229 51q99 0 186 -28t156 -82.5t109 -143t40 -201.5v-4q0 -236 -163 -373
t-428 -137z" />
    <glyph glyph-name="six" unicode="6" horiz-adv-x="1355" 
d="M698 -29q-274 0 -438 164q-176 176 -176 537v4q0 169 41.5 311t122.5 249t209.5 166.5t292.5 59.5q146 0 258 -38.5t219 -118.5l-187 -281q-73 55 -138 82t-146 27q-121 0 -189 -82t-82 -224q69 52 141.5 81.5t168.5 29.5q128 0 234 -50.5t172.5 -153.5t66.5 -242v-5
q0 -156 -77.5 -275t-206 -180t-286.5 -61zM682 281q92 0 145.5 52t53.5 132v4q0 79 -55.5 131.5t-147.5 52.5q-91 0 -145 -51.5t-54 -130.5v-4q0 -80 55.5 -133t147.5 -53z" />
    <glyph glyph-name="seven" unicode="7" horiz-adv-x="1257" 
d="M127 0l631 1100h-664v334h1104v-299l-633 -1135h-438z" />
    <glyph glyph-name="eight" unicode="8" horiz-adv-x="1290" 
d="M645 -25q-171 0 -305 52.5t-209.5 148.5t-75.5 219v4q0 239 246 344q-197 108 -197 312v4q0 173 151 286t390 113t390 -113t151 -286v-4q0 -204 -197 -312q119 -56 182.5 -136t63.5 -206v-4q0 -190 -165 -306t-425 -116zM645 852q79 0 127.5 44t48.5 112v4
q0 62 -48.5 106.5t-127.5 44.5t-127.5 -43.5t-48.5 -105.5v-4q0 -68 49 -113t127 -45zM645 272q96 0 151.5 47t55.5 115v4q0 69 -58 112.5t-149 43.5t-149 -43.5t-58 -112.5v-4q0 -68 55.5 -115t151.5 -47z" />
    <glyph glyph-name="nine" unicode="9" horiz-adv-x="1355" 
d="M608 -29q-281 0 -499 170l186 275q144 -115 307 -115q120 0 188 78.5t82 220.5q-124 -117 -303 -117q-213 0 -347 122.5t-134 330.5v4q0 156 74.5 275.5t204 183t292.5 63.5q151 0 253 -41t188 -127q172 -169 172 -530v-4q0 -236 -75.5 -412.5t-226.5 -276.5t-362 -100z
M678 768q92 0 146.5 53t54.5 133v4q0 85 -56.5 140t-148.5 55t-146.5 -53.5t-54.5 -138.5v-5q0 -83 56 -135.5t149 -52.5z" />
    <glyph glyph-name="colon" unicode=":" horiz-adv-x="602" 
d="M98 709v399h406v-399h-406zM98 0v399h406v-399h-406z" />
    <glyph glyph-name="semicolon" unicode=";" horiz-adv-x="602" 
d="M98 709v399h406v-399h-406zM82 -342l-31 149q103 12 155.5 61t49.5 132h-158v399h406v-325q0 -217 -109 -313.5t-313 -102.5z" />
    <glyph glyph-name="less" unicode="&#x3c;" horiz-adv-x="1310" 
d="M1147 135l-1018 406v360l1018 406v-361l-670 -225l670 -223v-363z" />
    <glyph glyph-name="equal" unicode="=" horiz-adv-x="1310" 
d="M129 825v338h1053v-338h-1053zM129 281v335h1053v-335h-1053z" />
    <glyph glyph-name="greater" unicode="&#x3e;" horiz-adv-x="1310" 
d="M164 135v361l670 223l-670 225v363l1018 -406v-360z" />
    <glyph glyph-name="question" unicode="?" horiz-adv-x="1105" 
d="M391 467l-51 342l16 18q173 15 247.5 55t74.5 109v2q0 53 -40.5 83t-113.5 30q-148 0 -299 -135l-205 270q215 215 531 215q229 0 370.5 -116.5t141.5 -313.5v-4q0 -94 -29.5 -166.5t-85.5 -122t-125 -81.5t-159 -54l-25 -131h-248zM307 0v348h404v-348h-404z" />
    <glyph glyph-name="at" unicode="@" horiz-adv-x="1976" 
d="M1006 -332q-156 0 -297.5 45t-253 127.5t-193.5 193t-126 246.5t-44 283q0 183 70 348.5t189.5 286.5t288.5 192.5t359 71.5q186 0 351.5 -65.5t281 -174.5t183 -254.5t67.5 -301.5q0 -134 -36.5 -241.5t-98 -173t-139 -100t-162.5 -34.5q-226 0 -316 155
q-131 -151 -301 -151q-162 0 -268 113t-106 298q0 144 61.5 267t166 194.5t224.5 71.5q179 0 275 -152l24 125l318 -49l-94 -528q-9 -70 -9 -90q0 -53 36 -87t97 -34q104 0 173 109.5t69 306.5q0 141 -59.5 271t-163 228t-253.5 156.5t-321 58.5q-175 0 -329 -64.5
t-261 -174t-169 -260t-62 -318.5q0 -170 61.5 -319.5t169.5 -258.5t263 -172t334 -63q147 0 264 33.5t237 103.5l41 -65q-253 -154 -542 -154zM932 397q82 0 139 69t57 167q0 71 -41.5 113t-107.5 42q-83 0 -140 -67t-57 -164q0 -75 42 -117.5t108 -42.5z" />
    <glyph glyph-name="A" unicode="A" horiz-adv-x="1628" 
d="M12 0l611 1444h383l610 -1444h-426l-105 256h-553l-102 -256h-418zM649 565h322l-160 408z" />
    <glyph glyph-name="B" unicode="B" horiz-adv-x="1464" 
d="M127 0v1434h735q262 0 391 -129q93 -93 93 -232v-4q0 -223 -222 -319q139 -45 212 -128.5t73 -222.5v-4q0 -185 -143.5 -290t-399.5 -105h-739zM514 862h250q188 0 188 125v4q0 59 -46 91t-134 32h-258v-252zM514 319h307q91 0 141 34.5t50 97.5v4q0 60 -49 94.5
t-146 34.5h-303v-265z" />
    <glyph glyph-name="C" unicode="C" horiz-adv-x="1495" 
d="M817 -29q-203 0 -372 95.5t-268 266t-99 380.5v4q0 155 57.5 292.5t157 237t240.5 157.5t301 58q392 0 608 -299l-299 -231q-66 82 -141 125t-173 43q-149 0 -245.5 -110t-96.5 -269v-4q0 -163 96.5 -273t245.5 -110q105 0 178.5 43.5t145.5 130.5l299 -213
q-73 -100 -154.5 -168t-205 -112t-275.5 -44z" />
    <glyph glyph-name="D" unicode="D" horiz-adv-x="1566" 
d="M127 0v1434h553q189 0 342 -52.5t255 -146.5t157 -224.5t55 -285.5v-4q0 -155 -55.5 -287t-158.5 -228.5t-258 -151t-345 -54.5h-545zM524 352h162q181 0 288 96t107 267v4q0 170 -107 266t-288 96h-162v-729z" />
    <glyph glyph-name="E" unicode="E" horiz-adv-x="1366" 
d="M127 0v1434h1153v-338h-760v-217h688v-314h-688v-227h770v-338h-1163z" />
    <glyph glyph-name="F" unicode="F" horiz-adv-x="1327" 
d="M127 0v1434h1147v-349h-750v-243h678v-330h-678v-512h-397z" />
    <glyph glyph-name="G" unicode="G" horiz-adv-x="1574" 
d="M858 -29q-165 0 -309.5 55.5t-248 152.5t-163 235.5t-59.5 298.5v4q0 155 58.5 292.5t160.5 237t245.5 157.5t307.5 58q182 0 322 -53t260 -156l-234 -280q-80 68 -162 101.5t-184 33.5q-155 0 -261 -114t-106 -279v-4q0 -173 109.5 -285.5t279.5 -112.5q139 0 230 60
v174h-283v291h660v-645q-270 -222 -623 -222z" />
    <glyph glyph-name="H" unicode="H" horiz-adv-x="1558" 
d="M127 0v1434h397v-537h510v537h398v-1434h-398v545h-510v-545h-397z" />
    <glyph glyph-name="I" unicode="I" horiz-adv-x="669" 
d="M135 0v1434h400v-1434h-400z" />
    <glyph glyph-name="J" unicode="J" horiz-adv-x="1155" 
d="M512 -25q-327 0 -504 242l256 242q56 -67 108 -100t115 -33q77 0 120.5 51t43.5 149v908h396v-910q0 -261 -142 -403q-146 -146 -393 -146z" />
    <glyph glyph-name="K" unicode="K" horiz-adv-x="1495" 
d="M127 0v1434h397v-582l494 582h471l-543 -617l561 -817h-477l-360 532l-146 -161v-371h-397z" />
    <glyph glyph-name="L" unicode="L" horiz-adv-x="1261" 
d="M127 0v1434h397v-1086h695v-348h-1092z" />
    <glyph glyph-name="M" unicode="M" horiz-adv-x="1777" 
d="M127 0v1434h420l342 -555l342 555h420v-1434h-396v823l-366 -561h-8l-365 557v-819h-389z" />
    <glyph glyph-name="N" unicode="N" horiz-adv-x="1607" 
d="M127 0v1434h371l589 -758v758h394v-1434h-348l-613 786v-786h-393z" />
    <glyph glyph-name="O" unicode="O" horiz-adv-x="1701" 
d="M848 -29q-163 0 -306.5 58.5t-245 158t-160 236.5t-58.5 289v4q0 152 59.5 289.5t161.5 237.5t246 159t307 59t306.5 -58t245 -157.5t160 -236.5t58.5 -289v-4q0 -152 -59.5 -290t-161.5 -238t-246 -159t-307 -59zM852 330q161 0 263 112t102 271v4q0 159 -104 273
t-265 114q-159 0 -261 -112t-102 -271v-4q0 -159 104 -273t263 -114z" />
    <glyph glyph-name="P" unicode="P" horiz-adv-x="1378" 
d="M127 0v1434h614q274 0 435 -134t161 -370v-4q0 -165 -80.5 -283t-218 -175.5t-317.5 -57.5h-197v-410h-397zM524 721h189q105 0 166 50.5t61 135.5v4q0 91 -60.5 140t-168.5 49h-187v-379z" />
    <glyph glyph-name="Q" unicode="Q" horiz-adv-x="1701" 
d="M1442 -43l-158 141q-195 -127 -436 -127q-163 0 -306.5 58.5t-245 158t-160 236.5t-58.5 289v4q0 152 59.5 289.5t161.5 237.5t246 159t307 59t306.5 -58t245 -157.5t160 -236.5t58.5 -289v-4q0 -231 -127 -412l147 -125zM852 324q75 0 145 26l-198 170l200 225l195 -176
q25 67 25 140v4q0 161 -104.5 276t-266.5 115q-159 0 -261 -113.5t-102 -273.5v-4q0 -160 103.5 -274.5t263.5 -114.5z" />
    <glyph glyph-name="R" unicode="R" horiz-adv-x="1472" 
d="M127 0v1434h678q314 0 467 -156q127 -124 127 -334v-4q0 -159 -78 -270t-217 -170l342 -500h-459l-289 434h-174v-434h-397zM524 745h262q100 0 156.5 45.5t56.5 124.5v5q0 83 -56.5 126.5t-158.5 43.5h-260v-345z" />
    <glyph glyph-name="S" unicode="S" horiz-adv-x="1335" 
d="M690 -25q-194 0 -368 60.5t-304 177.5l222 264q215 -172 465 -172q79 0 121 26t42 72v5q0 46 -49.5 75t-191.5 62q-73 17 -127 31.5t-113.5 36.5t-101.5 45.5t-81.5 57.5t-64 73.5t-39 91.5t-14.5 114v4q0 203 150.5 331t404.5 128q353 0 590 -190l-199 -281
q-201 141 -401 141q-69 0 -106.5 -26t-37.5 -66v-4q0 -50 49.5 -77.5t198.5 -61.5q132 -29 224.5 -63.5t165.5 -86t109 -125.5t36 -172v-4q0 -217 -158 -342t-422 -125z" />
    <glyph glyph-name="T" unicode="T" horiz-adv-x="1351" 
d="M477 0v1085h-430v349h1258v-349h-431v-1085h-397z" />
    <glyph glyph-name="U" unicode="U" horiz-adv-x="1552" 
d="M772 -27q-315 0 -489 163.5t-174 492.5v805h403v-797q0 -151 70 -228t194 -77t194 74t70 221v807h404v-795q0 -171 -47 -299t-136 -208t-211.5 -119.5t-277.5 -39.5z" />
    <glyph glyph-name="V" unicode="V" horiz-adv-x="1556" 
d="M594 -10l-582 1444h445l325 -908l326 908h436l-581 -1444h-369z" />
    <glyph glyph-name="W" unicode="W" horiz-adv-x="2287" 
d="M510 -10l-479 1444h420l249 -830l277 834h342l276 -834l250 830h412l-479 -1444h-346l-289 825l-287 -825h-346z" />
    <glyph glyph-name="X" unicode="X" horiz-adv-x="1499" 
d="M23 0l491 729l-471 705h457l254 -404l256 404h446l-471 -701l492 -733h-457l-275 432l-276 -432h-446z" />
    <glyph glyph-name="Y" unicode="Y" horiz-adv-x="1480" 
d="M541 0v537l-545 897h453l294 -523l297 523h445l-545 -891v-543h-399z" />
    <glyph glyph-name="Z" unicode="Z" horiz-adv-x="1429" 
d="M82 0v289l719 809h-695v336h1244v-289l-719 -809h719v-336h-1268z" />
    <glyph glyph-name="bracketleft" unicode="[" horiz-adv-x="935" 
d="M135 -266v1700h709v-265h-361v-1171h361v-264h-709z" />
    <glyph glyph-name="backslash" unicode="\" horiz-adv-x="1095" 
d="M858 -262l-907 1896h315l908 -1896h-316z" />
    <glyph glyph-name="bracketright" unicode="]" horiz-adv-x="935" 
d="M92 -266v264h361v1171h-361v265h709v-1700h-709z" />
    <glyph glyph-name="asciicircum" unicode="^" 
d="M86 1010l295 422h262l295 -422h-272l-156 198l-156 -198h-268z" />
    <glyph glyph-name="underscore" unicode="_" horiz-adv-x="1228" 
d="M-4 -328v238h1237v-238h-1237z" />
    <glyph glyph-name="grave" unicode="`" 
d="M483 1204l-301 260l361 117l211 -377h-271z" />
    <glyph glyph-name="a" unicode="a" horiz-adv-x="1226" 
d="M422 -25q-164 0 -268.5 90.5t-104.5 251.5v5q0 168 117 258t317 90q149 0 267 -43v18q0 180 -222 180q-152 0 -305 -61l-80 274q211 86 449 86q287 0 422 -135q119 -116 119 -352v-637h-385v115q-127 -140 -326 -140zM561 219q86 0 139.5 50t53.5 132v52q-68 28 -152 28
t-131 -37.5t-47 -99.5v-4q0 -56 38 -88.5t99 -32.5z" />
    <glyph glyph-name="b" unicode="b" horiz-adv-x="1384" 
d="M831 -25q-115 0 -194.5 43t-142.5 117v-135h-390v1495h390v-534q67 81 144 126.5t191 45.5q99 0 188.5 -40.5t156.5 -113t107 -182t40 -238.5v-4q0 -131 -39.5 -241.5t-107 -184t-156.5 -114t-187 -40.5zM711 301q97 0 162 70.5t65 181.5v4q0 108 -65.5 179t-161.5 71
q-95 0 -160.5 -71t-65.5 -179v-4q0 -109 65.5 -180.5t160.5 -71.5z" />
    <glyph glyph-name="c" unicode="c" horiz-adv-x="1165" 
d="M639 -27q-163 0 -297 78.5t-208.5 210.5t-74.5 287v4q0 156 74.5 287.5t211.5 210.5t308 79q318 0 473 -247l-264 -197q-42 59 -90.5 88t-116.5 29q-93 0 -155 -72t-62 -174v-4q0 -108 62 -180t159 -72q65 0 114.5 28.5t98.5 86.5l261 -189q-170 -254 -494 -254z" />
    <glyph glyph-name="d" unicode="d" horiz-adv-x="1384" 
d="M553 -25q-98 0 -187 40.5t-156.5 113t-107 182t-39.5 238.5v4q0 131 39.5 241.5t106.5 184t155.5 114t186.5 40.5q115 0 195 -43t145 -117v522h389v-1495h-389v147q-67 -81 -145.5 -126.5t-192.5 -45.5zM672 301q95 0 160 71.5t65 180.5v4q0 108 -65 179t-160 71
t-161.5 -70.5t-66.5 -179.5v-4q0 -109 66.5 -180.5t161.5 -71.5z" />
    <glyph glyph-name="e" unicode="e" horiz-adv-x="1239" 
d="M653 -27q-262 0 -428 159.5t-166 416.5v4q0 120 41.5 227t114.5 184.5t177.5 123t225.5 45.5q139 0 248 -48.5t176 -133t101.5 -192.5t34.5 -233q0 -53 -2 -80h-742q23 -89 85.5 -135.5t154.5 -46.5q130 0 246 113l215 -178q-177 -226 -482 -226zM428 645h385
q-11 93 -62 147t-130 54q-75 0 -126.5 -54.5t-66.5 -146.5z" />
    <glyph glyph-name="f" unicode="f" horiz-adv-x="827" 
d="M174 0v797h-129v305h129v24q0 193 94 287q96 96 289 96q152 0 254 -30v-275q-74 23 -145 23q-111 0 -111 -105v-26h254v-299h-248v-797h-387z" />
    <glyph glyph-name="g" unicode="g" horiz-adv-x="1384" 
d="M649 -332q-307 0 -555 127l125 258q188 -104 387 -104q145 0 218 69.5t73 202.5v43q-67 -77 -148.5 -121.5t-193.5 -44.5q-102 0 -191.5 36t-156.5 101.5t-105.5 163t-38.5 213.5v4q0 116 39 214.5t105 164t153 102t183 36.5q115 0 195.5 -40.5t152.5 -115.5v131h389
v-842q0 -299 -143 -442q-156 -156 -488 -156zM672 397q98 0 161.5 61t63.5 154v4q0 92 -63.5 152.5t-161.5 60.5q-99 0 -163.5 -61t-64.5 -154v-4q0 -92 64 -152.5t164 -60.5z" />
    <glyph glyph-name="h" unicode="h" horiz-adv-x="1298" 
d="M104 0v1495h390v-539q139 177 331 177q176 0 276.5 -109t100.5 -299v-725h-389v600q0 89 -42.5 137.5t-113.5 48.5q-73 0 -118 -49t-45 -137v-600h-390z" />
    <glyph glyph-name="i" unicode="i" horiz-adv-x="614" 
d="M104 1208v287h406v-287h-406zM113 0v1108h389v-1108h-389z" />
    <glyph glyph-name="j" unicode="j" horiz-adv-x="618" 
d="M104 1208v287h406v-287h-406zM106 -334q-42 0 -159 15v258q16 -2 51 -2q59 0 87 29.5t28 99.5v1042h389v-1059q0 -204 -99.5 -293.5t-296.5 -89.5z" />
    <glyph glyph-name="k" unicode="k" horiz-adv-x="1234" 
d="M104 0v1495h390v-758l301 371h440l-385 -444l395 -664h-428l-223 377l-100 -117v-260h-390z" />
    <glyph glyph-name="l" unicode="l" horiz-adv-x="614" 
d="M113 0v1495h389v-1495h-389z" />
    <glyph glyph-name="m" unicode="m" horiz-adv-x="1988" 
d="M104 0v1108h390v-152q139 177 329 177q110 0 193 -47t127 -134q77 89 165.5 135t204.5 46q178 0 278.5 -106.5t100.5 -299.5v-727h-389v602q0 89 -40.5 136.5t-110.5 47.5q-71 0 -115.5 -48t-44.5 -136v-602h-389v602q0 89 -41 136.5t-111 47.5q-71 0 -114 -48t-43 -136
v-602h-390z" />
    <glyph glyph-name="n" unicode="n" horiz-adv-x="1298" 
d="M104 0v1108h390v-156q142 181 331 181q176 0 276.5 -109t100.5 -299v-725h-389v600q0 89 -42.5 137.5t-113.5 48.5q-73 0 -118 -49t-45 -137v-600h-390z" />
    <glyph glyph-name="o" unicode="o" horiz-adv-x="1343" 
d="M670 -27q-130 0 -244.5 46t-194.5 123.5t-126 183.5t-46 223v4q0 117 46.5 223.5t127 185t195.5 125t246 46.5q173 0 313.5 -78t218.5 -210t78 -288v-4q0 -117 -46.5 -223.5t-126.5 -185t-195 -125t-246 -46.5zM674 303q103 0 167 71.5t64 174.5v4q0 103 -67 176.5
t-168 73.5q-103 0 -167.5 -71.5t-64.5 -174.5v-4q0 -103 67.5 -176.5t168.5 -73.5z" />
    <glyph glyph-name="p" unicode="p" horiz-adv-x="1384" 
d="M104 -328v1436h390v-147q67 81 144 126.5t191 45.5q99 0 188.5 -40.5t156.5 -113t107 -182t40 -238.5v-4q0 -131 -39.5 -241.5t-107 -184t-156.5 -114t-187 -40.5q-115 0 -194.5 43t-142.5 117v-463h-390zM711 301q97 0 162 70.5t65 181.5v4q0 108 -65.5 179t-161.5 71
q-95 0 -160.5 -71t-65.5 -179v-4q0 -109 65.5 -180.5t160.5 -71.5z" />
    <glyph glyph-name="q" unicode="q" horiz-adv-x="1384" 
d="M891 -328v475q-67 -81 -145.5 -126.5t-192.5 -45.5q-98 0 -187 40.5t-156.5 113t-107 182t-39.5 238.5v4q0 131 39.5 241.5t106.5 184t155.5 114t186.5 40.5q115 0 195 -43t145 -117v135h389v-1436h-389zM672 301q95 0 160 71.5t65 180.5v4q0 108 -65 179t-160 71
t-161.5 -70.5t-66.5 -179.5v-4q0 -109 66.5 -180.5t161.5 -71.5z" />
    <glyph glyph-name="r" unicode="r" horiz-adv-x="876" 
d="M104 0v1108h390v-223q104 252 350 241v-409h-33q-317 0 -317 -373v-344h-390z" />
    <glyph glyph-name="s" unicode="s" horiz-adv-x="1052" 
d="M545 -25q-297 0 -525 164l146 236q192 -127 381 -127q98 0 98 59v4q0 30 -38.5 48.5t-139.5 46.5q-73 19 -125.5 37.5t-106.5 47.5t-87 64.5t-53.5 87.5t-20.5 117v4q0 173 123 269.5t321 96.5q122 0 242 -34t215 -95l-133 -245q-86 47 -174 74.5t-154 27.5
q-43 0 -66.5 -14.5t-23.5 -38.5v-4q0 -30 39.5 -49.5t140.5 -49.5q73 -20 125.5 -39.5t106.5 -49t87 -64.5t53.5 -85.5t20.5 -113.5v-4q0 -179 -122 -275t-330 -96z" />
    <glyph glyph-name="t" unicode="t" horiz-adv-x="882" 
d="M545 -23q-182 0 -277.5 87.5t-95.5 279.5v451h-131v313h131v281h389v-281h258v-313h-258v-375q0 -58 26 -84.5t81 -26.5q71 0 147 37v-305q-115 -64 -270 -64z" />
    <glyph glyph-name="u" unicode="u" horiz-adv-x="1298" 
d="M473 -25q-176 0 -276.5 109t-100.5 299v725h389v-600q0 -89 43 -137.5t115 -48.5q71 0 116.5 49t45.5 137v600h389v-1108h-389v152q-139 -177 -332 -177z" />
    <glyph glyph-name="v" unicode="v" horiz-adv-x="1280" 
d="M463 -8l-443 1116h410l213 -647l213 647h404l-443 -1116h-354z" />
    <glyph glyph-name="w" unicode="w" horiz-adv-x="1763" 
d="M362 -8l-337 1116h381l145 -557l170 561h321l172 -565l150 561h375l-342 -1116h-336l-180 575l-185 -575h-334z" />
    <glyph glyph-name="x" unicode="x" horiz-adv-x="1206" 
d="M16 0l373 559l-366 549h419l164 -272l164 272h412l-365 -547l373 -561h-418l-172 285l-174 -285h-410z" />
    <glyph glyph-name="y" unicode="y" horiz-adv-x="1282" 
d="M432 -334q-184 0 -356 96l121 273q99 -60 170 -60q58 0 90 45l-434 1088h407l221 -668l209 668h400l-406 -1081q-73 -197 -166 -279t-256 -82z" />
    <glyph glyph-name="z" unicode="z" horiz-adv-x="1153" 
d="M66 0v256l512 543h-494v309h1010v-256l-514 -543h514v-309h-1028z" />
    <glyph glyph-name="braceleft" unicode="{" horiz-adv-x="1003" 
d="M879 -289q-203 24 -322.5 75t-169 127.5t-49.5 192.5q0 15 3 74.5t3 77.5q0 113 -58 157t-184 44h-32v258h32q126 0 184 44t58 157q0 18 -3 77t-3 74q0 116 49.5 192.5t169 127.5t322.5 75l59 -227q-109 -24 -164 -54.5t-72.5 -69.5t-17.5 -107q0 -16 3 -69t3 -75
q0 -110 -57 -176.5t-172 -97.5q115 -31 172 -98t57 -177q0 -23 -3 -75t-3 -68q0 -68 17.5 -107t72.5 -69.5t164 -54.5z" />
    <glyph glyph-name="bar" unicode="|" horiz-adv-x="727" 
d="M215 -262v1896h297v-1896h-297z" />
    <glyph glyph-name="braceright" unicode="}" horiz-adv-x="1003" 
d="M125 -289l-59 228q82 18 132 38t77 49t35.5 61t8.5 83q0 16 -3 68t-3 75q0 110 57.5 177t172.5 98q-115 31 -172.5 97.5t-57.5 176.5q0 22 3 75t3 69q0 51 -8.5 83t-35.5 61t-77 49t-132 38l59 227q203 -24 322.5 -75t169 -127.5t49.5 -192.5q0 -15 -3.5 -74t-3.5 -77
q0 -113 58 -157t184 -44h33v-258h-33q-126 0 -184 -44t-58 -157q0 -18 3.5 -77.5t3.5 -74.5q0 -116 -49.5 -192.5t-169 -127.5t-322.5 -75z" />
    <glyph glyph-name="asciitilde" unicode="~" horiz-adv-x="1034" 
d="M272 451l-188 51q35 157 94 231t160 74q69 0 181 -40t138 -40q40 0 61.5 21t43.5 73l188 -51q-35 -157 -94 -231t-160 -74q-68 0 -181 40t-140 40q-40 0 -60.5 -21t-42.5 -73z" />
    <glyph glyph-name="uni00A0" unicode="&#xa0;" horiz-adv-x="567" 
 />
    <glyph glyph-name="exclamdown" unicode="&#xa1;" horiz-adv-x="663" 
d="M129 1085v349h406v-349h-406zM111 0v174l118 793h205l119 -793v-174h-442z" />
    <glyph glyph-name="cent" unicode="&#xa2;" horiz-adv-x="1177" 
d="M449 188q-172 59 -277.5 205t-105.5 330v4q0 159 72 288.5t205 206.5t304 81l25 143h235l-30 -178q165 -61 258 -199l-238 -182q-46 56 -96 82l-94 -516q108 14 194 116l236 -172q-161 -235 -459 -243l-29 -166h-235zM610 1006q-92 -13 -149.5 -92t-57.5 -183v-4
q0 -82 30 -144t85 -96z" />
    <glyph glyph-name="sterling" unicode="&#xa3;" horiz-adv-x="1308" 
d="M90 0v236l154 59v244h-154v278h154v105q0 254 141 395t391 141q293 0 477 -207l-241 -264q-96 117 -209 117q-76 0 -120 -48.5t-44 -133.5v-105h442v-278h-442v-226h600v-313h-1149z" />
    <glyph glyph-name="yen" unicode="&#xa5;" horiz-adv-x="1449" 
d="M528 0v190h-376v246h376v103h-376v245h282l-426 650h451l270 -471l270 471h443l-428 -650h284v-245h-376v-103h376v-246h-376v-190h-394z" />
    <glyph glyph-name="section" unicode="&#xa7;" horiz-adv-x="1282" 
d="M633 -27q-147 0 -275.5 45t-210.5 117l158 223q78 -56 166 -88t170 -32q111 0 111 61v4q0 29 -46 49.5t-153 42.5q-86 19 -148 36.5t-126 43.5t-103.5 55.5t-64.5 71t-25 92.5v4q0 159 186 226q-96 74 -96 202v4q0 144 123 237t350 93q147 0 275.5 -45t210.5 -117
l-158 -223q-167 121 -336 121q-111 0 -111 -61v-5q0 -28 44.5 -48.5t154.5 -43.5q87 -19 148 -36t126 -43t104 -55.5t64 -71.5t25 -93v-4q0 -158 -186 -225q96 -73 96 -201v-4q0 -144 -122.5 -238t-350.5 -94zM793 608q47 0 75.5 19t28.5 53v4q0 32 -50.5 55.5t-156.5 48.5
q-142 37 -203 37q-47 0 -75.5 -18.5t-28.5 -52.5v-4q0 -32 51 -55.5t156 -49.5q145 -37 203 -37z" />
    <glyph glyph-name="dieresis" unicode="&#xa8;" 
d="M561 1204v291h332v-291h-332zM133 1204v291h330v-291h-330z" />
    <glyph glyph-name="copyright" unicode="&#xa9;" horiz-adv-x="1699" 
d="M848 -29q-153 0 -290.5 59.5t-235.5 160t-155.5 237t-57.5 285.5v4q0 149 58 286t157 238t237 161t291 60t290.5 -59.5t235.5 -159.5t155.5 -236.5t57.5 -285.5v-4q0 -149 -58 -286.5t-157 -238t-237 -161t-291 -60.5zM848 53q138 0 260.5 53t209 143t137 212t50.5 256v4
q0 179 -84.5 330t-235 240t-333.5 89q-138 0 -260.5 -53t-209 -142.5t-137 -211.5t-50.5 -256v-4q0 -134 50 -255.5t136 -210.5t208 -141.5t259 -52.5zM860 319q-178 0 -294.5 116t-116.5 288v4q0 111 52 204t148 148.5t217 55.5q115 0 194.5 -42t137.5 -120l-166 -131
q-75 92 -172 92q-80 0 -132 -59.5t-52 -145.5v-4q0 -87 51.5 -146t132.5 -59q57 0 96.5 23.5t79.5 70.5l168 -118q-63 -85 -144 -131t-200 -46z" />
    <glyph glyph-name="ordfeminine" unicode="&#xaa;" horiz-adv-x="798" 
d="M295 813q-91 0 -148 49t-57 137v5q0 93 64.5 141.5t175.5 48.5q78 0 145 -23v9q0 100 -123 100q-72 0 -168 -35l-43 152q113 47 246 47q158 0 234 -76q65 -62 65 -194v-349h-213v66q-68 -78 -178 -78zM84 553v158h612v-158h-612zM371 948q46 0 76 28t30 73v26
q-49 17 -84 17q-44 0 -70 -20.5t-26 -53.5v-4q0 -30 20.5 -48t53.5 -18z" />
    <glyph glyph-name="guillemotleft" unicode="&#xab;" horiz-adv-x="1292" 
d="M952 61l-360 480v16l360 479l279 -137l-266 -350l266 -348zM389 61l-328 439v98l328 438l281 -137l-267 -350l267 -348z" />
    <glyph glyph-name="registered" unicode="&#xae;" horiz-adv-x="753" 
d="M377 737q-150 0 -253.5 105t-103.5 252v2q0 147 104.5 252.5t252.5 105.5q150 0 253 -104.5t103 -251.5v-2q0 -147 -104 -253t-252 -106zM377 776q132 0 223.5 94t91.5 226v2q0 132 -90.5 224.5t-224.5 92.5q-133 0 -224.5 -94t-91.5 -225v-2q0 -132 91 -225t225 -93z
M217 915v377h182q76 0 120 -33t44 -96q0 -87 -76 -119l88 -129h-133l-73 109h-35v-109h-117zM334 1112h59q53 0 53 41t-51 41h-61v-82z" />
    <glyph glyph-name="macron" unicode="&#xaf;" 
d="M129 1219v233h768v-233h-768z" />
    <glyph glyph-name="degree" unicode="&#xb0;" horiz-adv-x="966" 
d="M483 721q-152 0 -262 106t-110 254v4q0 149 111 257t261 108q149 0 261 -108.5t112 -256.5v-4q0 -148 -110.5 -254t-262.5 -106zM483 909q73 0 122.5 50.5t49.5 121.5v4q0 72 -50.5 123.5t-121.5 51.5q-72 0 -122 -51.5t-50 -123.5v-4q0 -71 49.5 -121.5t122.5 -50.5z
" />
    <glyph glyph-name="plusminus" unicode="&#xb1;" horiz-adv-x="1310" 
d="M1186 770l-369 2l2 -344h-327l2 344l-369 -2v309l369 -2l-2 344h327l-2 -344l369 2v-309zM1186 0h-1061v287h1061v-287z" />
    <glyph glyph-name="acute" unicode="&#xb4;" 
d="M270 1204l213 377l361 -117l-303 -260h-271z" />
    <glyph glyph-name="paragraph" unicode="&#xb6;" horiz-adv-x="1220" 
d="M694 0v451h-43q-272 0 -439 127.5t-167 357.5v4q0 234 162 364t438 130h449v-1434h-400z" />
    <glyph glyph-name="periodcentered" unicode="&#xb7;" horiz-adv-x="581" 
d="M88 440v400h406v-400h-406z" />
    <glyph glyph-name="cedilla" unicode="&#xb8;" 
d="M532 -354l-307 131l195 264h252z" />
    <glyph glyph-name="ordmasculine" unicode="&#xba;" horiz-adv-x="798" 
d="M397 809q-141 0 -235 90.5t-94 222.5v4q0 133 95 225.5t238 92.5q141 0 235.5 -91t94.5 -223v-4q0 -133 -95.5 -225t-238.5 -92zM104 553v158h590v-158h-590zM401 991q55 0 88 37t33 94v4q0 58 -35 98t-90 40q-54 0 -87.5 -38.5t-33.5 -95.5v-4q0 -58 35 -96.5t90 -38.5z
" />
    <glyph glyph-name="guillemotright" unicode="&#xbb;" horiz-adv-x="1292" 
d="M903 61l-278 138l266 350l-266 348l278 139l328 -438v-98zM342 61l-281 138l267 350l-267 348l281 139l358 -479v-16z" />
    <glyph glyph-name="questiondown" unicode="&#xbf;" horiz-adv-x="1105" 
d="M395 1085v349h406v-349h-406zM555 -23q-227 0 -368.5 117t-141.5 314v4q0 94 29.5 166.5t85 122t124.5 81.5t160 54l23 131h248l53 -342l-18 -19q-173 -15 -247.5 -55t-74.5 -109v-2q0 -53 41.5 -82.5t114.5 -29.5q146 0 297 135l206 -270q-216 -216 -532 -216z" />
    <glyph glyph-name="Agrave" unicode="&#xc0;" horiz-adv-x="1628" 
d="M12 0l611 1444h383l610 -1444h-426l-105 256h-553l-102 -256h-418zM649 565h322l-160 408zM745 1884l224 -332h-291l-303 220z" />
    <glyph glyph-name="Aacute" unicode="&#xc1;" horiz-adv-x="1628" 
d="M12 0l611 1444h383l610 -1444h-426l-105 256h-553l-102 -256h-418zM649 565h322l-160 408zM662 1552l221 332l370 -112l-303 -220h-288z" />
    <glyph glyph-name="Acircumflex" unicode="&#xc2;" horiz-adv-x="1628" 
d="M12 0l611 1444h383l610 -1444h-426l-105 256h-553l-102 -256h-418zM649 565h322l-160 408zM389 1546l252 305h346l252 -305h-266l-162 109l-162 -109h-260z" />
    <glyph glyph-name="Atilde" unicode="&#xc3;" horiz-adv-x="1628" 
d="M12 0l611 1444h383l610 -1444h-426l-105 256h-553l-102 -256h-418zM649 565h322l-160 408zM563 1536l-186 51q35 157 95 231t163 74q68 0 189.5 -40t148.5 -40q40 0 62 21.5t44 73.5l187 -52q-33 -155 -93.5 -229t-162.5 -74q-69 0 -190.5 40t-147.5 40q-41 0 -64.5 -22
t-44.5 -74z" />
    <glyph glyph-name="Adieresis" unicode="&#xc4;" horiz-adv-x="1628" 
d="M12 0l611 1444h383l610 -1444h-426l-105 256h-553l-102 -256h-418zM649 565h322l-160 408zM870 1552v283h338v-283h-338zM418 1552v283h338v-283h-338z" />
    <glyph glyph-name="Aring" unicode="&#xc5;" horiz-adv-x="1628" 
d="M526 1518q0 109 84 182.5t205 73.5t205 -73.5t84 -182.5q0 -94 -62 -162l574 -1356h-426l-105 256h-553l-102 -256h-418l574 1358q-60 70 -60 160zM649 565h322l-160 408zM668 1518q0 -58 41 -96t106 -38t106.5 38t41.5 96q0 56 -41.5 94.5t-106.5 38.5t-106 -38t-41 -95
z" />
    <glyph glyph-name="AE" unicode="&#xc6;" horiz-adv-x="2177" 
d="M-10 0l758 1434h1341v-338h-715v-217h643v-314h-643v-227h725v-338h-1112v256h-463l-133 -256h-401zM684 565h303v543h-24z" />
    <glyph glyph-name="Ccedilla" unicode="&#xc7;" horiz-adv-x="1497" 
d="M778 -354l-307 131l160 217q-243 59 -398 256t-155 463v4q0 155 57.5 292.5t157 237t240.5 157.5t301 58q392 0 608 -299l-299 -231q-66 82 -141 125t-173 43q-149 0 -245.5 -110t-96.5 -269v-4q0 -163 96.5 -273t245.5 -110q105 0 178.5 43.5t145.5 130.5l299 -213
q-67 -92 -140 -156t-180.5 -109t-238.5 -55z" />
    <glyph glyph-name="Egrave" unicode="&#xc8;" horiz-adv-x="1368" 
d="M639 1864l223 -332h-291l-303 219zM127 0v1434h1153v-338h-760v-217h688v-314h-688v-227h770v-338h-1163z" />
    <glyph glyph-name="Eacute" unicode="&#xc9;" horiz-adv-x="1368" 
d="M555 1532l221 332l371 -113l-303 -219h-289zM127 0v1434h1153v-338h-760v-217h688v-314h-688v-227h770v-338h-1163z" />
    <glyph glyph-name="Ecircumflex" unicode="&#xca;" horiz-adv-x="1368" 
d="M127 0v1434h1153v-338h-760v-217h688v-314h-688v-227h770v-338h-1163zM283 1532l252 305h346l252 -305h-267l-161 108l-162 -108h-260z" />
    <glyph glyph-name="Edieresis" unicode="&#xcb;" horiz-adv-x="1368" 
d="M764 1532v283h338v-283h-338zM311 1532v283h338v-283h-338zM127 0v1434h1153v-338h-760v-217h688v-314h-688v-227h770v-338h-1163z" />
    <glyph glyph-name="Igrave" unicode="&#xcc;" horiz-adv-x="669" 
d="M135 0v1434h400v-1434h-400zM266 1864l223 -332h-290l-303 219z" />
    <glyph glyph-name="Iacute" unicode="&#xcd;" horiz-adv-x="669" 
d="M135 0v1434h400v-1434h-400zM182 1532l221 332l371 -113l-303 -219h-289z" />
    <glyph glyph-name="Icircumflex" unicode="&#xce;" horiz-adv-x="669" 
d="M135 0v1434h400v-1434h-400zM-88 1532l252 305h346l252 -305h-266l-162 108l-162 -108h-260z" />
    <glyph glyph-name="Idieresis" unicode="&#xcf;" horiz-adv-x="669" 
d="M135 0v1434h400v-1434h-400zM393 1532v283h338v-283h-338zM-59 1532v283h338v-283h-338z" />
    <glyph glyph-name="Eth" unicode="&#xd0;" horiz-adv-x="1669" 
d="M227 0v565h-164v314h164v555h555q188 0 340.5 -52.5t254.5 -146.5t157 -224.5t55 -285.5v-4q0 -155 -55.5 -287t-158.5 -228.5t-257.5 -151t-343.5 -54.5h-547zM612 342h174q184 0 291 98.5t107 274.5v4q0 176 -107 275.5t-291 99.5h-174v-220h244v-305h-244v-227z" />
    <glyph glyph-name="Ntilde" unicode="&#xd1;" horiz-adv-x="1607" 
d="M553 1516l-186 51q35 157 95 231t163 74q68 0 189.5 -40t148.5 -40q40 0 62 21.5t44 72.5l186 -51q-33 -155 -93.5 -229t-162.5 -74q-69 0 -190 40t-147 40q-41 0 -64.5 -22t-44.5 -74zM127 0v1434h371l589 -758v758h394v-1434h-348l-613 786v-786h-393z" />
    <glyph glyph-name="Ograve" unicode="&#xd2;" horiz-adv-x="1701" 
d="M782 1884l224 -332h-291l-303 220zM848 -29q-163 0 -306.5 58.5t-245 158t-160 236.5t-58.5 289v4q0 152 59.5 289.5t161.5 237.5t246 159t307 59t306.5 -58t245 -157.5t160 -236.5t58.5 -289v-4q0 -152 -59.5 -290t-161.5 -238t-246 -159t-307 -59zM852 330
q161 0 263 112t102 271v4q0 159 -104 273t-265 114q-159 0 -261 -112t-102 -271v-4q0 -159 104 -273t263 -114z" />
    <glyph glyph-name="Oacute" unicode="&#xd3;" horiz-adv-x="1701" 
d="M698 1552l222 332l370 -112l-303 -220h-289zM848 -29q-163 0 -306.5 58.5t-245 158t-160 236.5t-58.5 289v4q0 152 59.5 289.5t161.5 237.5t246 159t307 59t306.5 -58t245 -157.5t160 -236.5t58.5 -289v-4q0 -152 -59.5 -290t-161.5 -238t-246 -159t-307 -59zM852 330
q161 0 263 112t102 271v4q0 159 -104 273t-265 114q-159 0 -261 -112t-102 -271v-4q0 -159 104 -273t263 -114z" />
    <glyph glyph-name="Ocircumflex" unicode="&#xd4;" horiz-adv-x="1701" 
d="M848 -29q-163 0 -306.5 58.5t-245 158t-160 236.5t-58.5 289v4q0 152 59.5 289.5t161.5 237.5t246 159t307 59t306.5 -58t245 -157.5t160 -236.5t58.5 -289v-4q0 -152 -59.5 -290t-161.5 -238t-246 -159t-307 -59zM852 330q161 0 263 112t102 271v4q0 159 -104 273
t-265 114q-159 0 -261 -112t-102 -271v-4q0 -159 104 -273t263 -114zM426 1552l252 306h346l252 -306h-266l-162 109l-162 -109h-260z" />
    <glyph glyph-name="Otilde" unicode="&#xd5;" horiz-adv-x="1701" 
d="M600 1536l-186 51q35 157 95 231t163 74q68 0 189.5 -40t148.5 -40q40 0 62 21.5t44 73.5l187 -52q-33 -155 -93.5 -229t-162.5 -74q-69 0 -190.5 40t-147.5 40q-41 0 -64.5 -22t-44.5 -74zM848 -29q-163 0 -306.5 58.5t-245 158t-160 236.5t-58.5 289v4
q0 152 59.5 289.5t161.5 237.5t246 159t307 59t306.5 -58t245 -157.5t160 -236.5t58.5 -289v-4q0 -152 -59.5 -290t-161.5 -238t-246 -159t-307 -59zM852 330q161 0 263 112t102 271v4q0 159 -104 273t-265 114q-159 0 -261 -112t-102 -271v-4q0 -159 104 -273t263 -114z
" />
    <glyph glyph-name="Odieresis" unicode="&#xd6;" horiz-adv-x="1701" 
d="M907 1552v283h338v-283h-338zM455 1552v283h338v-283h-338zM848 -29q-163 0 -306.5 58.5t-245 158t-160 236.5t-58.5 289v4q0 152 59.5 289.5t161.5 237.5t246 159t307 59t306.5 -58t245 -157.5t160 -236.5t58.5 -289v-4q0 -152 -59.5 -290t-161.5 -238t-246 -159
t-307 -59zM852 330q161 0 263 112t102 271v4q0 159 -104 273t-265 114q-159 0 -261 -112t-102 -271v-4q0 -159 104 -273t263 -114z" />
    <glyph glyph-name="multiply" unicode="&#xd7;" horiz-adv-x="1310" 
d="M958 182l-305 314l-305 -314l-231 232l313 305l-315 305l237 238l307 -314l306 314l231 -232l-313 -305l313 -305z" />
    <glyph glyph-name="Oslash" unicode="&#xd8;" horiz-adv-x="1701" 
d="M848 -29q-224 0 -406 109l-80 -90h-301l205 229q-90 99 -139 226t-49 268v4q0 152 59.5 289.5t161.5 237.5t246 159t307 59q228 0 405 -108l80 90h301l-202 -232q89 -98 137.5 -224t48.5 -267v-4q0 -152 -59.5 -290t-161.5 -238t-246 -159t-307 -59zM528 518l486 555
q-73 39 -166 39q-162 0 -265.5 -114.5t-103.5 -276.5v-4q0 -111 49 -199zM852 322q163 0 267 114t104 277v4q0 110 -49 198l-488 -555q74 -38 166 -38z" />
    <glyph glyph-name="Ugrave" unicode="&#xd9;" horiz-adv-x="1552" 
d="M707 1864l223 -332h-291l-303 219zM772 -27q-315 0 -489 163.5t-174 492.5v805h403v-797q0 -151 70 -228t194 -77t194 74t70 221v807h404v-795q0 -171 -47 -299t-136 -208t-211.5 -119.5t-277.5 -39.5z" />
    <glyph glyph-name="Uacute" unicode="&#xda;" horiz-adv-x="1552" 
d="M623 1532l221 332l370 -113l-303 -219h-288zM772 -27q-315 0 -489 163.5t-174 492.5v805h403v-797q0 -151 70 -228t194 -77t194 74t70 221v807h404v-795q0 -171 -47 -299t-136 -208t-211.5 -119.5t-277.5 -39.5z" />
    <glyph glyph-name="Ucircumflex" unicode="&#xdb;" horiz-adv-x="1552" 
d="M772 -27q-315 0 -489 163.5t-174 492.5v805h403v-797q0 -151 70 -228t194 -77t194 74t70 221v807h404v-795q0 -171 -47 -299t-136 -208t-211.5 -119.5t-277.5 -39.5zM352 1532l252 305h346l252 -305h-266l-162 108l-162 -108h-260z" />
    <glyph glyph-name="Udieresis" unicode="&#xdc;" horiz-adv-x="1552" 
d="M834 1532v283h337v-283h-337zM381 1532v283h338v-283h-338zM772 -27q-315 0 -489 163.5t-174 492.5v805h403v-797q0 -151 70 -228t194 -77t194 74t70 221v807h404v-795q0 -171 -47 -299t-136 -208t-211.5 -119.5t-277.5 -39.5z" />
    <glyph glyph-name="Yacute" unicode="&#xdd;" horiz-adv-x="1480" 
d="M541 0v537l-545 897h453l294 -523l297 523h445l-545 -891v-543h-399zM588 1532l221 332l371 -113l-303 -219h-289z" />
    <glyph glyph-name="Thorn" unicode="&#xde;" horiz-adv-x="1396" 
d="M127 0v1434h397v-205h219q273 0 433.5 -131.5t160.5 -366.5v-4q0 -165 -80.5 -282t-217 -173.5t-316.5 -56.5h-199v-215h-397zM524 532h191q104 0 165.5 51t61.5 136v4q0 91 -61 139.5t-168 48.5h-189v-379z" />
    <glyph glyph-name="germandbls" unicode="&#xdf;" horiz-adv-x="1300" 
d="M629 -6v278q109 6 170 49.5t61 116.5v4q0 71 -62.5 114t-168.5 52v207q168 84 168 219v4q0 68 -40 109t-102 41q-74 0 -118.5 -52t-44.5 -147v-989h-388v981q0 244 145.5 388t412.5 144q233 0 372.5 -122t139.5 -306v-4q0 -119 -58.5 -203.5t-154.5 -132.5
q55 -18 102.5 -46t90 -69.5t67 -101.5t24.5 -131v-4q0 -199 -171.5 -306.5t-444.5 -92.5z" />
    <glyph glyph-name="agrave" unicode="&#xe0;" horiz-adv-x="1226" 
d="M422 -25q-164 0 -268.5 90.5t-104.5 251.5v5q0 168 117 258t317 90q149 0 267 -43v18q0 180 -222 180q-152 0 -305 -61l-80 274q211 86 449 86q287 0 422 -135q119 -116 119 -352v-637h-385v115q-127 -140 -326 -140zM561 219q86 0 139.5 50t53.5 132v52q-68 28 -152 28
t-131 -37.5t-47 -99.5v-4q0 -56 38 -88.5t99 -32.5zM500 1212l-301 261l360 116l211 -377h-270z" />
    <glyph glyph-name="aacute" unicode="&#xe1;" horiz-adv-x="1226" 
d="M422 -25q-164 0 -268.5 90.5t-104.5 251.5v5q0 168 117 258t317 90q149 0 267 -43v18q0 180 -222 180q-152 0 -305 -61l-80 274q211 86 449 86q287 0 422 -135q119 -116 119 -352v-637h-385v115q-127 -140 -326 -140zM561 219q86 0 139.5 50t53.5 132v52q-68 28 -152 28
t-131 -37.5t-47 -99.5v-4q0 -56 38 -88.5t99 -32.5zM473 1212l213 377l361 -116l-304 -261h-270z" />
    <glyph glyph-name="acircumflex" unicode="&#xe2;" horiz-adv-x="1226" 
d="M422 -25q-164 0 -268.5 90.5t-104.5 251.5v5q0 168 117 258t317 90q149 0 267 -43v18q0 180 -222 180q-152 0 -305 -61l-80 274q211 86 449 86q287 0 422 -135q119 -116 119 -352v-637h-385v115q-127 -140 -326 -140zM561 219q86 0 139.5 50t53.5 132v52q-68 28 -152 28
t-131 -37.5t-47 -99.5v-4q0 -56 38 -88.5t99 -32.5zM201 1212l262 336h315l262 -336h-249l-173 125l-172 -125h-245z" />
    <glyph glyph-name="atilde" unicode="&#xe3;" horiz-adv-x="1226" 
d="M422 -25q-164 0 -268.5 90.5t-104.5 251.5v5q0 168 117 258t317 90q149 0 267 -43v18q0 180 -222 180q-152 0 -305 -61l-80 274q211 86 449 86q287 0 422 -135q119 -116 119 -352v-637h-385v115q-127 -140 -326 -140zM561 219q86 0 139.5 50t53.5 132v52q-68 28 -152 28
t-131 -37.5t-47 -99.5v-4q0 -56 38 -88.5t99 -32.5zM383 1196l-186 51q35 157 94 231t160 74q69 0 181 -39.5t138 -39.5q40 0 61 21t43 73l187 -51q-33 -157 -92 -230.5t-162 -73.5q-68 0 -180.5 40t-139.5 40q-40 0 -61 -21t-43 -75z" />
    <glyph glyph-name="adieresis" unicode="&#xe4;" horiz-adv-x="1226" 
d="M422 -25q-164 0 -268.5 90.5t-104.5 251.5v5q0 168 117 258t317 90q149 0 267 -43v18q0 180 -222 180q-152 0 -305 -61l-80 274q211 86 449 86q287 0 422 -135q119 -116 119 -352v-637h-385v115q-127 -140 -326 -140zM561 219q86 0 139.5 50t53.5 132v52q-68 28 -152 28
t-131 -37.5t-47 -99.5v-4q0 -56 38 -88.5t99 -32.5zM670 1212v291h331v-291h-331zM242 1212v291h329v-291h-329z" />
    <glyph glyph-name="aring" unicode="&#xe5;" horiz-adv-x="1226" 
d="M422 -25q-164 0 -268.5 90.5t-104.5 251.5v5q0 168 117 258t317 90q149 0 267 -43v18q0 180 -222 180q-152 0 -305 -61l-80 274q211 86 449 86q287 0 422 -135q119 -116 119 -352v-637h-385v115q-127 -140 -326 -140zM561 219q86 0 139.5 50t53.5 132v52q-68 28 -152 28
t-131 -37.5t-47 -99.5v-4q0 -56 38 -88.5t99 -32.5zM350 1475q0 109 79 184.5t192 75.5q114 0 193 -75.5t79 -184.5t-79 -185t-193 -76q-113 0 -192 76t-79 185zM481 1475q0 -59 41 -100.5t99 -41.5t99.5 41.5t41.5 100.5q0 60 -41 101.5t-100 41.5t-99.5 -41.5
t-40.5 -101.5z" />
    <glyph glyph-name="ae" unicode="&#xe6;" horiz-adv-x="1925" 
d="M461 -25q-116 0 -207.5 37.5t-148 116t-56.5 188.5v5q0 168 117 258t317 90q149 0 267 -43v18q0 180 -222 180q-152 0 -305 -61l-80 274q211 86 449 86q250 0 375 -125q140 134 346 134q109 0 199.5 -32t155 -88t109 -132.5t66 -166t21.5 -188.5q0 -26 -4 -80h-742
q24 -89 86.5 -135.5t153.5 -46.5q70 0 127.5 27t118.5 86l215 -178q-177 -226 -480 -226q-132 0 -243.5 43.5t-190.5 122.5q-216 -164 -444 -164zM1114 645h385q-11 93 -63 147t-131 54q-76 0 -126.5 -54.5t-64.5 -146.5zM567 223q111 0 224 90q-31 74 -39 140
q-68 28 -150 28q-84 0 -131 -37.5t-47 -99.5v-4q0 -54 40 -85.5t103 -31.5z" />
    <glyph glyph-name="ccedilla" unicode="&#xe7;" horiz-adv-x="1165" 
d="M598 -354l-307 131l164 223q-177 57 -286.5 208t-109.5 341v4q0 156 74.5 287.5t211.5 210.5t308 79q318 0 473 -247l-264 -197q-42 59 -90.5 88t-116.5 29q-93 0 -155 -72t-62 -174v-4q0 -108 62 -180t159 -72q65 0 114.5 28.5t98.5 86.5l261 -189q-152 -223 -418 -250z
" />
    <glyph glyph-name="egrave" unicode="&#xe8;" horiz-adv-x="1241" 
d="M653 -27q-262 0 -428 159.5t-166 416.5v4q0 120 41.5 227t114.5 184.5t177.5 123t225.5 45.5q139 0 248 -48.5t176 -133t101.5 -192.5t34.5 -233q0 -53 -2 -80h-742q23 -89 85.5 -135.5t154.5 -46.5q130 0 246 113l215 -178q-177 -226 -482 -226zM428 645h385
q-11 93 -62 147t-130 54q-75 0 -126.5 -54.5t-66.5 -146.5zM502 1212l-301 261l360 116l211 -377h-270z" />
    <glyph glyph-name="eacute" unicode="&#xe9;" horiz-adv-x="1241" 
d="M475 1212l213 377l361 -116l-304 -261h-270zM653 -27q-262 0 -428 159.5t-166 416.5v4q0 120 41.5 227t114.5 184.5t177.5 123t225.5 45.5q139 0 248 -48.5t176 -133t101.5 -192.5t34.5 -233q0 -53 -2 -80h-742q23 -89 85.5 -135.5t154.5 -46.5q130 0 246 113l215 -178
q-177 -226 -482 -226zM428 645h385q-11 93 -62 147t-130 54q-75 0 -126.5 -54.5t-66.5 -146.5z" />
    <glyph glyph-name="ecircumflex" unicode="&#xea;" horiz-adv-x="1241" 
d="M203 1212l262 336h315l262 -336h-249l-172 125l-172 -125h-246zM653 -27q-262 0 -428 159.5t-166 416.5v4q0 120 41.5 227t114.5 184.5t177.5 123t225.5 45.5q139 0 248 -48.5t176 -133t101.5 -192.5t34.5 -233q0 -53 -2 -80h-742q23 -89 85.5 -135.5t154.5 -46.5
q130 0 246 113l215 -178q-177 -226 -482 -226zM428 645h385q-11 93 -62 147t-130 54q-75 0 -126.5 -54.5t-66.5 -146.5z" />
    <glyph glyph-name="edieresis" unicode="&#xeb;" horiz-adv-x="1241" 
d="M672 1212v291h332v-291h-332zM244 1212v291h329v-291h-329zM653 -27q-262 0 -428 159.5t-166 416.5v4q0 120 41.5 227t114.5 184.5t177.5 123t225.5 45.5q139 0 248 -48.5t176 -133t101.5 -192.5t34.5 -233q0 -53 -2 -80h-742q23 -89 85.5 -135.5t154.5 -46.5
q130 0 246 113l215 -178q-177 -226 -482 -226zM428 645h385q-11 93 -62 147t-130 54q-75 0 -126.5 -54.5t-66.5 -146.5z" />
    <glyph glyph-name="igrave" unicode="&#xec;" horiz-adv-x="616" 
d="M113 0v1108h389v-1108h-389zM186 1204l-301 260l361 117l211 -377h-271z" />
    <glyph glyph-name="iacute" unicode="&#xed;" horiz-adv-x="616" 
d="M160 1204l213 377l360 -117l-303 -260h-270zM113 0v1108h389v-1108h-389z" />
    <glyph glyph-name="icircumflex" unicode="&#xee;" horiz-adv-x="616" 
d="M-113 1204l263 336h315l262 -336h-250l-172 125l-172 -125h-246zM113 0v1108h389v-1108h-389z" />
    <glyph glyph-name="idieresis" unicode="&#xef;" horiz-adv-x="616" 
d="M356 1204v291h332v-291h-332zM-72 1204v291h330v-291h-330zM113 0v1108h389v-1108h-389z" />
    <glyph glyph-name="eth" unicode="&#xf0;" horiz-adv-x="1345" 
d="M1128 1331l-131 -31q285 -309 285 -673v-4q0 -185 -74 -332.5t-214 -232.5t-324 -85q-267 0 -438 168.5t-171 429.5v4q0 231 134 381t337 150q78 0 136.5 -18.5t122.5 -57.5q-64 97 -156 189l-246 -58l-59 170l143 33q-79 63 -182 131h489l62 -49l229 53zM674 303
q103 0 168 71t65 173v4q0 104 -67.5 177t-169.5 73q-103 0 -167.5 -71t-64.5 -175v-4q0 -103 67.5 -175.5t168.5 -72.5z" />
    <glyph glyph-name="ntilde" unicode="&#xf1;" horiz-adv-x="1298" 
d="M104 0v1108h390v-156q142 181 331 181q176 0 276.5 -109t100.5 -299v-725h-389v600q0 89 -42.5 137.5t-113.5 48.5q-73 0 -118 -49t-45 -137v-600h-390zM414 1196l-187 51q35 157 94 231t160 74q69 0 181.5 -39.5t138.5 -39.5q40 0 61 21t43 73l187 -51
q-33 -157 -92 -230.5t-162 -73.5q-68 0 -180.5 40t-139.5 40q-40 0 -61 -21t-43 -75z" />
    <glyph glyph-name="ograve" unicode="&#xf2;" horiz-adv-x="1343" 
d="M670 -27q-130 0 -244.5 46t-194.5 123.5t-126 183.5t-46 223v4q0 117 46.5 223.5t127 185t195.5 125t246 46.5q173 0 313.5 -78t218.5 -210t78 -288v-4q0 -117 -46.5 -223.5t-126.5 -185t-195 -125t-246 -46.5zM674 303q103 0 167 71.5t64 174.5v4q0 103 -67 176.5
t-168 73.5q-103 0 -167.5 -71.5t-64.5 -174.5v-4q0 -103 67.5 -176.5t168.5 -73.5zM549 1212l-301 261l360 116l211 -377h-270z" />
    <glyph glyph-name="oacute" unicode="&#xf3;" horiz-adv-x="1343" 
d="M522 1212l213 377l361 -116l-303 -261h-271zM670 -27q-130 0 -244.5 46t-194.5 123.5t-126 183.5t-46 223v4q0 117 46.5 223.5t127 185t195.5 125t246 46.5q173 0 313.5 -78t218.5 -210t78 -288v-4q0 -117 -46.5 -223.5t-126.5 -185t-195 -125t-246 -46.5zM674 303
q103 0 167 71.5t64 174.5v4q0 103 -67 176.5t-168 73.5q-103 0 -167.5 -71.5t-64.5 -174.5v-4q0 -103 67.5 -176.5t168.5 -73.5z" />
    <glyph glyph-name="ocircumflex" unicode="&#xf4;" horiz-adv-x="1343" 
d="M252 1212l262 336h315l263 -336h-250l-172 125l-172 -125h-246zM670 -27q-130 0 -244.5 46t-194.5 123.5t-126 183.5t-46 223v4q0 117 46.5 223.5t127 185t195.5 125t246 46.5q173 0 313.5 -78t218.5 -210t78 -288v-4q0 -117 -46.5 -223.5t-126.5 -185t-195 -125
t-246 -46.5zM674 303q103 0 167 71.5t64 174.5v4q0 103 -67 176.5t-168 73.5q-103 0 -167.5 -71.5t-64.5 -174.5v-4q0 -103 67.5 -176.5t168.5 -73.5z" />
    <glyph glyph-name="otilde" unicode="&#xf5;" horiz-adv-x="1343" 
d="M670 -27q-130 0 -244.5 46t-194.5 123.5t-126 183.5t-46 223v4q0 117 46.5 223.5t127 185t195.5 125t246 46.5q173 0 313.5 -78t218.5 -210t78 -288v-4q0 -117 -46.5 -223.5t-126.5 -185t-195 -125t-246 -46.5zM674 303q103 0 167 71.5t64 174.5v4q0 103 -67 176.5
t-168 73.5q-103 0 -167.5 -71.5t-64.5 -174.5v-4q0 -103 67.5 -176.5t168.5 -73.5zM432 1196l-186 51q35 157 94 231t160 74q69 0 181 -39.5t138 -39.5q40 0 61.5 21t43.5 73l186 -51q-33 -157 -92 -230.5t-162 -73.5q-68 0 -180 40t-139 40q-41 0 -62 -21.5t-43 -74.5z" />
    <glyph glyph-name="odieresis" unicode="&#xf6;" horiz-adv-x="1343" 
d="M721 1212v291h332v-291h-332zM293 1212v291h330v-291h-330zM670 -27q-130 0 -244.5 46t-194.5 123.5t-126 183.5t-46 223v4q0 117 46.5 223.5t127 185t195.5 125t246 46.5q173 0 313.5 -78t218.5 -210t78 -288v-4q0 -117 -46.5 -223.5t-126.5 -185t-195 -125t-246 -46.5z
M674 303q103 0 167 71.5t64 174.5v4q0 103 -67 176.5t-168 73.5q-103 0 -167.5 -71.5t-64.5 -174.5v-4q0 -103 67.5 -176.5t168.5 -73.5z" />
    <glyph glyph-name="divide" unicode="&#xf7;" horiz-adv-x="1310" 
d="M473 1008v329h365v-329h-365zM1194 565h-1077v312h1077v-312zM473 104v330h365v-330h-365z" />
    <glyph glyph-name="oslash" unicode="&#xf8;" horiz-adv-x="1343" 
d="M670 -27q-169 0 -312 78l-57 -61h-272l170 188q-140 159 -140 371v4q0 117 46.5 223.5t127 185t195.5 125t246 46.5q169 0 309 -78l59 63h273q-129 -141 -170 -188q139 -158 139 -373v-4q0 -117 -46.5 -223.5t-126.5 -185t-195 -125t-246 -46.5zM442 446l320 355
q-41 18 -92 18q-110 0 -179 -76.5t-69 -185.5v-4q0 -52 20 -107zM674 287q110 0 179 76.5t69 185.5v4q0 48 -21 106l-317 -356q43 -16 90 -16z" />
    <glyph glyph-name="ugrave" unicode="&#xf9;" horiz-adv-x="1298" 
d="M473 -25q-176 0 -276.5 109t-100.5 299v725h389v-600q0 -89 43 -137.5t115 -48.5q71 0 116.5 49t45.5 137v600h389v-1108h-389v152q-139 -177 -332 -177zM522 1204l-301 260l361 117l211 -377h-271z" />
    <glyph glyph-name="uacute" unicode="&#xfa;" horiz-adv-x="1298" 
d="M496 1204l213 377l360 -117l-303 -260h-270zM473 -25q-176 0 -276.5 109t-100.5 299v725h389v-600q0 -89 43 -137.5t115 -48.5q71 0 116.5 49t45.5 137v600h389v-1108h-389v152q-139 -177 -332 -177z" />
    <glyph glyph-name="ucircumflex" unicode="&#xfb;" horiz-adv-x="1298" 
d="M223 1204l262 336h316l262 -336h-250l-172 125l-172 -125h-246zM473 -25q-176 0 -276.5 109t-100.5 299v725h389v-600q0 -89 43 -137.5t115 -48.5q71 0 116.5 49t45.5 137v600h389v-1108h-389v152q-139 -177 -332 -177z" />
    <glyph glyph-name="udieresis" unicode="&#xfc;" horiz-adv-x="1298" 
d="M692 1204v291h332v-291h-332zM264 1204v291h330v-291h-330zM473 -25q-176 0 -276.5 109t-100.5 299v725h389v-600q0 -89 43 -137.5t115 -48.5q71 0 116.5 49t45.5 137v600h389v-1108h-389v152q-139 -177 -332 -177z" />
    <glyph glyph-name="yacute" unicode="&#xfd;" horiz-adv-x="1282" 
d="M432 -334q-184 0 -356 96l121 273q99 -60 170 -60q58 0 90 45l-434 1088h407l221 -668l209 668h400l-406 -1081q-73 -197 -166 -279t-256 -82zM498 1204l213 377l360 -117l-303 -260h-270z" />
    <glyph glyph-name="thorn" unicode="&#xfe;" horiz-adv-x="1384" 
d="M104 -328v1823h390v-534q67 81 144 126.5t191 45.5q99 0 188.5 -40.5t156.5 -113t107 -182t40 -238.5v-4q0 -131 -39.5 -241.5t-107 -184t-156.5 -114t-187 -40.5q-115 0 -194.5 43t-142.5 117v-463h-390zM713 301q95 0 160 70.5t65 181.5v4q0 108 -65.5 179t-161.5 71
q-95 0 -160.5 -71t-65.5 -179v-4q0 -109 66 -180.5t162 -71.5z" />
    <glyph glyph-name="ydieresis" unicode="&#xff;" horiz-adv-x="1282" 
d="M432 -334q-184 0 -356 96l121 273q99 -60 170 -60q58 0 90 45l-434 1088h407l221 -668l209 668h400l-406 -1081q-73 -197 -166 -279t-256 -82zM696 1204v291h332v-291h-332zM268 1204v291h330v-291h-330z" />
    <glyph glyph-name="Amacron" unicode="&#x100;" horiz-adv-x="1628" 
d="M12 0l611 1444h383l610 -1444h-426l-105 256h-553l-102 -256h-418zM649 565h322l-160 408zM406 1567v239h815v-239h-815z" />
    <glyph glyph-name="amacron" unicode="&#x101;" horiz-adv-x="1226" 
d="M422 -25q-164 0 -268.5 90.5t-104.5 251.5v5q0 168 117 258t317 90q149 0 267 -43v18q0 180 -222 180q-152 0 -305 -61l-80 274q211 86 449 86q287 0 422 -135q119 -116 119 -352v-637h-385v115q-127 -140 -326 -140zM561 219q86 0 139.5 50t53.5 132v52q-68 28 -152 28
t-131 -37.5t-47 -99.5v-4q0 -56 38 -88.5t99 -32.5zM238 1227v233h768v-233h-768z" />
    <glyph glyph-name="Abreve" unicode="&#x102;" horiz-adv-x="1628" 
d="M12 0l611 1444h383l610 -1444h-426l-105 256h-553l-102 -256h-418zM649 565h322l-160 408zM815 1548q-171 0 -277 79.5t-126 230.5h235q39 -93 168 -93q69 0 109 23.5t61 69.5h234q-20 -152 -125.5 -231t-278.5 -79z" />
    <glyph glyph-name="abreve" unicode="&#x103;" horiz-adv-x="1226" 
d="M422 -25q-164 0 -268.5 90.5t-104.5 251.5v5q0 168 117 258t317 90q149 0 267 -43v18q0 180 -222 180q-152 0 -305 -61l-80 274q211 86 449 86q287 0 422 -135q119 -116 119 -352v-637h-385v115q-127 -140 -326 -140zM561 219q86 0 139.5 50t53.5 132v52q-68 28 -152 28
t-131 -37.5t-47 -99.5v-4q0 -56 38 -88.5t99 -32.5zM621 1208q-172 0 -280.5 89.5t-123.5 250.5h227q41 -118 177 -118q135 0 176 118h227q-13 -161 -122 -250.5t-281 -89.5z" />
    <glyph glyph-name="Aogonek" unicode="&#x104;" horiz-adv-x="1628" 
d="M1628 -336q-193 -27 -312.5 23t-119.5 147q0 84 82 166h-88l-105 256h-553l-102 -256h-418l611 1444h383l610 -1444h-90q-45 -50 -45 -96q0 -80 147 -74v-166zM649 565h322l-160 408z" />
    <glyph glyph-name="aogonek" unicode="&#x105;" horiz-adv-x="1226" 
d="M1143 -336q-193 -27 -312.5 23t-119.5 147q0 84 82 166h-45v115q-127 -140 -326 -140q-164 0 -268.5 90.5t-104.5 251.5v5q0 168 117 258t317 90q149 0 267 -43v18q0 180 -222 180q-152 0 -305 -61l-80 274q211 86 449 86q287 0 422 -135q119 -116 119 -352v-637h-93
q-45 -50 -45 -96q0 -80 148 -74v-166zM561 219q86 0 139.5 50t53.5 132v52q-68 28 -152 28t-131 -37.5t-47 -99.5v-4q0 -56 38 -88.5t99 -32.5z" />
    <glyph glyph-name="Cacute" unicode="&#x106;" horiz-adv-x="1497" 
d="M817 -29q-203 0 -372 95.5t-268 266t-99 380.5v4q0 155 57.5 292.5t157 237t240.5 157.5t301 58q392 0 608 -299l-299 -231q-66 82 -141 125t-173 43q-149 0 -245.5 -110t-96.5 -269v-4q0 -163 96.5 -273t245.5 -110q105 0 178.5 43.5t145.5 130.5l299 -213
q-73 -100 -154.5 -168t-205 -112t-275.5 -44zM664 1552l221 332l370 -112l-303 -220h-288z" />
    <glyph glyph-name="cacute" unicode="&#x107;" horiz-adv-x="1165" 
d="M498 1212l213 377l360 -116l-303 -261h-270zM639 -27q-163 0 -297 78.5t-208.5 210.5t-74.5 287v4q0 156 74.5 287.5t211.5 210.5t308 79q318 0 473 -247l-264 -197q-42 59 -90.5 88t-116.5 29q-93 0 -155 -72t-62 -174v-4q0 -108 62 -180t159 -72q65 0 114.5 28.5
t98.5 86.5l261 -189q-170 -254 -494 -254z" />
    <glyph glyph-name="Cdotaccent" unicode="&#x10a;" horiz-adv-x="1497" 
d="M643 1552v283h348v-283h-348zM817 -29q-203 0 -372 95.5t-268 266t-99 380.5v4q0 155 57.5 292.5t157 237t240.5 157.5t301 58q392 0 608 -299l-299 -231q-66 82 -141 125t-173 43q-149 0 -245.5 -110t-96.5 -269v-4q0 -163 96.5 -273t245.5 -110q105 0 178.5 43.5
t145.5 130.5l299 -213q-73 -100 -154.5 -168t-205 -112t-275.5 -44z" />
    <glyph glyph-name="cdotaccent" unicode="&#x10b;" horiz-adv-x="1165" 
d="M639 -27q-163 0 -297 78.5t-208.5 210.5t-74.5 287v4q0 156 74.5 287.5t211.5 210.5t308 79q318 0 473 -247l-264 -197q-42 59 -90.5 88t-116.5 29q-93 0 -155 -72t-62 -174v-4q0 -108 62 -180t159 -72q65 0 114.5 28.5t98.5 86.5l261 -189q-170 -254 -494 -254z
M477 1212v291h342v-291h-342z" />
    <glyph glyph-name="Ccaron" unicode="&#x10c;" horiz-adv-x="1497" 
d="M817 -29q-203 0 -372 95.5t-268 266t-99 380.5v4q0 155 57.5 292.5t157 237t240.5 157.5t301 58q392 0 608 -299l-299 -231q-66 82 -141 125t-173 43q-149 0 -245.5 -110t-96.5 -269v-4q0 -163 96.5 -273t245.5 -110q105 0 178.5 43.5t145.5 130.5l299 -213
q-73 -100 -154.5 -168t-205 -112t-275.5 -44zM1243 1858l-252 -306h-346l-252 306h264l162 -109l162 109h262z" />
    <glyph glyph-name="ccaron" unicode="&#x10d;" horiz-adv-x="1165" 
d="M1067 1548l-262 -336h-316l-262 336h250l172 -125l172 125h246zM639 -27q-163 0 -297 78.5t-208.5 210.5t-74.5 287v4q0 156 74.5 287.5t211.5 210.5t308 79q318 0 473 -247l-264 -197q-42 59 -90.5 88t-116.5 29q-93 0 -155 -72t-62 -174v-4q0 -108 62 -180t159 -72
q65 0 114.5 28.5t98.5 86.5l261 -189q-170 -254 -494 -254z" />
    <glyph glyph-name="Dcaron" unicode="&#x10e;" horiz-adv-x="1568" 
d="M1184 1837l-252 -305h-346l-252 305h264l162 -108l162 108h262zM127 0v1434h553q189 0 342 -52.5t255 -146.5t157 -224.5t55 -285.5v-4q0 -155 -55.5 -287t-158.5 -228.5t-258 -151t-345 -54.5h-545zM524 352h162q181 0 288 96t107 267v4q0 170 -107 266t-288 96h-162
v-729z" />
    <glyph glyph-name="dcaron" unicode="&#x10f;" horiz-adv-x="1384" 
d="M1374 1055l23 440h268v-6l-133 -434h-158zM553 -25q-98 0 -187 40.5t-156.5 113t-107 182t-39.5 238.5v4q0 131 39.5 241.5t106.5 184t155.5 114t186.5 40.5q115 0 195 -43t145 -117v522h389v-1495h-389v147q-67 -81 -145.5 -126.5t-192.5 -45.5zM672 301q95 0 160 71.5
t65 180.5v4q0 108 -65 179t-160 71t-161.5 -70.5t-66.5 -179.5v-4q0 -109 66.5 -180.5t161.5 -71.5z" />
    <glyph glyph-name="Dcroat" unicode="&#x110;" horiz-adv-x="1669" 
d="M227 0v565h-164v314h164v555h555q188 0 340.5 -52.5t254.5 -146.5t157 -224.5t55 -285.5v-4q0 -155 -55.5 -287t-158.5 -228.5t-257.5 -151t-343.5 -54.5h-547zM612 342h174q184 0 291 98.5t107 274.5v4q0 176 -107 275.5t-291 99.5h-174v-220h244v-305h-244v-227z" />
    <glyph glyph-name="dcroat" unicode="&#x111;" horiz-adv-x="1384" 
d="M584 1217v184h307v94h389v-94h129v-184h-129v-1217h-389v147q-67 -81 -145.5 -126.5t-192.5 -45.5q-98 0 -187 40.5t-156.5 113t-107 182t-39.5 238.5v4q0 131 39.5 241.5t106.5 184t155.5 114t186.5 40.5q115 0 195 -43t145 -117v244h-307zM672 301q95 0 160 71.5
t65 180.5v4q0 108 -65 179t-160 71t-161.5 -70.5t-66.5 -179.5v-4q0 -109 66.5 -180.5t161.5 -71.5z" />
    <glyph glyph-name="Emacron" unicode="&#x112;" horiz-adv-x="1368" 
d="M299 1546v240h815v-240h-815zM127 0v1434h1153v-338h-760v-217h688v-314h-688v-227h770v-338h-1163z" />
    <glyph glyph-name="emacron" unicode="&#x113;" horiz-adv-x="1241" 
d="M653 -27q-262 0 -428 159.5t-166 416.5v4q0 120 41.5 227t114.5 184.5t177.5 123t225.5 45.5q139 0 248 -48.5t176 -133t101.5 -192.5t34.5 -233q0 -53 -2 -80h-742q23 -89 85.5 -135.5t154.5 -46.5q130 0 246 113l215 -178q-177 -226 -482 -226zM428 645h385
q-11 93 -62 147t-130 54q-75 0 -126.5 -54.5t-66.5 -146.5zM240 1227v233h768v-233h-768z" />
    <glyph glyph-name="Ebreve" unicode="&#x114;" horiz-adv-x="1368" 
d="M709 1528q-172 0 -278 79t-126 230h236q39 -92 168 -92q69 0 109 23t61 69h233q-20 -152 -125 -230.5t-278 -78.5zM127 0v1434h1153v-338h-760v-217h688v-314h-688v-227h770v-338h-1163z" />
    <glyph glyph-name="ebreve" unicode="&#x115;" horiz-adv-x="1241" 
d="M653 -27q-262 0 -428 159.5t-166 416.5v4q0 120 41.5 227t114.5 184.5t177.5 123t225.5 45.5q139 0 248 -48.5t176 -133t101.5 -192.5t34.5 -233q0 -53 -2 -80h-742q23 -89 85.5 -135.5t154.5 -46.5q130 0 246 113l215 -178q-177 -226 -482 -226zM428 645h385
q-11 93 -62 147t-130 54q-75 0 -126.5 -54.5t-66.5 -146.5zM623 1208q-172 0 -280.5 89.5t-123.5 250.5h227q41 -118 177 -118q135 0 176 118h227q-13 -161 -122 -250.5t-281 -89.5z" />
    <glyph glyph-name="Edotaccent" unicode="&#x116;" horiz-adv-x="1368" 
d="M532 1532v283h349v-283h-349zM127 0v1434h1153v-338h-760v-217h688v-314h-688v-227h770v-338h-1163z" />
    <glyph glyph-name="edotaccent" unicode="&#x117;" horiz-adv-x="1241" 
d="M653 -27q-262 0 -428 159.5t-166 416.5v4q0 120 41.5 227t114.5 184.5t177.5 123t225.5 45.5q139 0 248 -48.5t176 -133t101.5 -192.5t34.5 -233q0 -53 -2 -80h-742q23 -89 85.5 -135.5t154.5 -46.5q130 0 246 113l215 -178q-177 -226 -482 -226zM428 645h385
q-11 93 -62 147t-130 54q-75 0 -126.5 -54.5t-66.5 -146.5zM453 1212v291h342v-291h-342z" />
    <glyph glyph-name="Eogonek" unicode="&#x118;" horiz-adv-x="1368" 
d="M127 0v1434h1153v-338h-760v-217h688v-314h-688v-227h770v-338h-104q-45 -50 -45 -96q0 -80 147 -74v-166q-193 -27 -312.5 23t-119.5 147q0 84 82 166h-811z" />
    <glyph glyph-name="eogonek" unicode="&#x119;" horiz-adv-x="1239" 
d="M653 -27q-262 0 -428 159.5t-166 416.5v4q0 120 41.5 227t114.5 184.5t177.5 123t225.5 45.5q139 0 248 -48.5t176 -133t101.5 -192.5t34.5 -233q0 -53 -2 -80h-742q23 -89 85.5 -135.5t154.5 -46.5q130 0 246 113l215 -178q-71 -81 -131 -136q-97 -92 -97 -151
q0 -46 36.5 -65.5t113.5 -16.5v-166q-193 -27 -312.5 22t-119.5 142q0 73 71 147q-6 0 -21.5 -1t-21.5 -1zM428 645h385q-11 93 -62 147t-130 54q-75 0 -126.5 -54.5t-66.5 -146.5z" />
    <glyph glyph-name="Ecaron" unicode="&#x11a;" horiz-adv-x="1368" 
d="M1133 1837l-252 -305h-346l-252 305h264l162 -108l161 108h263zM127 0v1434h1153v-338h-760v-217h688v-314h-688v-227h770v-338h-1163z" />
    <glyph glyph-name="ecaron" unicode="&#x11b;" horiz-adv-x="1241" 
d="M1042 1548l-262 -336h-315l-262 336h250l172 -125l172 125h245zM653 -27q-262 0 -428 159.5t-166 416.5v4q0 120 41.5 227t114.5 184.5t177.5 123t225.5 45.5q139 0 248 -48.5t176 -133t101.5 -192.5t34.5 -233q0 -53 -2 -80h-742q23 -89 85.5 -135.5t154.5 -46.5
q130 0 246 113l215 -178q-177 -226 -482 -226zM428 645h385q-11 93 -62 147t-130 54q-75 0 -126.5 -54.5t-66.5 -146.5z" />
    <glyph glyph-name="Gbreve" unicode="&#x11e;" horiz-adv-x="1574" 
d="M836 1548q-172 0 -278 79.5t-126 230.5h236q39 -93 168 -93q69 0 109 23.5t61 69.5h233q-20 -152 -125 -231t-278 -79zM858 -29q-165 0 -309.5 55.5t-248 152.5t-163 235.5t-59.5 298.5v4q0 155 58.5 292.5t160.5 237t245.5 157.5t307.5 58q182 0 322 -53t260 -156
l-234 -280q-80 68 -162 101.5t-184 33.5q-155 0 -261 -114t-106 -279v-4q0 -173 109.5 -285.5t279.5 -112.5q139 0 230 60v174h-283v291h660v-645q-270 -222 -623 -222z" />
    <glyph glyph-name="gbreve" unicode="&#x11f;" horiz-adv-x="1384" 
d="M649 -332q-307 0 -555 127l125 258q188 -104 387 -104q145 0 218 69.5t73 202.5v43q-67 -77 -148.5 -121.5t-193.5 -44.5q-102 0 -191.5 36t-156.5 101.5t-105.5 163t-38.5 213.5v4q0 116 39 214.5t105 164t153 102t183 36.5q115 0 195.5 -40.5t152.5 -115.5v131h389
v-842q0 -299 -143 -442q-156 -156 -488 -156zM672 397q98 0 161.5 61t63.5 154v4q0 92 -63.5 152.5t-161.5 60.5q-99 0 -163.5 -61t-64.5 -154v-4q0 -92 64 -152.5t164 -60.5zM711 1208q-172 0 -280.5 89.5t-123.5 250.5h228q41 -118 176 -118t176 118h227
q-13 -161 -122 -250.5t-281 -89.5z" />
    <glyph glyph-name="Gdotaccent" unicode="&#x120;" horiz-adv-x="1574" 
d="M659 1552v283h349v-283h-349zM858 -29q-165 0 -309.5 55.5t-248 152.5t-163 235.5t-59.5 298.5v4q0 155 58.5 292.5t160.5 237t245.5 157.5t307.5 58q182 0 322 -53t260 -156l-234 -280q-80 68 -162 101.5t-184 33.5q-155 0 -261 -114t-106 -279v-4q0 -173 109.5 -285.5
t279.5 -112.5q139 0 230 60v174h-283v291h660v-645q-270 -222 -623 -222z" />
    <glyph glyph-name="gdotaccent" unicode="&#x121;" horiz-adv-x="1384" 
d="M649 -332q-307 0 -555 127l125 258q188 -104 387 -104q145 0 218 69.5t73 202.5v43q-67 -77 -148.5 -121.5t-193.5 -44.5q-102 0 -191.5 36t-156.5 101.5t-105.5 163t-38.5 213.5v4q0 116 39 214.5t105 164t153 102t183 36.5q115 0 195.5 -40.5t152.5 -115.5v131h389
v-842q0 -299 -143 -442q-156 -156 -488 -156zM672 397q98 0 161.5 61t63.5 154v4q0 92 -63.5 152.5t-161.5 60.5q-99 0 -163.5 -61t-64.5 -154v-4q0 -92 64 -152.5t164 -60.5zM541 1212v291h342v-291h-342z" />
    <glyph glyph-name="Gcommaaccent" unicode="&#x122;" horiz-adv-x="1574" 
d="M668 -643l-17 117q88 7 125.5 40t32.5 93h-139v278h331v-227q0 -155 -83.5 -225t-249.5 -76zM858 -29q-165 0 -309.5 55.5t-248 152.5t-163 235.5t-59.5 298.5v4q0 155 58.5 292.5t160.5 237t245.5 157.5t307.5 58q182 0 322 -53t260 -156l-234 -280q-80 68 -162 101.5
t-184 33.5q-155 0 -261 -114t-106 -279v-4q0 -173 109.5 -285.5t279.5 -112.5q139 0 230 60v174h-283v291h660v-645q-270 -222 -623 -222z" />
    <glyph glyph-name="gcommaaccent" unicode="&#x123;" horiz-adv-x="1384" 
d="M872 1739l17 -117q-88 -7 -125.5 -40t-32.5 -93h139v-279h-331v228q0 155 83.5 225t249.5 76zM649 -332q-307 0 -555 127l125 258q188 -104 387 -104q145 0 218 69.5t73 202.5v43q-67 -77 -148.5 -121.5t-193.5 -44.5q-102 0 -191.5 36t-156.5 101.5t-105.5 163
t-38.5 213.5v4q0 116 39 214.5t105 164t153 102t183 36.5q115 0 195.5 -40.5t152.5 -115.5v131h389v-842q0 -299 -143 -442q-156 -156 -488 -156zM672 397q98 0 161.5 61t63.5 154v4q0 92 -63.5 152.5t-161.5 60.5q-99 0 -163.5 -61t-64.5 -154v-4q0 -92 64 -152.5
t164 -60.5z" />
    <glyph glyph-name="Hbar" unicode="&#x126;" horiz-adv-x="1558" 
d="M4 1059v215h123v160h397v-160h510v160h398v-160h122v-215h-122v-1059h-398v545h-510v-545h-397v1059h-123zM524 897h510v166h-510v-166z" />
    <glyph glyph-name="hbar" unicode="&#x127;" horiz-adv-x="1298" 
d="M104 0v1217h-129v184h129v94h390v-94h307v-184h-307v-261q139 177 331 177q176 0 276.5 -109t100.5 -299v-725h-389v600q0 89 -42.5 137.5t-113.5 48.5q-73 0 -118 -49t-45 -137v-600h-390z" />
    <glyph glyph-name="Imacron" unicode="&#x12a;" horiz-adv-x="669" 
d="M135 0v1434h400v-1434h-400zM-72 1546v240h815v-240h-815z" />
    <glyph glyph-name="imacron" unicode="&#x12b;" horiz-adv-x="616" 
d="M113 0v1108h389v-1108h-389zM-76 1219v233h768v-233h-768z" />
    <glyph glyph-name="Ibreve" unicode="&#x12c;" horiz-adv-x="669" 
d="M135 0v1434h400v-1434h-400zM336 1528q-172 0 -278 79t-126 230h236q39 -92 168 -92q69 0 109 23t61 69h233q-20 -152 -125 -230.5t-278 -78.5z" />
    <glyph glyph-name="ibreve" unicode="&#x12d;" horiz-adv-x="616" 
d="M113 0v1108h389v-1108h-389zM307 1200q-172 0 -280 89.5t-123 250.5h227q41 -119 176 -119t176 119h228q-13 -161 -122 -250.5t-282 -89.5z" />
    <glyph glyph-name="Iogonek" unicode="&#x12e;" horiz-adv-x="669" 
d="M135 0v1434h400v-1434h-74q-45 -50 -45 -96q0 -80 147 -74v-166q-193 -27 -312.5 23t-119.5 147q0 84 82 166h-78z" />
    <glyph glyph-name="iogonek" unicode="&#x12f;" horiz-adv-x="616" 
d="M113 0v1108h389v-1108h-74q-45 -50 -45 -96q0 -80 147 -74v-166q-193 -27 -312.5 23t-119.5 147q0 84 82 166h-67zM104 1208v287h406v-287h-406z" />
    <glyph glyph-name="Idotaccent" unicode="&#x130;" horiz-adv-x="669" 
d="M135 0v1434h400v-1434h-400zM162 1532v283h348v-283h-348z" />
    <glyph glyph-name="dotlessi" unicode="&#x131;" horiz-adv-x="614" 
d="M113 0v1108h389v-1108h-389z" />
    <glyph glyph-name="Kcommaaccent" unicode="&#x136;" horiz-adv-x="1495" 
d="M584 -625l-17 117q88 7 125.5 40t32.5 93h-139v279h332v-228q0 -155 -84 -225t-250 -76zM127 0v1434h397v-582l494 582h471l-543 -617l561 -817h-477l-360 532l-146 -161v-371h-397z" />
    <glyph glyph-name="kcommaaccent" unicode="&#x137;" horiz-adv-x="1234" 
d="M473 -629l-16 117q87 7 124.5 40t32.5 93h-139v279h332v-228q0 -155 -84 -225t-250 -76zM104 0v1495h390v-758l301 371h440l-385 -444l395 -664h-428l-223 377l-100 -117v-260h-390z" />
    <glyph glyph-name="Lacute" unicode="&#x139;" horiz-adv-x="1263" 
d="M213 1532l221 332l371 -113l-303 -219h-289zM127 0v1434h397v-1086h695v-348h-1092z" />
    <glyph glyph-name="lacute" unicode="&#x13a;" horiz-adv-x="616" 
d="M158 1573l221 332l371 -113l-304 -219h-288zM113 0v1495h389v-1495h-389z" />
    <glyph glyph-name="Lcommaaccent" unicode="&#x13b;" horiz-adv-x="1263" 
d="M506 -629l-17 117q88 7 125.5 40t32.5 93h-139v279h332v-228q0 -155 -84 -225t-250 -76zM127 0v1434h397v-1086h695v-348h-1092z" />
    <glyph glyph-name="lcommaaccent" unicode="&#x13c;" horiz-adv-x="616" 
d="M141 -629l-16 117q88 7 125.5 40t32.5 93h-140v279h332v-228q0 -155 -84 -225t-250 -76zM113 0v1495h389v-1495h-389z" />
    <glyph glyph-name="Lcaron" unicode="&#x13d;" horiz-adv-x="1263" 
d="M643 993l23 441h268v-7l-133 -434h-158zM127 0v1434h397v-1086h695v-348h-1092z" />
    <glyph glyph-name="lcaron" unicode="&#x13e;" horiz-adv-x="616" 
d="M596 1055l22 440h269v-6l-133 -434h-158zM113 0v1495h389v-1495h-389z" />
    <glyph glyph-name="Ldot" unicode="&#x13f;" horiz-adv-x="1263" 
d="M811 670v317h326v-317h-326zM127 0v1434h397v-1086h695v-348h-1092z" />
    <glyph glyph-name="ldot" unicode="&#x140;" horiz-adv-x="858" 
d="M600 618v314h274v-314h-274zM113 0v1495h389v-1495h-389z" />
    <glyph glyph-name="Lslash" unicode="&#x141;" horiz-adv-x="1355" 
d="M918 762l-302 -129v-285h695v-348h-1092v461l-156 -66v357l156 65v617h397v-447l302 129v-354z" />
    <glyph glyph-name="lslash" unicode="&#x142;" horiz-adv-x="821" 
d="M772 750l-166 -76v-674h-389v496l-168 -76v348l168 76v651h389v-473l166 76v-348z" />
    <glyph glyph-name="Nacute" unicode="&#x143;" horiz-adv-x="1607" 
d="M651 1532l221 332l371 -113l-303 -219h-289zM127 0v1434h371l589 -758v758h394v-1434h-348l-613 786v-786h-393z" />
    <glyph glyph-name="nacute" unicode="&#x144;" horiz-adv-x="1298" 
d="M504 1212l213 377l360 -116l-303 -261h-270zM104 0v1108h390v-156q142 181 331 181q176 0 276.5 -109t100.5 -299v-725h-389v600q0 89 -42.5 137.5t-113.5 48.5q-73 0 -118 -49t-45 -137v-600h-390z" />
    <glyph glyph-name="Ncommaaccent" unicode="&#x145;" horiz-adv-x="1607" 
d="M637 -625l-16 117q87 7 124.5 40t32.5 93h-139v279h332v-228q0 -155 -84 -225t-250 -76zM127 0v1434h371l589 -758v758h394v-1434h-348l-613 786v-786h-393z" />
    <glyph glyph-name="ncommaaccent" unicode="&#x146;" horiz-adv-x="1298" 
d="M485 -629l-16 117q88 7 125.5 40t32.5 93h-140v279h332v-228q0 -155 -84 -225t-250 -76zM104 0v1108h390v-156q142 181 331 181q176 0 276.5 -109t100.5 -299v-725h-389v600q0 89 -42.5 137.5t-113.5 48.5q-73 0 -118 -49t-45 -137v-600h-390z" />
    <glyph glyph-name="Ncaron" unicode="&#x147;" horiz-adv-x="1607" 
d="M1229 1837l-252 -305h-346l-252 305h264l162 -108l162 108h262zM127 0v1434h371l589 -758v758h394v-1434h-348l-613 786v-786h-393z" />
    <glyph glyph-name="ncaron" unicode="&#x148;" horiz-adv-x="1298" 
d="M1071 1548l-262 -336h-315l-263 336h250l172 -125l172 125h246zM104 0v1108h390v-156q142 181 331 181q176 0 276.5 -109t100.5 -299v-725h-389v600q0 89 -42.5 137.5t-113.5 48.5q-73 0 -118 -49t-45 -137v-600h-390z" />
    <glyph glyph-name="Omacron" unicode="&#x14c;" horiz-adv-x="1701" 
d="M442 1567v239h815v-239h-815zM848 -29q-163 0 -306.5 58.5t-245 158t-160 236.5t-58.5 289v4q0 152 59.5 289.5t161.5 237.5t246 159t307 59t306.5 -58t245 -157.5t160 -236.5t58.5 -289v-4q0 -152 -59.5 -290t-161.5 -238t-246 -159t-307 -59zM852 330q161 0 263 112
t102 271v4q0 159 -104 273t-265 114q-159 0 -261 -112t-102 -271v-4q0 -159 104 -273t263 -114z" />
    <glyph glyph-name="omacron" unicode="&#x14d;" horiz-adv-x="1343" 
d="M289 1227v233h768v-233h-768zM670 -27q-130 0 -244.5 46t-194.5 123.5t-126 183.5t-46 223v4q0 117 46.5 223.5t127 185t195.5 125t246 46.5q173 0 313.5 -78t218.5 -210t78 -288v-4q0 -117 -46.5 -223.5t-126.5 -185t-195 -125t-246 -46.5zM674 303q103 0 167 71.5
t64 174.5v4q0 103 -67 176.5t-168 73.5q-103 0 -167.5 -71.5t-64.5 -174.5v-4q0 -103 67.5 -176.5t168.5 -73.5z" />
    <glyph glyph-name="Obreve" unicode="&#x14e;" horiz-adv-x="1701" 
d="M852 1548q-171 0 -277 79.5t-126 230.5h235q39 -93 168 -93q69 0 109 23.5t61 69.5h233q-20 -152 -125 -231t-278 -79zM848 -29q-163 0 -306.5 58.5t-245 158t-160 236.5t-58.5 289v4q0 152 59.5 289.5t161.5 237.5t246 159t307 59t306.5 -58t245 -157.5t160 -236.5
t58.5 -289v-4q0 -152 -59.5 -290t-161.5 -238t-246 -159t-307 -59zM852 330q161 0 263 112t102 271v4q0 159 -104 273t-265 114q-159 0 -261 -112t-102 -271v-4q0 -159 104 -273t263 -114z" />
    <glyph glyph-name="obreve" unicode="&#x14f;" horiz-adv-x="1343" 
d="M670 -27q-130 0 -244.5 46t-194.5 123.5t-126 183.5t-46 223v4q0 117 46.5 223.5t127 185t195.5 125t246 46.5q173 0 313.5 -78t218.5 -210t78 -288v-4q0 -117 -46.5 -223.5t-126.5 -185t-195 -125t-246 -46.5zM674 303q103 0 167 71.5t64 174.5v4q0 103 -67 176.5
t-168 73.5q-103 0 -167.5 -71.5t-64.5 -174.5v-4q0 -103 67.5 -176.5t168.5 -73.5zM672 1208q-172 0 -280.5 89.5t-123.5 250.5h228q41 -118 176 -118t176 118h227q-13 -161 -122 -250.5t-281 -89.5z" />
    <glyph glyph-name="Ohungarumlaut" unicode="&#x150;" horiz-adv-x="1701" 
d="M848 -29q-163 0 -306.5 58.5t-245 158t-160 236.5t-58.5 289v4q0 152 59.5 289.5t161.5 237.5t246 159t307 59t306.5 -58t245 -157.5t160 -236.5t58.5 -289v-4q0 -152 -59.5 -290t-161.5 -238t-246 -159t-307 -59zM852 330q161 0 263 112t102 271v4q0 159 -104 273
t-265 114q-159 0 -261 -112t-102 -271v-4q0 -159 104 -273t263 -114zM895 1552l127 201l-268 -201h-262l210 332l334 -110l70 110l344 -112l-293 -220h-262z" />
    <glyph glyph-name="ohungarumlaut" unicode="&#x151;" horiz-adv-x="1343" 
d="M670 -27q-130 0 -244.5 46t-194.5 123.5t-126 183.5t-46 223v4q0 117 46.5 223.5t127 185t195.5 125t246 46.5q173 0 313.5 -78t218.5 -210t78 -288v-4q0 -117 -46.5 -223.5t-126.5 -185t-195 -125t-246 -46.5zM322 1212l198 377l334 -114l61 114l342 -116l-294 -261
h-248l129 244l-275 -244h-247zM674 303q103 0 167 71.5t64 174.5v4q0 103 -67 176.5t-168 73.5q-103 0 -167.5 -71.5t-64.5 -174.5v-4q0 -103 67.5 -176.5t168.5 -73.5z" />
    <glyph glyph-name="OE" unicode="&#x152;" horiz-adv-x="2207" 
d="M887 0q-188 0 -341 52.5t-255.5 146.5t-157.5 224.5t-55 285.5v4q0 156 55.5 288t158.5 228.5t258 150.5t345 54h1225v-338h-715v-217h643v-314h-643v-227h725v-338h-1243zM877 346h135v741h-135q-177 0 -284.5 -98.5t-107.5 -269.5v-4q0 -169 108 -269t284 -100z" />
    <glyph glyph-name="oe" unicode="&#x153;" horiz-adv-x="2074" 
d="M655 -27q-123 0 -234 46t-190 123.5t-125.5 184t-46.5 222.5v4q0 116 47 223t127 185.5t192.5 125t238.5 46.5q123 0 228.5 -44t180.5 -122q72 79 171 122.5t216 43.5q136 0 243.5 -48.5t174 -133t101 -192.5t34.5 -233q0 -26 -4 -80h-739q23 -89 84.5 -135.5
t152.5 -46.5q70 0 129 27t119 86l215 -178q-182 -226 -475 -226q-266 0 -426 166q-77 -78 -183.5 -122t-230.5 -44zM1264 645h385q-11 93 -62.5 147t-130.5 54q-76 0 -126.5 -54t-65.5 -147zM668 303q101 0 164 71.5t63 174.5v4q0 103 -66 176.5t-165 73.5q-100 0 -163 -72
t-63 -174v-4q0 -103 66 -176.5t164 -73.5z" />
    <glyph glyph-name="Racute" unicode="&#x154;" horiz-adv-x="1472" 
d="M127 0v1434h678q314 0 467 -156q127 -124 127 -334v-4q0 -159 -78 -270t-217 -170l342 -500h-459l-289 434h-174v-434h-397zM524 745h262q100 0 156.5 45.5t56.5 124.5v5q0 83 -56.5 126.5t-158.5 43.5h-260v-345zM565 1532l221 332l371 -113l-303 -219h-289z" />
    <glyph glyph-name="racute" unicode="&#x155;" horiz-adv-x="876" 
d="M319 1204l213 377l361 -117l-303 -260h-271zM104 0v1108h390v-223q104 252 350 241v-409h-33q-317 0 -317 -373v-344h-390z" />
    <glyph glyph-name="Rcommaaccent" unicode="&#x156;" horiz-adv-x="1472" 
d="M127 0v1434h678q314 0 467 -156q127 -124 127 -334v-4q0 -159 -78 -270t-217 -170l342 -500h-459l-289 434h-174v-434h-397zM524 745h262q100 0 156.5 45.5t56.5 124.5v5q0 83 -56.5 126.5t-158.5 43.5h-260v-345zM557 -625l-16 117q87 7 124.5 40t32.5 93h-139v279h332
v-228q0 -155 -84 -225t-250 -76z" />
    <glyph glyph-name="rcommaaccent" unicode="&#x157;" horiz-adv-x="876" 
d="M143 -629l-16 117q88 7 125.5 40t32.5 93h-140v279h332v-228q0 -155 -84 -225t-250 -76zM104 0v1108h390v-223q104 252 350 241v-409h-33q-317 0 -317 -373v-344h-390z" />
    <glyph glyph-name="Rcaron" unicode="&#x158;" horiz-adv-x="1472" 
d="M127 0v1434h678q314 0 467 -156q127 -124 127 -334v-4q0 -159 -78 -270t-217 -170l342 -500h-459l-289 434h-174v-434h-397zM1145 1837l-252 -305h-346l-252 305h264l162 -108l162 108h262zM524 745h262q100 0 156.5 45.5t56.5 124.5v5q0 83 -56.5 126.5t-158.5 43.5
h-260v-345z" />
    <glyph glyph-name="rcaron" unicode="&#x159;" horiz-adv-x="876" 
d="M889 1540l-262 -336h-316l-262 336h250l172 -125l172 125h246zM104 0v1108h390v-223q104 252 350 241v-409h-33q-317 0 -317 -373v-344h-390z" />
    <glyph glyph-name="Sacute" unicode="&#x15a;" horiz-adv-x="1335" 
d="M690 -25q-194 0 -368 60.5t-304 177.5l222 264q215 -172 465 -172q79 0 121 26t42 72v5q0 46 -49.5 75t-191.5 62q-73 17 -127 31.5t-113.5 36.5t-101.5 45.5t-81.5 57.5t-64 73.5t-39 91.5t-14.5 114v4q0 203 150.5 331t404.5 128q353 0 590 -190l-199 -281
q-201 141 -401 141q-69 0 -106.5 -26t-37.5 -66v-4q0 -50 49.5 -77.5t198.5 -61.5q132 -29 224.5 -63.5t165.5 -86t109 -125.5t36 -172v-4q0 -217 -158 -342t-422 -125zM518 1552l221 332l371 -112l-303 -220h-289z" />
    <glyph glyph-name="sacute" unicode="&#x15b;" horiz-adv-x="1052" 
d="M385 1212l213 377l360 -116l-303 -261h-270zM545 -25q-297 0 -525 164l146 236q192 -127 381 -127q98 0 98 59v4q0 30 -38.5 48.5t-139.5 46.5q-73 19 -125.5 37.5t-106.5 47.5t-87 64.5t-53.5 87.5t-20.5 117v4q0 173 123 269.5t321 96.5q122 0 242 -34t215 -95
l-133 -245q-86 47 -174 74.5t-154 27.5q-43 0 -66.5 -14.5t-23.5 -38.5v-4q0 -30 39.5 -49.5t140.5 -49.5q73 -20 125.5 -39.5t106.5 -49t87 -64.5t53.5 -85.5t20.5 -113.5v-4q0 -179 -122 -275t-330 -96z" />
    <glyph glyph-name="Scedilla" unicode="&#x15e;" horiz-adv-x="1335" 
d="M668 -354l-308 131l156 213q-297 43 -498 223l222 264q215 -172 465 -172q79 0 121 26t42 72v5q0 46 -49.5 75t-191.5 62q-73 17 -127 31.5t-113.5 36.5t-101.5 45.5t-81.5 57.5t-64 73.5t-39 91.5t-14.5 114v4q0 203 150.5 331t404.5 128q353 0 590 -190l-199 -281
q-201 141 -401 141q-69 0 -106.5 -26t-37.5 -66v-4q0 -50 49.5 -77.5t198.5 -61.5q132 -29 224.5 -63.5t165.5 -86t109 -125.5t36 -172v-4q0 -197 -130.5 -317.5t-355.5 -142.5z" />
    <glyph glyph-name="scedilla" unicode="&#x15f;" horiz-adv-x="1052" 
d="M516 -354l-307 131l158 215q-196 37 -347 147l146 236q192 -127 381 -127q98 0 98 59v4q0 30 -38.5 48.5t-139.5 46.5q-73 19 -125.5 37.5t-106.5 47.5t-87 64.5t-53.5 87.5t-20.5 117v4q0 173 123 269.5t321 96.5q122 0 242 -34t215 -95l-133 -245q-86 47 -174 74.5
t-154 27.5q-43 0 -66.5 -14.5t-23.5 -38.5v-4q0 -30 39.5 -49.5t140.5 -49.5q73 -20 125.5 -39.5t106.5 -49t87 -64.5t53.5 -85.5t20.5 -113.5v-4q0 -159 -97 -252t-267 -112z" />
    <glyph glyph-name="Scaron" unicode="&#x160;" horiz-adv-x="1335" 
d="M690 -25q-194 0 -368 60.5t-304 177.5l222 264q215 -172 465 -172q79 0 121 26t42 72v5q0 46 -49.5 75t-191.5 62q-73 17 -127 31.5t-113.5 36.5t-101.5 45.5t-81.5 57.5t-64 73.5t-39 91.5t-14.5 114v4q0 203 150.5 331t404.5 128q353 0 590 -190l-199 -281
q-201 141 -401 141q-69 0 -106.5 -26t-37.5 -66v-4q0 -50 49.5 -77.5t198.5 -61.5q132 -29 224.5 -63.5t165.5 -86t109 -125.5t36 -172v-4q0 -217 -158 -342t-422 -125zM1098 1858l-252 -306h-346l-252 306h264l162 -109l162 109h262z" />
    <glyph glyph-name="scaron" unicode="&#x161;" horiz-adv-x="1052" 
d="M952 1548l-262 -336h-315l-262 336h249l173 -125l172 125h245zM545 -25q-297 0 -525 164l146 236q192 -127 381 -127q98 0 98 59v4q0 30 -38.5 48.5t-139.5 46.5q-73 19 -125.5 37.5t-106.5 47.5t-87 64.5t-53.5 87.5t-20.5 117v4q0 173 123 269.5t321 96.5
q122 0 242 -34t215 -95l-133 -245q-86 47 -174 74.5t-154 27.5q-43 0 -66.5 -14.5t-23.5 -38.5v-4q0 -30 39.5 -49.5t140.5 -49.5q73 -20 125.5 -39.5t106.5 -49t87 -64.5t53.5 -85.5t20.5 -113.5v-4q0 -179 -122 -275t-330 -96z" />
    <glyph glyph-name="Tcommaaccent" unicode="&#x162;" horiz-adv-x="1351" 
d="M510 -629l-16 117q87 7 124.5 40t32.5 93h-139v279h332v-228q0 -155 -84 -225t-250 -76zM477 0v1085h-430v349h1258v-349h-431v-1085h-397z" />
    <glyph glyph-name="tcommaaccent" unicode="&#x163;" horiz-adv-x="882" 
d="M307 -637l-16 117q88 7 125.5 40t32.5 93h-140v278h332v-227q0 -155 -84 -225t-250 -76zM545 -23q-182 0 -277.5 87.5t-95.5 279.5v451h-131v313h131v281h389v-281h258v-313h-258v-375q0 -58 26 -84.5t81 -26.5q71 0 147 37v-305q-115 -64 -270 -64z" />
    <glyph glyph-name="Tcaron" unicode="&#x164;" horiz-adv-x="1351" 
d="M1102 1837l-252 -305h-346l-252 305h264l162 -108l162 108h262zM477 0v1085h-430v349h1258v-349h-431v-1085h-397z" />
    <glyph glyph-name="tcaron" unicode="&#x165;" horiz-adv-x="882" 
d="M662 1198l22 440h268v-6l-133 -434h-157zM545 -23q-182 0 -277.5 87.5t-95.5 279.5v451h-131v313h131v281h389v-281h258v-313h-258v-375q0 -58 26 -84.5t81 -26.5q71 0 147 37v-305q-115 -64 -270 -64z" />
    <glyph glyph-name="Umacron" unicode="&#x16a;" horiz-adv-x="1552" 
d="M369 1546v240h815v-240h-815zM772 -27q-315 0 -489 163.5t-174 492.5v805h403v-797q0 -151 70 -228t194 -77t194 74t70 221v807h404v-795q0 -171 -47 -299t-136 -208t-211.5 -119.5t-277.5 -39.5z" />
    <glyph glyph-name="umacron" unicode="&#x16b;" horiz-adv-x="1298" 
d="M473 -25q-176 0 -276.5 109t-100.5 299v725h389v-600q0 -89 43 -137.5t115 -48.5q71 0 116.5 49t45.5 137v600h389v-1108h-389v152q-139 -177 -332 -177zM260 1219v233h768v-233h-768z" />
    <glyph glyph-name="Ubreve" unicode="&#x16c;" horiz-adv-x="1552" 
d="M776 1509q-171 0 -277 79.5t-126 230.5h235q39 -93 168 -93q69 0 109 23.5t61 69.5h234q-20 -152 -125.5 -231t-278.5 -79zM772 -27q-315 0 -489 163.5t-174 492.5v805h403v-797q0 -151 70 -228t194 -77t194 74t70 221v807h404v-795q0 -171 -47 -299t-136 -208
t-211.5 -119.5t-277.5 -39.5z" />
    <glyph glyph-name="ubreve" unicode="&#x16d;" horiz-adv-x="1298" 
d="M473 -25q-176 0 -276.5 109t-100.5 299v725h389v-600q0 -89 43 -137.5t115 -48.5q71 0 116.5 49t45.5 137v600h389v-1108h-389v152q-139 -177 -332 -177zM643 1200q-172 0 -280 89.5t-123 250.5h227q41 -119 176 -119t176 119h228q-13 -161 -122 -250.5t-282 -89.5z" />
    <glyph glyph-name="Uring" unicode="&#x16e;" horiz-adv-x="1552" 
d="M772 -27q-315 0 -489 163.5t-174 492.5v805h403v-797q0 -151 70 -228t194 -77t194 74t70 221v807h404v-795q0 -171 -47 -299t-136 -208t-211.5 -119.5t-277.5 -39.5zM487 1747q0 109 84 182.5t205 73.5t205 -73.5t84 -182.5q0 -111 -84 -184.5t-205 -73.5t-205 73.5
t-84 184.5zM629 1747q0 -58 41 -95.5t106 -37.5t106.5 37.5t41.5 95.5q0 56 -41.5 94.5t-106.5 38.5t-106 -38t-41 -95z" />
    <glyph glyph-name="uring" unicode="&#x16f;" horiz-adv-x="1298" 
d="M373 1444q0 109 78.5 184.5t191.5 75.5q114 0 193 -75.5t79 -184.5t-79 -184.5t-193 -75.5q-113 0 -191.5 75.5t-78.5 184.5zM504 1444q0 -59 40.5 -100t98.5 -41q59 0 100 41.5t41 99.5q0 60 -41 101.5t-100 41.5q-58 0 -98.5 -41.5t-40.5 -101.5zM473 -25
q-176 0 -276.5 109t-100.5 299v725h389v-600q0 -89 43 -137.5t115 -48.5q71 0 116.5 49t45.5 137v600h389v-1108h-389v152q-139 -177 -332 -177z" />
    <glyph glyph-name="Uhungarumlaut" unicode="&#x170;" horiz-adv-x="1552" 
d="M772 -27q-315 0 -489 163.5t-174 492.5v805h403v-797q0 -151 70 -228t194 -77t194 74t70 221v807h404v-795q0 -171 -47 -299t-136 -208t-211.5 -119.5t-277.5 -39.5zM809 1532l127 201l-268 -201h-262l210 332l334 -111l70 111l344 -113l-293 -219h-262z" />
    <glyph glyph-name="uhungarumlaut" unicode="&#x171;" horiz-adv-x="1298" 
d="M473 -25q-176 0 -276.5 109t-100.5 299v725h389v-600q0 -89 43 -137.5t115 -48.5q71 0 116.5 49t45.5 137v600h389v-1108h-389v152q-139 -177 -332 -177zM289 1204l198 377l334 -115l62 115l342 -117l-295 -260h-248l129 244l-274 -244h-248z" />
    <glyph glyph-name="Uogonek" unicode="&#x172;" horiz-adv-x="1552" 
d="M991 -336q-193 -27 -312.5 23t-119.5 147q0 75 66 150q-248 35 -382 196t-134 449v805h403v-797q0 -151 70 -228t194 -77t194 74t70 221v807h404v-795q0 -309 -150.5 -473.5t-421.5 -188.5q-28 -38 -28 -73q0 -80 147 -74v-166z" />
    <glyph glyph-name="uogonek" unicode="&#x173;" horiz-adv-x="1298" 
d="M473 -25q-176 0 -276.5 109t-100.5 299v725h389v-600q0 -89 43 -137.5t115 -48.5q71 0 116.5 49t45.5 137v600h389v-1108h-84q-45 -50 -45 -96q0 -80 147 -74v-166q-193 -27 -312.5 23t-119.5 147q0 84 82 166h-57v152q-139 -177 -332 -177z" />
    <glyph glyph-name="Wcircumflex" unicode="&#x174;" horiz-adv-x="2287" 
d="M510 -10l-479 1444h420l249 -830l277 834h342l276 -834l250 830h412l-479 -1444h-346l-289 825l-287 -825h-346zM719 1532l252 305h346l252 -305h-266l-162 108l-162 -108h-260z" />
    <glyph glyph-name="wcircumflex" unicode="&#x175;" horiz-adv-x="1763" 
d="M461 1204l262 336h315l262 -336h-249l-172 125l-172 -125h-246zM362 -8l-337 1116h381l145 -557l170 561h321l172 -565l150 561h375l-342 -1116h-336l-180 575l-185 -575h-334z" />
    <glyph glyph-name="Ycircumflex" unicode="&#x176;" horiz-adv-x="1480" 
d="M541 0v537l-545 897h453l294 -523l297 523h445l-545 -891v-543h-399zM315 1532l252 305h346l252 -305h-266l-162 108l-162 -108h-260z" />
    <glyph glyph-name="ycircumflex" unicode="&#x177;" horiz-adv-x="1282" 
d="M432 -334q-184 0 -356 96l121 273q99 -60 170 -60q58 0 90 45l-434 1088h407l221 -668l209 668h400l-406 -1081q-73 -197 -166 -279t-256 -82zM227 1204l262 336h316l262 -336h-250l-172 125l-172 -125h-246z" />
    <glyph glyph-name="Ydieresis" unicode="&#x178;" horiz-adv-x="1480" 
d="M541 0v537l-545 897h453l294 -523l297 523h445l-545 -891v-543h-399zM797 1532v283h338v-283h-338zM344 1532v283h338v-283h-338z" />
    <glyph glyph-name="Zacute" unicode="&#x179;" horiz-adv-x="1429" 
d="M82 0v289l719 809h-695v336h1244v-289l-719 -809h719v-336h-1268zM578 1532l221 332l370 -113l-303 -219h-288z" />
    <glyph glyph-name="zacute" unicode="&#x17a;" horiz-adv-x="1153" 
d="M442 1204l213 377l361 -117l-303 -260h-271zM66 0v256l512 543h-494v309h1010v-256l-514 -543h514v-309h-1028z" />
    <glyph glyph-name="Zdotaccent" unicode="&#x17b;" horiz-adv-x="1429" 
d="M557 1532v283h348v-283h-348zM82 0v289l719 809h-695v336h1244v-289l-719 -809h719v-336h-1268z" />
    <glyph glyph-name="zdotaccent" unicode="&#x17c;" horiz-adv-x="1153" 
d="M66 0v256l512 543h-494v309h1010v-256l-514 -543h514v-309h-1028zM420 1204v291h342v-291h-342z" />
    <glyph glyph-name="Zcaron" unicode="&#x17d;" horiz-adv-x="1429" 
d="M1157 1837l-252 -305h-346l-252 305h264l162 -108l162 108h262zM82 0v289l719 809h-695v336h1244v-289l-719 -809h719v-336h-1268z" />
    <glyph glyph-name="zcaron" unicode="&#x17e;" horiz-adv-x="1153" 
d="M1010 1540l-262 -336h-316l-262 336h250l172 -125l172 125h246zM66 0v256l512 543h-494v309h1010v-256l-514 -543h514v-309h-1028z" />
    <glyph glyph-name="florin" unicode="&#x192;" horiz-adv-x="1132" 
d="M227 -20q-86 0 -176 20v283q63 -13 96 -13q66 0 97 29.5t45 103.5l47 271h-125v295h176l27 133q32 181 140.5 266.5t305.5 85.5q129 0 225 -27v-286q-73 18 -137 18q-72 0 -110 -30t-50 -99l-10 -61h234v-295h-287l-57 -322q-35 -202 -137.5 -287t-303.5 -85z" />
    <glyph glyph-name="Aringacute" unicode="&#x1fa;" horiz-adv-x="1628" 
d="M526 1518q0 109 84 182.5t205 73.5t205 -73.5t84 -182.5q0 -94 -62 -162l574 -1356h-426l-105 256h-553l-102 -256h-418l574 1358q-60 70 -60 160zM655 1825l238 311l360 -117l-323 -194h-275zM649 565h322l-160 408zM668 1518q0 -58 41 -96t106 -38t106.5 38t41.5 96
q0 56 -41.5 94.5t-106.5 38.5t-106 -38t-41 -95z" />
    <glyph glyph-name="aringacute" unicode="&#x1fb;" horiz-adv-x="1226" 
d="M471 1802l229 328l351 -115l-310 -213h-270zM422 -25q-164 0 -268.5 90.5t-104.5 251.5v5q0 168 117 258t317 90q149 0 267 -43v18q0 180 -222 180q-152 0 -305 -61l-80 274q211 86 449 86q287 0 422 -135q119 -116 119 -352v-637h-385v115q-127 -140 -326 -140zM561 219
q86 0 139.5 50t53.5 132v52q-68 28 -152 28t-131 -37.5t-47 -99.5v-4q0 -56 38 -88.5t99 -32.5zM350 1475q0 109 79 184.5t192 75.5q114 0 193 -75.5t79 -184.5t-79 -185t-193 -76q-113 0 -192 76t-79 185zM481 1475q0 -59 41 -100.5t99 -41.5t99.5 41.5t41.5 100.5
q0 60 -41 101.5t-100 41.5t-99.5 -41.5t-40.5 -101.5z" />
    <glyph glyph-name="AEacute" unicode="&#x1fc;" horiz-adv-x="2177" 
d="M1110 1532l221 332l371 -113l-303 -219h-289zM-10 0l758 1434h1341v-338h-715v-217h643v-314h-643v-227h725v-338h-1112v256h-463l-133 -256h-401zM684 565h303v543h-24z" />
    <glyph glyph-name="aeacute" unicode="&#x1fd;" horiz-adv-x="1925" 
d="M807 1204l213 377l360 -117l-303 -260h-270zM461 -25q-116 0 -207.5 37.5t-148 116t-56.5 188.5v5q0 168 117 258t317 90q149 0 267 -43v18q0 180 -222 180q-152 0 -305 -61l-80 274q211 86 449 86q250 0 375 -125q140 134 346 134q109 0 199.5 -32t155 -88t109 -132.5
t66 -166t21.5 -188.5q0 -26 -4 -80h-742q24 -89 86.5 -135.5t153.5 -46.5q70 0 127.5 27t118.5 86l215 -178q-177 -226 -480 -226q-132 0 -243.5 43.5t-190.5 122.5q-216 -164 -444 -164zM1114 645h385q-11 93 -63 147t-131 54q-76 0 -126.5 -54.5t-64.5 -146.5zM567 223
q111 0 224 90q-31 74 -39 140q-68 28 -150 28q-84 0 -131 -37.5t-47 -99.5v-4q0 -54 40 -85.5t103 -31.5z" />
    <glyph glyph-name="Oslashacute" unicode="&#x1fe;" horiz-adv-x="1701" 
d="M848 -29q-224 0 -406 109l-80 -90h-301l205 229q-90 99 -139 226t-49 268v4q0 152 59.5 289.5t161.5 237.5t246 159t307 59q228 0 405 -108l80 90h301l-202 -232q89 -98 137.5 -224t48.5 -267v-4q0 -152 -59.5 -290t-161.5 -238t-246 -159t-307 -59zM528 518l486 555
q-73 39 -166 39q-162 0 -265.5 -114.5t-103.5 -276.5v-4q0 -111 49 -199zM852 322q163 0 267 114t104 277v4q0 110 -49 198l-488 -555q74 -38 166 -38zM698 1552l222 332l370 -112l-303 -220h-289z" />
    <glyph glyph-name="oslashacute" unicode="&#x1ff;" horiz-adv-x="1343" 
d="M670 -27q-169 0 -312 78l-57 -61h-272l170 188q-140 159 -140 371v4q0 117 46.5 223.5t127 185t195.5 125t246 46.5q169 0 309 -78l59 63h273q-129 -141 -170 -188q139 -158 139 -373v-4q0 -117 -46.5 -223.5t-126.5 -185t-195 -125t-246 -46.5zM442 446l320 355
q-41 18 -92 18q-110 0 -179 -76.5t-69 -185.5v-4q0 -52 20 -107zM674 287q110 0 179 76.5t69 185.5v4q0 48 -21 106l-317 -356q43 -16 90 -16zM522 1212l213 377l361 -116l-303 -261h-271z" />
    <glyph glyph-name="Scommaaccent" unicode="&#x218;" horiz-adv-x="1335" 
d="M506 -643l-17 117q88 7 125.5 40t32.5 93h-139v278h332v-227q0 -155 -84 -225t-250 -76zM690 -25q-194 0 -368 60.5t-304 177.5l222 264q215 -172 465 -172q79 0 121 26t42 72v5q0 46 -49.5 75t-191.5 62q-73 17 -127 31.5t-113.5 36.5t-101.5 45.5t-81.5 57.5t-64 73.5
t-39 91.5t-14.5 114v4q0 203 150.5 331t404.5 128q353 0 590 -190l-199 -281q-201 141 -401 141q-69 0 -106.5 -26t-37.5 -66v-4q0 -50 49.5 -77.5t198.5 -61.5q132 -29 224.5 -63.5t165.5 -86t109 -125.5t36 -172v-4q0 -217 -158 -342t-422 -125z" />
    <glyph glyph-name="scommaaccent" unicode="&#x219;" horiz-adv-x="1052" 
d="M367 -637l-17 117q88 7 125.5 40t32.5 93h-139v278h331v-227q0 -155 -83.5 -225t-249.5 -76zM545 -25q-297 0 -525 164l146 236q192 -127 381 -127q98 0 98 59v4q0 30 -38.5 48.5t-139.5 46.5q-73 19 -125.5 37.5t-106.5 47.5t-87 64.5t-53.5 87.5t-20.5 117v4
q0 173 123 269.5t321 96.5q122 0 242 -34t215 -95l-133 -245q-86 47 -174 74.5t-154 27.5q-43 0 -66.5 -14.5t-23.5 -38.5v-4q0 -30 39.5 -49.5t140.5 -49.5q73 -20 125.5 -39.5t106.5 -49t87 -64.5t53.5 -85.5t20.5 -113.5v-4q0 -179 -122 -275t-330 -96z" />
    <glyph glyph-name="schwa" unicode="&#x259;" horiz-adv-x="1241" 
d="M586 1135q262 0 428 -159.5t166 -416.5v-4q0 -120 -41.5 -227t-114.5 -184.5t-177.5 -123t-225.5 -45.5q-139 0 -248 48.5t-176 133t-101.5 192.5t-34.5 233q0 53 2 80h742q-23 89 -85.5 135.5t-154.5 46.5q-130 0 -246 -113l-215 178q177 226 482 226zM811 463h-385
q11 -93 62 -147t130 -54q75 0 126.5 54.5t66.5 146.5z" />
    <glyph glyph-name="circumflex" unicode="&#x2c6;" 
d="M92 1204l262 336h316l262 -336h-250l-172 125l-172 -125h-246z" />
    <glyph glyph-name="caron" unicode="&#x2c7;" 
d="M932 1540l-262 -336h-316l-262 336h250l172 -125l172 125h246z" />
    <glyph glyph-name="breve" unicode="&#x2d8;" 
d="M512 1200q-172 0 -280 89.5t-123 250.5h227q41 -119 176 -119t176 119h227q-13 -161 -122 -250.5t-281 -89.5z" />
    <glyph glyph-name="dotaccent" unicode="&#x2d9;" 
d="M342 1204v291h342v-291h-342z" />
    <glyph glyph-name="ring" unicode="&#x2da;" 
d="M242 1466q0 109 78.5 184.5t191.5 75.5q114 0 193 -75.5t79 -184.5t-79 -184.5t-193 -75.5q-113 0 -191.5 75.5t-78.5 184.5zM373 1466q0 -59 40.5 -100t98.5 -41t99.5 41.5t41.5 99.5q0 60 -41 102t-100 42q-58 0 -98.5 -42t-40.5 -102z" />
    <glyph glyph-name="ogonek" unicode="&#x2db;" 
d="M764 -336q-193 -27 -312.5 23t-119.5 147q0 92 102 186h248q-66 -66 -66 -116q0 -80 148 -74v-166z" />
    <glyph glyph-name="tilde" unicode="&#x2dc;" 
d="M266 1188l-186 51q35 157 94 231t160 74q69 0 181 -40t138 -40q40 0 61.5 21.5t43.5 73.5l186 -52q-33 -157 -92 -230t-162 -73q-68 0 -180 40t-139 40q-41 0 -62 -21.5t-43 -74.5z" />
    <glyph glyph-name="hungarumlaut" unicode="&#x2dd;" 
d="M57 1204l199 377l334 -115l61 115l342 -117l-295 -260h-247l129 244l-275 -244h-248z" />
    <glyph glyph-name="commaaccent" unicode="&#x326;" 
d="M344 -629l-16 117q87 7 124.5 40t32.5 93h-139v279h332v-228q0 -155 -84 -225t-250 -76z" />
    <glyph glyph-name="Wgrave" unicode="&#x1e80;" horiz-adv-x="2287" 
d="M1075 1864l223 -332h-290l-303 219zM510 -10l-479 1444h420l249 -830l277 834h342l276 -834l250 830h412l-479 -1444h-346l-289 825l-287 -825h-346z" />
    <glyph glyph-name="wgrave" unicode="&#x1e81;" horiz-adv-x="1763" 
d="M362 -8l-337 1116h381l145 -557l170 561h321l172 -565l150 561h375l-342 -1116h-336l-180 575l-185 -575h-334zM758 1204l-301 260l360 117l211 -377h-270z" />
    <glyph glyph-name="Wacute" unicode="&#x1e82;" horiz-adv-x="2287" 
d="M991 1532l221 332l371 -113l-303 -219h-289zM510 -10l-479 1444h420l249 -830l277 834h342l276 -834l250 830h412l-479 -1444h-346l-289 825l-287 -825h-346z" />
    <glyph glyph-name="wacute" unicode="&#x1e83;" horiz-adv-x="1763" 
d="M731 1204l213 377l361 -117l-304 -260h-270zM362 -8l-337 1116h381l145 -557l170 561h321l172 -565l150 561h375l-342 -1116h-336l-180 575l-185 -575h-334z" />
    <glyph glyph-name="Wdieresis" unicode="&#x1e84;" horiz-adv-x="2287" 
d="M1200 1532v283h338v-283h-338zM748 1532v283h337v-283h-337zM510 -10l-479 1444h420l249 -830l277 834h342l276 -834l250 830h412l-479 -1444h-346l-289 825l-287 -825h-346z" />
    <glyph glyph-name="wdieresis" unicode="&#x1e85;" horiz-adv-x="1763" 
d="M930 1204v291h332v-291h-332zM502 1204v291h329v-291h-329zM362 -8l-337 1116h381l145 -557l170 561h321l172 -565l150 561h375l-342 -1116h-336l-180 575l-185 -575h-334z" />
    <glyph glyph-name="Ygrave" unicode="&#x1ef2;" horiz-adv-x="1480" 
d="M541 0v537l-545 897h453l294 -523l297 523h445l-545 -891v-543h-399zM672 1864l223 -332h-291l-303 219z" />
    <glyph glyph-name="ygrave" unicode="&#x1ef3;" horiz-adv-x="1282" 
d="M432 -334q-184 0 -356 96l121 273q99 -60 170 -60q58 0 90 45l-434 1088h407l221 -668l209 668h400l-406 -1081q-73 -197 -166 -279t-256 -82zM524 1204l-301 260l361 117l211 -377h-271z" />
    <glyph glyph-name="enspace" unicode="&#x2002;" 
 />
    <glyph glyph-name="emspace" unicode="&#x2003;" horiz-adv-x="2048" 
 />
    <glyph glyph-name="threeperemspace" unicode="&#x2004;" horiz-adv-x="681" 
 />
    <glyph glyph-name="fourperemspace" unicode="&#x2005;" horiz-adv-x="512" 
 />
    <glyph glyph-name="thinspace" unicode="&#x2009;" horiz-adv-x="272" 
 />
    <glyph glyph-name="hairspace" unicode="&#x200a;" horiz-adv-x="153" 
 />
    <glyph glyph-name="endash" unicode="&#x2013;" horiz-adv-x="1081" 
d="M82 473v334h917v-334h-917z" />
    <glyph glyph-name="emdash" unicode="&#x2014;" horiz-adv-x="1839" 
d="M82 473v334h1675v-334h-1675z" />
    <glyph glyph-name="quoteleft" unicode="&#x2018;" horiz-adv-x="581" 
d="M82 702v326q0 217 108 313.5t312 102.5l33 -150q-104 -12 -156.5 -61t-48.5 -131h155v-400h-403z" />
    <glyph glyph-name="quoteright" unicode="&#x2019;" horiz-adv-x="581" 
d="M80 692l-33 150q103 11 156 60t49 132h-156v400h404v-326q0 -217 -108 -313.5t-312 -102.5z" />
    <glyph glyph-name="quotesinglbase" unicode="&#x201a;" horiz-adv-x="581" 
d="M72 -342l-31 149q103 12 155.5 61t49.5 132h-158v399h406v-325q0 -217 -109 -313.5t-313 -102.5z" />
    <glyph glyph-name="quotedblleft" unicode="&#x201c;" horiz-adv-x="1120" 
d="M625 702v326q0 214 107 312t308 104l33 -150q-207 -24 -201 -192h152v-400h-399zM82 702v326q0 214 107 312t309 104l30 -150q-207 -24 -198 -192h151v-400h-399z" />
    <glyph glyph-name="quotedblright" unicode="&#x201d;" horiz-adv-x="1120" 
d="M625 692l-33 150q102 10 153 59t48 133h-154v400h399v-326q0 -215 -106 -312.5t-307 -103.5zM80 692l-33 150q102 10 153 59t48 133h-152v400h400v-326q0 -215 -107 -312.5t-309 -103.5z" />
    <glyph glyph-name="quotedblbase" unicode="&#x201e;" horiz-adv-x="1118" 
d="M616 -342l-30 149q207 24 198 193h-151v399h399v-325q0 -215 -107 -312.5t-309 -103.5zM72 -342l-31 149q208 24 199 193h-152v399h399v-325q0 -215 -106.5 -312.5t-308.5 -103.5z" />
    <glyph glyph-name="dagger" unicode="&#x2020;" horiz-adv-x="839" 
d="M317 457l21 553l-256 -27v213l254 -27l-31 265h230l-31 -265l254 27v-213l-256 27l20 -553h-205z" />
    <glyph glyph-name="daggerdbl" unicode="&#x2021;" horiz-adv-x="880" 
d="M326 0l30 264l-254 -26v213l258 -27l-26 293l26 293l-258 -27v213l254 -27l-30 265h229l-31 -265l254 27v-213l-258 27l27 -293l-27 -293l258 27v-213l-254 26l31 -264h-229z" />
    <glyph glyph-name="bullet" unicode="&#x2022;" 
d="M512 375q-143 0 -244.5 101t-101.5 243v4q0 142 101.5 243t244.5 101t244.5 -101t101.5 -243v-4q0 -142 -101.5 -243t-244.5 -101z" />
    <glyph glyph-name="ellipsis" unicode="&#x2026;" horiz-adv-x="1720" 
d="M1235 0v393h397v-393h-397zM662 0v393h397v-393h-397zM88 0v393h397v-393h-397z" />
    <glyph glyph-name="perthousand" unicode="&#x2030;" horiz-adv-x="2652" 
d="M440 682q-163 0 -265.5 110.5t-102.5 272.5v4q0 162 102.5 273.5t267.5 111.5q164 0 266.5 -111t102.5 -272v-4q0 -162 -104 -273.5t-267 -111.5zM2210 -20q-162 0 -265.5 111t-103.5 271v5q0 162 103 273.5t268 111.5q164 0 266 -110.5t102 -272.5v-4
q0 -160 -104 -272.5t-266 -112.5zM1399 -20q-162 0 -265.5 111t-103.5 271v5q0 162 103 273.5t268 111.5q164 0 266 -110.5t102 -272.5v-4q0 -160 -104 -272.5t-266 -112.5zM442 907q52 0 85.5 45t33.5 113v4q0 68 -34.5 114t-86.5 46q-53 0 -85.5 -44.5t-32.5 -113.5v-4
q0 -69 34.5 -114.5t85.5 -45.5zM2212 205q52 0 85.5 44.5t33.5 112.5v5q0 69 -34 114t-87 45q-55 0 -87 -43.5t-32 -113.5v-4q0 -67 35 -113.5t86 -46.5zM1401 205q52 0 85.5 44.5t33.5 112.5v5q0 69 -34 114t-87 45q-55 0 -87 -43.5t-32 -113.5v-4q0 -67 35 -113.5
t86 -46.5zM834 772l501 662h277l-617 -789l-489 -645h-277z" />
    <glyph glyph-name="guilsinglleft" unicode="&#x2039;" horiz-adv-x="731" 
d="M389 61l-328 439v98l328 438l281 -137l-267 -350l267 -348z" />
    <glyph glyph-name="guilsinglright" unicode="&#x203a;" horiz-adv-x="731" 
d="M342 61l-281 138l267 350l-267 348l281 139l328 -438v-98z" />
    <glyph glyph-name="fraction" unicode="&#x2044;" horiz-adv-x="921" 
d="M-111 0l525 750l448 684h170l-524 -750l-449 -684h-170z" />
    <glyph glyph-name="Euro" unicode="&#x20ac;" horiz-adv-x="1396" 
d="M862 -29q-243 0 -404.5 132t-215.5 354h-166v213h139q-2 14 -2 43v4q0 37 2 55h-139v213h172q27 102 81 188t130.5 151t180.5 101.5t224 36.5q311 0 492 -231l-252 -236q-99 127 -238 127q-76 0 -133 -37.5t-90 -105.5h320v-207h-365q-2 -16 -2 -51v-4q0 -31 2 -47h365
v-207h-324q73 -152 235 -152q74 0 130.5 34t111.5 101l246 -231q-188 -244 -500 -244z" />
    <glyph glyph-name="published" unicode="&#x2117;" horiz-adv-x="1699" 
d="M848 -29q-153 0 -290.5 59.5t-235.5 160t-155.5 237t-57.5 285.5v4q0 149 58 286t157 238t237 161t291 60t290.5 -59.5t235.5 -159.5t155.5 -236.5t57.5 -285.5v-4q0 -149 -58 -286.5t-157 -238t-237 -161t-291 -60.5zM848 53q138 0 260.5 53t209 143t137 212t50.5 256v4
q0 179 -84.5 330t-235 240t-333.5 89q-138 0 -260.5 -53t-209 -142.5t-137 -211.5t-50.5 -256v-4q0 -134 50 -255.5t136 -210.5t208 -141.5t259 -52.5zM559 336v788h338q152 0 241 -73.5t89 -204.5v-4q0 -133 -94 -207t-244 -74h-109v-225h-221zM780 733h101q58 0 91.5 27.5
t33.5 73.5v4q0 50 -33 76t-92 26h-101v-207z" />
    <glyph glyph-name="servicemark" unicode="&#x2120;" horiz-adv-x="1437" 
d="M340 791q-87 0 -168 27.5t-139 78.5l94 115q104 -80 221 -80q82 0 82 47q0 23 -23 35.5t-90 27.5q-60 13 -99 26.5t-77 35.5t-56.5 55.5t-18.5 79.5q0 92 67 149.5t186 57.5q166 0 269 -86l-88 -121q-92 66 -187 66q-35 0 -54 -13.5t-19 -34.5q0 -23 24.5 -36t89.5 -27
q125 -26 188.5 -70t63.5 -127q0 -96 -72.5 -151t-193.5 -55zM698 803v631h187l149 -244l152 244h184v-631h-174v368l-160 -249h-6l-160 249v-368h-172z" />
    <glyph glyph-name="trademark" unicode="&#x2122;" horiz-adv-x="1423" 
d="M684 803v631h186l150 -244l151 244h185v-631h-174v368l-160 -249h-6l-160 249v-368h-172zM221 803v477h-188v154h553v-154h-189v-477h-176z" />
    <glyph glyph-name="minus" unicode="&#x2212;" horiz-adv-x="1310" 
d="M1194 549h-1077v344h1077v-344z" />
    <glyph glyph-name="Q.alt" horiz-adv-x="1701" 
d="M1245 -180l-184 180q-115 -27 -213 -27q-163 0 -306.5 58t-245 157t-160 236t-58.5 289v4q0 152 59.5 289.5t161.5 237.5t246 159t307 59t306.5 -58t245 -157.5t160 -236.5t58.5 -289v-4q0 -146 -53.5 -277.5t-151.5 -230.5l359 -369v-20h-531zM852 330q161 0 263 112
t102 271v4q0 159 -104 273t-265 114q-159 0 -261 -112t-102 -271v-4q0 -159 104 -273t263 -114z" />
    <glyph glyph-name="a.alt" horiz-adv-x="1384" 
d="M553 -25q-98 0 -187 40.5t-156.5 113t-107 182t-39.5 238.5v4q0 131 39.5 241.5t106.5 184t155.5 114t186.5 40.5q115 0 195 -43t145 -117v135h389v-1108h-389v147q-67 -81 -145.5 -126.5t-192.5 -45.5zM672 301q95 0 160 71.5t65 180.5v4q0 108 -64.5 179t-160.5 71
q-95 0 -161.5 -70.5t-66.5 -179.5v-4q0 -109 66.5 -180.5t161.5 -71.5z" />
    <glyph glyph-name="aacute.alt" horiz-adv-x="1384" 
d="M563 1212l213 377l361 -116l-303 -261h-271zM553 -25q-98 0 -187 40.5t-156.5 113t-107 182t-39.5 238.5v4q0 131 39.5 241.5t106.5 184t155.5 114t186.5 40.5q115 0 195 -43t145 -117v135h389v-1108h-389v147q-67 -81 -145.5 -126.5t-192.5 -45.5zM672 301
q95 0 160 71.5t65 180.5v4q0 108 -64.5 179t-160.5 71q-95 0 -161.5 -70.5t-66.5 -179.5v-4q0 -109 66.5 -180.5t161.5 -71.5z" />
    <glyph glyph-name="abreve.alt" horiz-adv-x="1384" 
d="M553 -25q-98 0 -187 40.5t-156.5 113t-107 182t-39.5 238.5v4q0 131 39.5 241.5t106.5 184t155.5 114t186.5 40.5q115 0 195 -43t145 -117v135h389v-1108h-389v147q-67 -81 -145.5 -126.5t-192.5 -45.5zM672 301q95 0 160 71.5t65 180.5v4q0 108 -64.5 179t-160.5 71
q-95 0 -161.5 -70.5t-66.5 -179.5v-4q0 -109 66.5 -180.5t161.5 -71.5zM711 1208q-172 0 -280.5 89.5t-123.5 250.5h228q41 -118 176 -118t176 118h227q-13 -161 -122 -250.5t-281 -89.5z" />
    <glyph glyph-name="acircumflex.alt" horiz-adv-x="1384" 
d="M291 1212l262 336h315l262 -336h-249l-172 125l-172 -125h-246zM553 -25q-98 0 -187 40.5t-156.5 113t-107 182t-39.5 238.5v4q0 131 39.5 241.5t106.5 184t155.5 114t186.5 40.5q115 0 195 -43t145 -117v135h389v-1108h-389v147q-67 -81 -145.5 -126.5t-192.5 -45.5z
M672 301q95 0 160 71.5t65 180.5v4q0 108 -64.5 179t-160.5 71q-95 0 -161.5 -70.5t-66.5 -179.5v-4q0 -109 66.5 -180.5t161.5 -71.5z" />
    <glyph glyph-name="adieresis.alt" horiz-adv-x="1384" 
d="M760 1212v291h332v-291h-332zM332 1212v291h330v-291h-330zM553 -25q-98 0 -187 40.5t-156.5 113t-107 182t-39.5 238.5v4q0 131 39.5 241.5t106.5 184t155.5 114t186.5 40.5q115 0 195 -43t145 -117v135h389v-1108h-389v147q-67 -81 -145.5 -126.5t-192.5 -45.5z
M672 301q95 0 160 71.5t65 180.5v4q0 108 -64.5 179t-160.5 71q-95 0 -161.5 -70.5t-66.5 -179.5v-4q0 -109 66.5 -180.5t161.5 -71.5z" />
    <glyph glyph-name="agrave.alt" horiz-adv-x="1384" 
d="M553 -25q-98 0 -187 40.5t-156.5 113t-107 182t-39.5 238.5v4q0 131 39.5 241.5t106.5 184t155.5 114t186.5 40.5q115 0 195 -43t145 -117v135h389v-1108h-389v147q-67 -81 -145.5 -126.5t-192.5 -45.5zM672 301q95 0 160 71.5t65 180.5v4q0 108 -64.5 179t-160.5 71
q-95 0 -161.5 -70.5t-66.5 -179.5v-4q0 -109 66.5 -180.5t161.5 -71.5zM590 1212l-301 261l360 116l211 -377h-270z" />
    <glyph glyph-name="amacron.alt" horiz-adv-x="1384" 
d="M553 -25q-98 0 -187 40.5t-156.5 113t-107 182t-39.5 238.5v4q0 131 39.5 241.5t106.5 184t155.5 114t186.5 40.5q115 0 195 -43t145 -117v135h389v-1108h-389v147q-67 -81 -145.5 -126.5t-192.5 -45.5zM672 301q95 0 160 71.5t65 180.5v4q0 108 -64.5 179t-160.5 71
q-95 0 -161.5 -70.5t-66.5 -179.5v-4q0 -109 66.5 -180.5t161.5 -71.5zM328 1227v233h768v-233h-768z" />
    <glyph glyph-name="aogonek.alt" horiz-adv-x="1384" 
d="M1296 -336q-193 -27 -312.5 23t-119.5 147q0 84 82 166h-55v147q-67 -81 -145.5 -126.5t-192.5 -45.5q-98 0 -187 40.5t-156.5 113t-107 182t-39.5 238.5v4q0 131 39.5 241.5t106.5 184t155.5 114t186.5 40.5q115 0 195 -43t145 -117v135h389v-1108h-86q-45 -50 -45 -96
q0 -80 147 -74v-166zM672 301q95 0 160 71.5t65 180.5v4q0 108 -64.5 179t-160.5 71q-95 0 -161.5 -70.5t-66.5 -179.5v-4q0 -109 66.5 -180.5t161.5 -71.5z" />
    <glyph glyph-name="aring.alt" horiz-adv-x="1384" 
d="M440 1475q0 109 79 184.5t192 75.5q114 0 193 -75.5t79 -184.5t-79 -185t-193 -76q-113 0 -192 76t-79 185zM571 1475q0 -59 41 -100.5t99 -41.5t99.5 41.5t41.5 100.5q0 60 -41 101.5t-100 41.5t-99.5 -41.5t-40.5 -101.5zM553 -25q-98 0 -187 40.5t-156.5 113t-107 182
t-39.5 238.5v4q0 131 39.5 241.5t106.5 184t155.5 114t186.5 40.5q115 0 195 -43t145 -117v135h389v-1108h-389v147q-67 -81 -145.5 -126.5t-192.5 -45.5zM672 301q95 0 160 71.5t65 180.5v4q0 108 -64.5 179t-160.5 71q-95 0 -161.5 -70.5t-66.5 -179.5v-4
q0 -109 66.5 -180.5t161.5 -71.5z" />
    <glyph glyph-name="aring.alt2" horiz-adv-x="1226" 
d="M821 1096q121 -35 193 -107q119 -116 119 -352v-637h-385v115q-127 -140 -326 -140q-164 0 -268.5 90.5t-104.5 251.5v5q0 168 117 258t317 90q149 0 267 -43v18q0 180 -222 180q-152 0 -305 -61l-80 274q135 56 265 74q-58 67 -58 154q0 109 79.5 184.5t193.5 75.5
q113 0 191.5 -75.5t78.5 -184.5q0 -98 -72 -170zM481 1266q0 -60 41.5 -102t100.5 -42q58 0 98.5 42t40.5 102q0 59 -40.5 100t-98.5 41q-59 0 -100.5 -41.5t-41.5 -99.5zM561 219q86 0 139.5 50t53.5 132v52q-68 28 -152 28t-131 -37.5t-47 -99.5v-4q0 -56 38 -88.5
t99 -32.5z" />
    <glyph glyph-name="aringacute.alt" horiz-adv-x="1384" 
d="M561 1802l230 328l350 -115l-310 -213h-270zM440 1475q0 109 79 184.5t192 75.5q114 0 193 -75.5t79 -184.5t-79 -185t-193 -76q-113 0 -192 76t-79 185zM571 1475q0 -59 41 -100.5t99 -41.5t99.5 41.5t41.5 100.5q0 60 -41 101.5t-100 41.5t-99.5 -41.5t-40.5 -101.5z
M553 -25q-98 0 -187 40.5t-156.5 113t-107 182t-39.5 238.5v4q0 131 39.5 241.5t106.5 184t155.5 114t186.5 40.5q115 0 195 -43t145 -117v135h389v-1108h-389v147q-67 -81 -145.5 -126.5t-192.5 -45.5zM672 301q95 0 160 71.5t65 180.5v4q0 108 -64.5 179t-160.5 71
q-95 0 -161.5 -70.5t-66.5 -179.5v-4q0 -109 66.5 -180.5t161.5 -71.5z" />
    <glyph glyph-name="aringacute.alt2" horiz-adv-x="1226" 
d="M471 1593l229 328l351 -115l-310 -213h-270zM821 1096q121 -35 193 -107q119 -116 119 -352v-637h-385v115q-127 -140 -326 -140q-164 0 -268.5 90.5t-104.5 251.5v5q0 168 117 258t317 90q149 0 267 -43v18q0 180 -222 180q-152 0 -305 -61l-80 274q135 56 265 74
q-58 67 -58 154q0 109 79.5 184.5t193.5 75.5q113 0 191.5 -75.5t78.5 -184.5q0 -98 -72 -170zM481 1266q0 -60 41.5 -102t100.5 -42q58 0 98.5 42t40.5 102q0 59 -40.5 100t-98.5 41q-59 0 -100.5 -41.5t-41.5 -99.5zM561 219q86 0 139.5 50t53.5 132v52q-68 28 -152 28
t-131 -37.5t-47 -99.5v-4q0 -56 38 -88.5t99 -32.5z" />
    <glyph glyph-name="atilde.alt" horiz-adv-x="1384" 
d="M553 -25q-98 0 -187 40.5t-156.5 113t-107 182t-39.5 238.5v4q0 131 39.5 241.5t106.5 184t155.5 114t186.5 40.5q115 0 195 -43t145 -117v135h389v-1108h-389v147q-67 -81 -145.5 -126.5t-192.5 -45.5zM672 301q95 0 160 71.5t65 180.5v4q0 108 -64.5 179t-160.5 71
q-95 0 -161.5 -70.5t-66.5 -179.5v-4q0 -109 66.5 -180.5t161.5 -71.5zM473 1196l-186 51q35 157 94 231t160 74q69 0 181 -39.5t138 -39.5q40 0 61.5 21t43.5 73l186 -51q-33 -157 -92 -230.5t-162 -73.5q-68 0 -180 40t-139 40q-40 0 -61.5 -21.5t-43.5 -74.5z" />
    <glyph glyph-name="three.alt" horiz-adv-x="1265" 
d="M649 -29q-380 0 -616 254l248 244q162 -162 348 -162q89 0 140.5 38.5t51.5 98.5v5q0 124 -229 124h-150v299h146q103 0 153 34t50 91v4q0 56 -49 90.5t-132 34.5q-145 0 -286 -155l-246 229q106 125 240 193.5t327 68.5q236 0 382.5 -108.5t146.5 -274.5v-4
q0 -232 -216 -332q252 -85 252 -321v-4q0 -196 -151 -321.5t-410 -125.5z" />
    <glyph glyph-name="registered.alt" horiz-adv-x="1699" 
d="M848 -29q-153 0 -290.5 59.5t-235.5 160t-155.5 237t-57.5 285.5v4q0 149 58 286t157 238t237 161t291 60t290.5 -59.5t235.5 -159.5t155.5 -236.5t57.5 -285.5v-4q0 -149 -58 -286.5t-157 -238t-237 -161t-291 -60.5zM848 55q138 0 260.5 53t209 142t137 211t50.5 256v4
q0 179 -84.5 330t-235 240t-333.5 89q-138 0 -260.5 -53t-209 -142.5t-137 -211.5t-50.5 -256v-4q0 -134 50 -255.5t136 -210t208 -140.5t259 -52zM524 344v789h369q175 0 264 -89q68 -68 68 -180v-4q0 -171 -162 -239l188 -277h-252l-159 240h-97v-240h-219zM743 754h144
q56 0 87.5 25.5t31.5 68.5v4q0 45 -32 69.5t-87 24.5h-144v-192z" />
    <glyph glyph-name="NUL" horiz-adv-x="0" 
 />
    <glyph glyph-name="hfjslug" horiz-adv-x="1421" 
d="M1319 -410h-426l-16 29h-334l-17 -29h-424v621q28 0 47 18.5t19 46.5q0 27 -19.5 46.5t-46.5 19.5v1135h205l62 161h684l59 -161h207v-1887zM819 1153v-352h31v160h78v28h-78v135h88v29h-119zM377 1153v-352h31v162h96v-162h31v352h-31v-162h-96v162h-31zM942 807
q20 -8 43 -8q64 0 64 73v281h-33v-281q0 -45 -33 -45q-13 0 -41 11v-31zM760 952l-27 6q-9 -39 -16 -61h-2l-33 64q47 44 47 86q0 28 -14 45.5t-41 17.5q-26 0 -42 -18t-16 -45q0 -9 1 -16.5t4.5 -16.5t6 -13.5t9 -16.5t8.5 -17q-47 -38 -47 -97q0 -34 16.5 -54.5
t42.5 -20.5q41 0 60 49h2l24 -49l25 12l-35 65q16 40 27 80zM1071 662v-95h16v25l17 16l31 -41h20l-41 54l37 41h-21l-40 -50h-3v50h-16zM999 598l21 -31h18l-24 35q20 8 20 29q0 13 -10 22t-25 9h-41v-95h17v31h24zM872 565q22 0 36 14.5t14 34.5q0 19 -14.5 34.5
t-35.5 15.5t-35 -15t-14 -35q0 -21 14 -35t35 -14zM758 616l-27 46h-18l37 -60v-35h16v35l37 60h-19zM395 662v-95h70v15h-53v26h47v15h-47v24h53v15h-70zM270 662v-95h17v66l51 -66h14v95h-16v-66l-51 66h-15zM494 662l28 -97h17l22 70h2l23 -70h16l29 97h-17l-20 -72h-2
l-23 72h-14l-23 -72h-2l-20 72h-16zM670 981q-25 48 -25 66q0 17 8.5 27.5t20.5 10.5q26 0 26 -38q0 -31 -30 -66zM700 866q-16 -43 -41 -43q-14 0 -23 14t-9 37q0 40 32 72zM997 612h-22v35h22q21 0 21 -16q0 -8 -6 -13.5t-15 -5.5zM872 580q-14 0 -23 10t-9 24q0 13 9 24
t23 11t23.5 -11t9.5 -24q0 -14 -9 -24t-24 -10z" />
    <glyph glyph-name="i.dot" horiz-adv-x="616" 
d="M104 1208v287h406v-287h-406zM113 0v1108h389v-1108h-389z" />
    <glyph glyph-name="caron.alt" 
d="M385 1126l23 441h268v-6l-133 -435h-158z" />
    <glyph glyph-name="acute.cap" 
d="M260 1532l221 332l371 -113l-303 -219h-289z" />
    <glyph glyph-name="hungarumlaut.cap" 
d="M446 1532l127 201l-268 -201h-262l211 332l334 -111l69 111l344 -113l-292 -219h-263z" />
    <glyph glyph-name="grave.cap" 
d="M541 1864l223 -332h-291l-303 219z" />
    <glyph glyph-name="circumflex.cap" 
d="M88 1532l252 305h346l252 -305h-266l-162 108l-162 -108h-260z" />
    <glyph glyph-name="caron.cap" 
d="M938 1837l-252 -305h-346l-252 305h264l162 -108l162 108h262z" />
    <glyph glyph-name="breve.cap" 
d="M512 1528q-172 0 -277.5 79t-125.5 230h235q39 -92 168 -92q69 0 109 23t61 69h233q-20 -152 -125 -230.5t-278 -78.5z" />
    <glyph glyph-name="tilde.cap" 
d="M254 1516l-186 51q35 157 95 231t163 74q68 0 189.5 -40t148.5 -40q40 0 62 21.5t44 72.5l186 -51q-33 -155 -93.5 -229t-162.5 -74q-69 0 -190.5 40t-147.5 40q-41 0 -64 -22t-44 -74z" />
    <glyph glyph-name="macron.cap" 
d="M104 1546v240h816v-240h-816z" />
    <glyph glyph-name="dieresis.cap" 
d="M569 1532v283h338v-283h-338zM117 1532v283h338v-283h-338z" />
    <glyph glyph-name="dotaccent.cap" 
d="M338 1532v283h348v-283h-348z" />
    <glyph glyph-name="ring.cap" 
d="M223 1792q0 109 84 182.5t205 73.5t205 -73.5t84 -182.5q0 -111 -84 -184.5t-205 -73.5t-205 73.5t-84 184.5zM365 1792q0 -58 41 -95.5t106 -37.5t106 37.5t41 95.5q0 57 -41 95t-106 38t-106 -38t-41 -95z" />
    </font>
</defs>
</svg>
